osu file format v14

[General]
AudioFilename: audio.mp3
AudioLeadIn: 0
PreviewTime: 110033
Countdown: 0
SampleSet: Soft
StackLeniency: 0.2
Mode: 0
LetterboxInBreaks: 0
WidescreenStoryboard: 0

[Editor]
Bookmarks: 41507,69121,82934,108834,110560,124373,151999,158905,164085,165812,192575,193438,207251,219337,221064,262503,264229,290128
DistanceSpacing: 1.9
BeatDivisor: 4
GridSize: 4
TimelineZoom: 2

[Metadata]
Title:wozwald
TitleUnicode:ヲズワルド
Artist:yuu miyashita
ArtistUnicode:煮ル果実
Creator:Melwoine
Version:Trip to your mind
Source:
Tags:
BeatmapID:2056222
BeatmapSetID:982526

[Difficulty]
HPDrainRate:6
CircleSize:4
OverallDifficulty:9
ApproachRate:9
SliderMultiplier:1.4
SliderTickRate:1

[Events]
//Background and Video events
0,0,"unknown.png",0,0
//Break Periods
//Storyboard Layer 0 (Background)
//Storyboard Layer 1 (Fail)
//Storyboard Layer 2 (Pass)
//Storyboard Layer 3 (Foreground)
//Storyboard Sound Samples

[TimingPoints]
13882,431.654676258993,4,2,0,50,1,0
42371,-83.3333333333333,4,2,0,50,0,0
43018,-111.111111111111,4,2,0,50,0,0
49061,-58.8235294117647,4,2,0,50,0,0
50788,-55.5555555555556,4,2,0,50,0,0
53378,-100,4,2,0,50,0,0
57910,-66.6666666666667,4,2,0,50,0,0

[Colours]
Combo1 : 22,118,169
Combo2 : 182,182,182
Combo3 : 88,116,124
Combo4 : 169,48,27

[HitObjects]
146,361,13881,5,0,0:0:0:0:
82,304,14097,2,0,P|49:316|1:320,1,70
171,277,14529,2,0,P|249:284|337:301,1,140
403,384,15176,1,0,0:0:0:0:
393,298,15392,1,0,0:0:0:0:
374,174,15608,2,0,L|362:79,1,70
297,218,16040,1,0,0:0:0:0:
396,188,16256,2,0,L|373:19,1,140
273,103,16903,1,0,0:0:0:0:
138,100,17119,1,0,0:0:0:0:
126,110,17227,1,0,0:0:0:0:
138,109,17335,6,0,P|77:111|81:186,1,140
277,223,17982,6,0,P|275:154|255:64,1,140
354,100,18630,1,0,0:0:0:0:
443,95,18846,2,0,P|478:98|513:105,1,70
406,169,19277,1,0,0:0:0:0:
354,100,19493,1,0,0:0:0:0:
288,14,19709,6,0,B|212:-2|232:47|127:21,1,140
37,80,20356,1,0,0:0:0:0:
29,81,20464,1,0,0:0:0:0:
38,89,20572,1,0,0:0:0:0:
160,129,20788,5,0,0:0:0:0:
262,139,21004,2,0,L|343:149,1,70
215,204,21435,1,0,0:0:0:0:
91,196,21651,1,0,0:0:0:0:
160,130,21867,1,0,0:0:0:0:
151,272,22083,1,0,0:0:0:0:
151,272,22299,1,0,0:0:0:0:
151,369,22515,2,0,L|247:359,1,70
328,351,22946,1,0,0:0:0:0:
220,361,23162,2,0,L|80:375,1,140
25,263,23810,1,0,0:0:0:0:
102,250,24025,1,0,0:0:0:0:
97,257,24133,1,0,0:0:0:0:
108,260,24241,6,0,B|88:204|111:166|111:166|131:172|143:206,1,140
207,137,24889,2,0,P|207:70|230:-7,1,140
298,80,25536,1,0,0:0:0:0:
167,71,25752,2,0,L|94:67,1,70
136,148,26184,5,0,0:0:0:0:
136,148,26399,1,0,0:0:0:0:
69,212,26615,5,0,0:0:0:0:
45,204,26831,1,0,0:0:0:0:
147,239,27047,5,0,0:0:0:0:
244,267,27263,1,0,0:0:0:0:
249,275,27371,1,0,0:0:0:0:
248,261,27479,1,0,0:0:0:0:
280,179,27694,5,0,0:0:0:0:
179,146,27910,2,0,P|185:110|196:72,1,70
138,225,28342,2,0,P|150:297|158:373,1,140
232,290,28989,1,0,0:0:0:0:
317,267,29205,1,0,0:0:0:0:
408,238,29421,2,0,P|425:271|431:314,1,70
307,240,29853,1,0,0:0:0:0:
419,153,30069,2,0,P|429:116|429:2,1,140
347,42,30716,1,0,0:0:0:0:
250,17,30932,1,0,0:0:0:0:
225,12,31040,1,0,0:0:0:0:
236,22,31148,6,0,P|160:17|134:93,1,140
282,138,31795,2,0,P|362:127|435:131,1,140
491,191,32443,1,0,0:0:0:0:
491,191,32658,1,0,0:0:0:0:
343,318,33090,2,0,P|310:308|248:301,1,70
427,355,33522,2,0,P|421:269|411:209,1,140
322,208,34169,1,0,0:0:0:0:
333,229,34277,1,0,0:0:0:0:
327,226,34385,1,0,0:0:0:0:
244,247,34601,5,0,0:0:0:0:
158,266,34817,2,0,L|63:288,1,70
22,257,35248,2,0,L|161:287,1,140
257,338,35896,1,0,0:0:0:0:
244,247,36112,1,0,0:0:0:0:
232,157,36328,2,0,P|221:121|205:88,1,70
310,196,36759,1,0,0:0:0:0:
366,130,36975,2,0,P|376:54|412:-6,1,140
455,63,37623,1,0,0:0:0:0:
476,153,37838,1,0,0:0:0:0:
471,168,37946,1,0,0:0:0:0:
476,162,38054,6,0,B|455:244|516:213|485:314,1,140
361,140,38702,2,0,P|343:72|320:5,1,140
229,57,39349,1,0,0:0:0:0:
150,92,39565,5,0,0:0:0:0:
150,92,39997,5,0,0:0:0:0:
150,92,40428,5,0,0:0:0:0:
150,92,40860,5,0,0:0:0:0:
137,166,41076,2,0,P|134:126|130:88,1,70
107,252,41507,1,0,0:0:0:0:
107,252,41723,1,0,0:0:0:0:
188,284,41939,1,0,0:0:0:0:
223,203,42155,1,0,0:0:0:0:
223,203,42371,1,0,0:0:0:0:
263,116,42587,1,0,0:0:0:0:
324,169,42802,5,0,0:0:0:0:
324,169,43018,2,0,P|360:128|403:149,1,94.499997116089
413,231,43450,1,0,0:0:0:0:
436,240,43666,1,0,0:0:0:0:
456,248,43882,1,0,0:0:0:0:
456,248,44097,1,0,0:0:0:0:
330,280,44313,2,0,B|296:282|296:282|251:310,1,62.9999980773926
185,303,44745,1,0,0:0:0:0:
221,224,44961,6,0,B|198:160|198:160|216:85,1,125.999996154785
287,111,45608,1,0,0:0:0:0:
287,111,45824,1,0,0:0:0:0:
227,16,46040,1,0,0:0:0:0:
227,16,46256,1,0,0:0:0:0:
147,22,46471,1,0,0:0:0:0:
147,22,46903,5,0,0:0:0:0:
227,16,47119,1,0,0:0:0:0:
305,10,47335,1,0,0:0:0:0:
147,22,47551,2,0,L|62:28,1,62.9999980773926
64,46,47874,1,0,0:0:0:0:
70,31,47982,1,0,0:0:0:0:
41,160,48198,5,0,0:0:0:0:
113,135,48306,1,0,0:0:0:0:
156,196,48414,1,0,0:0:0:0:
162,76,48630,5,0,0:0:0:0:
206,139,48738,1,0,0:0:0:0:
156,196,48846,1,0,0:0:0:0:
274,171,49061,6,0,P|332:157|404:158,1,119.000002269745
276,90,49493,5,0,0:0:0:0:
272,81,49601,1,0,0:0:0:0:
263,73,49709,1,0,0:0:0:0:
341,42,49925,5,0,0:0:0:0:
346,34,50033,1,0,0:0:0:0:
348,23,50141,1,0,0:0:0:0:
425,51,50356,5,0,0:0:0:0:
434,51,50464,1,0,0:0:0:0:
444,48,50572,1,0,0:0:0:0:
459,129,50788,6,0,P|388:157|378:225,1,125.999996154785
443,225,51220,1,0,0:0:0:0:
359,236,51435,1,0,0:0:0:0:
276,248,51651,1,0,0:0:0:0:
115,307,51867,5,0,0:0:0:0:
131,305,51975,1,0,0:0:0:0:
173,319,52083,1,0,0:0:0:0:
200,326,52191,1,0,0:0:0:0:
227,336,52299,1,0,0:0:0:0:
164,224,52515,5,0,0:0:0:0:
156,202,52623,1,0,0:0:0:0:
149,178,52730,1,0,0:0:0:0:
179,160,52838,1,0,0:0:0:0:
186,146,52946,1,0,0:0:0:0:
113,102,53162,1,0,0:0:0:0:
113,102,53378,2,0,P|182:93|213:94,1,70
52,160,53810,5,0,0:0:0:0:
45,146,53917,2,0,L|37:123,1,17.5
42,170,54025,2,0,L|34:240,1,70
112,85,54457,1,0,0:0:0:0:
102,57,54565,1,0,0:0:0:0:
111,66,54673,2,0,P|111:24|78:7,1,70
205,18,55105,1,0,0:0:0:0:
205,18,55320,1,0,0:0:0:0:
243,98,55536,5,0,0:0:0:0:
260,91,55644,1,0,0:0:0:0:
250,87,55752,1,0,0:0:0:0:
254,104,55860,1,0,0:0:0:0:
311,150,55968,5,0,0:0:0:0:
322,147,56076,1,0,0:0:0:0:
335,142,56184,1,0,0:0:0:0:
429,111,56399,1,0,0:0:0:0:
432,192,56615,2,0,P|437:162|441:112,1,70
480,255,57047,5,0,0:0:0:0:
492,259,57155,1,0,0:0:0:0:
499,252,57263,1,0,0:0:0:0:
488,246,57371,1,0,0:0:0:0:
471,308,57479,1,0,0:0:0:0:
479,334,57587,1,0,0:0:0:0:
486,355,57694,1,0,0:0:0:0:
493,373,57802,1,0,0:0:0:0:
255,352,58126,5,0,0:0:0:0:
255,245,58342,1,0,0:0:0:0:
255,138,58558,1,0,0:0:0:0:
