osu file format v14

[General]
AudioFilename: audio.mp3
AudioLeadIn: 0
PreviewTime: 43281
Countdown: 0
SampleSet: Soft
StackLeniency: 0.7
Mode: 0
LetterboxInBreaks: 0
WidescreenStoryboard: 1
SamplesMatchPlaybackRate: 1

[Editor]
Bookmarks: 11567,22538,33510,44481,49967,55453,60938,66424,77396
DistanceSpacing: 0.6
BeatDivisor: 4
GridSize: 16
TimelineZoom: 2

[Metadata]
Title:kyoumen no nami
TitleUnicode:鏡面の波
Artist:yurika
ArtistUnicode:yurika
Creator:lxyn
Version:ex
Source:houseki no kuni
Tags:anime
BeatmapID:1951661
BeatmapSetID:934848

[Difficulty]
HPDrainRate:5
CircleSize:4.6
OverallDifficulty:8.2
ApproachRate:9.4
SliderMultiplier:1.4
SliderTickRate:1

[Events]
//Background and Video events
0,0,"bg.png",0,0
//Break Periods
//Storyboard Layer 0 (Background)
//Storyboard Layer 1 (Fail)
//Storyboard Layer 2 (Pass)
//Storyboard Layer 3 (Foreground)
//Storyboard Sound Samples

[TimingPoints]
596,342.857142857143,4,2,0,50,1,0
11567,-133.333333333333,4,2,0,50,0,0
22538,-80,4,2,0,50,0,0
26996,-200,4,2,0,50,0,0
28024,-80,4,2,0,50,0,0
32310,-66.6666666666667,4,2,0,50,0,0
32653,-57.1428571428571,4,2,0,50,0,0
32996,-80,4,2,0,50,0,0
40538,-66.6666666666667,4,2,0,50,0,0
40881,-57.1428571428571,4,2,0,50,0,0
41224,-80,4,2,0,50,0,0
43796,-25,4,2,0,50,0,1
44053,-25,4,2,0,50,0,1
44310,-25,4,2,0,50,0,0
44481,-80,4,2,0,50,0,0
48596,-200,4,2,0,50,0,0
49967,-80,4,2,0,50,0,1
66424,-100,4,2,0,50,0,0
76538,-200,4,2,0,50,0,0

[Colours]
Combo1 : 250,255,215
Combo2 : 213,255,255
Combo3 : 227,255,215
Combo4 : 255,223,223

[HitObjects]
204,68,11567,6,0,B|277:51|249:126|349:92,1,131.25
512,224,12081,1,0,0:0:0:0:
512,224,17053,6,0,P|506:165|449:177,1,131.25
204,316,17567,1,0,0:0:0:0:
204,316,22538,6,0,B|131:299|159:374|59:340,1,131.25,4|0,0:0|0:0,0:0:0:0:
32,237,22881,2,0,P|76:273|107:226,1,87.5
96,265,23138,1,0,0:0:0:0:
96,265,23224,1,0,0:0:0:0:
274,319,23396,1,0,0:0:0:0:
310,253,23567,1,0,0:0:0:0:
221,166,23738,1,0,0:0:0:0:
214,175,24081,6,0,L|170:181,1,43.75
91,183,24253,1,0,0:0:0:0:
67,124,24338,1,0,0:0:0:0:
122,55,24424,1,0,0:0:0:0:
243,71,24596,1,0,0:0:0:0:
298,205,24767,1,0,0:0:0:0:
191,341,24938,1,0,0:0:0:0:
148,278,25109,1,0,0:0:0:0:
173,256,25195,1,0,0:0:0:0:
212,269,25281,6,0,B|285:252|257:327|357:293,1,131.25
512,252,25624,2,0,P|470:259|438:231,1,87.5
438,231,25881,1,0,0:0:0:0:
438,231,25967,1,0,0:0:0:0:
285,202,26138,2,0,P|325:212|353:181,1,87.5
354,97,26481,1,0,0:0:0:0:
359,106,26996,6,0,L|325:110,1,35
245,326,27339,1,0,0:0:0:0:
321,336,27510,1,0,0:0:0:0:
388,250,27681,1,0,0:0:0:0:
328,33,27853,1,0,0:0:0:0:
288,20,27939,1,0,0:0:0:0:
264,42,28024,6,0,B|191:25|219:100|119:66,1,131.25
149,150,28367,2,0,P|117:178|75:170,1,87.5
76,171,28624,1,0,0:0:0:0:
76,171,28710,1,0,0:0:0:0:
24,117,28881,1,0,0:0:0:0:
156,74,29053,1,0,0:0:0:0:
238,147,29224,1,0,0:0:0:0:
246,142,29567,6,0,L|239:205,1,43.75
265,313,29738,1,0,0:0:0:0:
216,356,29824,1,0,0:0:0:0:
137,331,29910,1,0,0:0:0:0:
119,250,30081,1,0,0:0:0:0:
258,138,30253,1,0,0:0:0:0:
459,203,30424,2,0,P|495:247|448:278,1,87.5
497,283,30681,1,0,0:0:0:0:
497,283,30767,6,0,B|424:266|452:341|352:307,1,131.25
356,235,31110,2,0,P|349:194|383:170,1,87.5
384,170,31367,1,0,0:0:0:0:
384,170,31453,1,0,0:0:0:0:
438,123,31624,1,0,0:0:0:0:
396,39,31796,1,0,0:0:0:0:
66,98,31967,2,0,L|153:89,1,87.5
213,177,32310,6,0,L|109:165,1,105.000004005432
160,242,32653,2,0,L|26:258,1,122.500001168251
30,262,32996,1,0,0:0:0:0:
147,316,33167,1,0,0:0:0:0:
332,68,33338,1,0,0:0:0:0:
289,117,33424,1,0,0:0:0:0:
314,196,33510,6,0,B|387:179|359:254|459:220,1,131.25,4|0,0:0|0:0,0:0:0:0:
488,286,33853,2,0,P|456:314|414:306,1,87.5
414,306,34110,1,0,0:0:0:0:
414,306,34196,1,0,0:0:0:0:
247,252,34366,1,0,0:0:0:0:
211,186,34538,1,0,0:0:0:0:
300,99,34710,2,0,P|332:127|374:119,1,87.5
368,109,35053,6,0,L|415:103,1,43.75
469,169,35224,1,0,0:0:0:0:
512,120,35310,1,0,0:0:0:0:
487,41,35396,1,0,0:0:0:0:
343,10,35567,1,0,0:0:0:0:
224,140,35738,1,0,0:0:0:0:
277,308,35910,1,0,0:0:0:0:
316,248,36081,1,0,0:0:0:0:
291,226,36167,1,0,0:0:0:0:
252,239,36253,6,0,B|179:222|207:297|107:263,1,131.25
88,185,36596,2,0,P|43:221|12:174,1,87.5
24,213,36853,1,0,0:0:0:0:
24,213,36938,1,0,0:0:0:0:
0,141,37110,1,0,0:0:0:0:
69,59,37281,1,0,0:0:0:0:
313,94,37453,2,0,P|274:109|238:87,1,87.5
237,86,37796,1,0,0:0:0:0:
324,249,37967,2,0,P|301:196|356:178,1,131.25
498,254,38310,2,0,P|491:312|435:300,2,131.25
366,346,38996,6,0,B|293:363|321:288|221:322,1,131.25,4|0,0:0|0:0,0:0:0:0:
224,225,39338,2,0,P|192:253|150:245,1,87.5
150,245,39596,1,0,0:0:0:0:
150,245,39681,1,0,0:0:0:0:
86,187,39853,1,0,0:0:0:0:
140,77,40024,1,0,0:0:0:0:
312,109,40196,2,0,L|323:204,1,87.5
391,155,40538,6,0,L|403:50,1,105.000004005432
471,93,40881,2,0,L|486:214,1,122.500001168251
479,207,41224,1,0,0:0:0:0:
479,207,41396,2,0,L|474:250,1,43.75
424,317,41567,1,0,0:0:0:0:
347,333,41653,1,0,0:0:0:0:
270,258,41738,6,0,B|197:241|225:316|125:282,1,131.25
93,224,42081,2,0,P|97:166|154:175,1,131.25
429,205,42424,2,0,P|414:165|373:162,1,87.5
281,260,42767,2,0,L|290:180,1,43.75
254,84,42938,1,0,0:0:0:0:
195,32,43024,1,0,0:0:0:0:
100,62,43110,1,0,0:0:0:0:
91,61,43281,6,0,L|100:140,1,43.75
354,227,43453,5,0,0:0:0:0:
442,195,43537,1,0,0:0:0:0:
469,79,43624,2,0,L|396:47,1,43.75
276,253,43796,6,0,B|297:324|348:262|369:366,1,140
334,136,44053,6,0,B|385:81|306:68|385:-1,1,140
203,145,44310,6,0,B|130:128|158:203|58:169,1,140
439,204,44481,5,0,0:0:0:0:
436,185,44653,1,0,0:0:0:0:
453,193,44824,1,0,0:0:0:0:
334,255,44996,5,0,0:0:0:0:
353,232,45168,1,0,0:0:0:0:
366,260,45339,1,0,0:0:0:0:
217,201,45510,5,0,0:0:0:0:
267,193,45682,1,0,0:0:0:0:
244,239,45853,1,0,0:0:0:0:
161,58,46024,5,0,0:0:0:0:
221,112,46195,1,0,0:0:0:0:
152,137,46367,1,0,0:0:0:0:
367,122,46538,5,0,0:0:0:0:
378,136,46710,1,0,0:0:0:0:
221,112,46881,5,0,0:0:0:0:
249,97,47053,1,0,0:0:0:0:
68,119,47224,5,0,0:0:0:0:
53,108,47395,1,0,0:0:0:0:
69,101,47567,1,0,0:0:0:0:
65,211,47738,5,0,0:0:0:0:
25,244,47909,1,0,0:0:0:0:
17,194,48081,1,0,0:0:0:0:
123,357,48253,5,0,0:0:0:0:
53,349,48424,1,0,0:0:0:0:
293,280,48596,6,0,L|337:274,1,35
246,202,48938,2,0,L|290:208,1,35
236,35,49281,1,0,0:0:0:0:
263,23,49453,1,0,0:0:0:0:
160,255,49624,1,0,0:0:0:0:
148,207,49796,1,0,0:0:0:0:
359,115,49967,6,0,P|319:127|292:97,1,87.5,4|0,0:0|0:0,0:0:0:0:
466,26,50224,2,0,P|433:53|392:45,1,87.5
229,38,50481,1,0,0:0:0:0:
229,38,50653,2,0,B|156:21|184:96|84:62,2,131.25
9,114,51338,6,0,P|53:150|84:103,1,87.5
284,137,51681,1,0,0:0:0:0:
284,137,51853,2,0,P|226:127|222:185,1,131.25
293,212,52196,1,0,0:0:0:0:
312,49,52367,1,0,0:0:0:0:
89,153,52539,1,0,0:0:0:0:
64,232,52625,1,0,0:0:0:0:
107,281,52710,6,0,B|180:264|152:339|252:305,1,131.25
359,333,53053,1,0,0:0:0:0:
359,333,53224,6,0,P|399:345|427:315,1,87.5
265,229,53567,1,0,0:0:0:0:
265,229,53738,2,0,P|298:255|339:247,1,87.5
339,247,53996,1,0,0:0:0:0:
339,247,54081,1,0,0:0:0:0:
401,179,54253,1,0,0:0:0:0:
89,135,54424,2,0,P|77:192|135:198,1,131.25,0|0,2:0|2:0,2:0:0:0:
274,69,54767,2,0,P|255:13|202:37,1,131.25,0|0,2:0|2:0,2:0:0:0:
127,205,55110,2,0,L|174:210,1,43.75
429,238,55281,1,0,0:0:0:0:
454,159,55367,1,0,0:0:0:0:
411,110,55453,5,0,0:0:0:0:
395,103,55624,1,0,0:0:0:0:
396,121,55796,1,0,0:0:0:0:
307,153,55967,5,0,0:0:0:0:
287,176,56139,1,0,0:0:0:0:
317,183,56310,1,0,0:0:0:0:
217,271,56481,5,0,0:0:0:0:
247,315,56653,1,0,0:0:0:0:
272,267,56824,1,0,0:0:0:0:
55,375,56996,5,0,0:0:0:0:
144,342,57167,1,0,0:0:0:0:
71,282,57338,1,0,2:0:0:0:
69,294,57510,5,0,2:0:0:0:
133,334,57681,1,0,0:0:0:0:
66,369,57852,1,0,0:0:0:0:
81,99,58024,1,0,0:0:0:0:
150,54,58110,1,0,0:0:0:0:
209,83,58196,6,0,B|282:66|254:141|354:107,1,131.25
325,27,58538,1,0,0:0:0:0:
343,195,58710,2,0,P|400:206|405:148,1,131.25
326,120,59053,1,0,0:0:0:0:
498,169,59224,2,0,P|502:112|444:113,1,87.5
483,101,59481,1,0,0:0:0:0:
483,101,59567,5,0,0:0:0:0:
342,76,59738,2,0,L|336:123,1,43.75
287,310,59910,1,0,0:0:0:0:
346,334,59995,1,0,0:0:0:0:
415,279,60081,1,0,0:0:0:0:
399,158,60253,1,0,0:0:0:0:
265,103,60424,1,0,0:0:0:0:
129,210,60595,1,0,0:0:0:0:
130,220,60767,1,0,0:0:0:0:
168,169,60852,1,0,0:0:0:0:
133,88,60938,6,0,B|60:71|88:146|-12:112,2,131.25
201,32,61624,2,0,P|242:25|266:60,1,87.5
347,63,61881,2,0,P|363:101|337:133,1,87.5
274,59,62138,1,0,0:0:0:0:
465,66,62310,6,0,P|494:117|440:140,1,131.25
440,140,62653,1,0,0:0:0:0:
227,213,62824,2,0,P|174:190|203:140,1,131.25
203,139,63167,1,0,0:0:0:0:
353,71,63338,1,0,0:0:0:0:
469,241,63510,1,0,0:0:0:0:
484,288,63596,1,0,0:0:0:0:
459,317,63681,6,0,B|386:300|414:375|314:341,1,131.25
179,361,64024,2,0,P|147:334|106:342,1,87.5
106,343,64281,1,0,0:0:0:0:
106,343,64367,1,0,0:0:0:0:
242,297,64538,1,0,0:0:0:0:
280,125,64710,1,0,0:0:0:0:
280,125,64881,1,0,0:0:0:0:
251,99,64967,1,0,0:0:0:0:
204,114,65053,5,0,0:0:0:0:
184,210,65224,1,0,0:0:0:0:
288,300,65396,1,0,0:0:0:0:
470,235,65567,1,0,0:0:0:0:
280,200,65738,1,0,0:0:0:0:
198,374,65910,1,0,0:0:0:0:
357,264,66081,1,0,0:0:0:0:
267,7,66252,1,0,0:0:0:0:
302,46,66338,1,0,0:0:0:0:
282,109,66424,6,0,B|209:92|237:167|137:133,1,140,4|0,0:0|0:0,0:0:0:0:
59,157,66938,2,0,P|64:218|125:206,1,140
125,206,67453,1,0,0:0:0:0:
14,275,67624,2,0,P|27:313|66:327,1,70
161,287,67967,5,0,0:0:0:0:
161,287,68138,2,0,P|200:289|220:255,1,70
169,137,68481,1,0,0:0:0:0:
169,137,68825,1,0,0:0:0:0:
238,47,68996,1,0,0:0:0:0:
238,47,69081,1,0,0:0:0:0:
238,47,69167,6,0,B|311:30|283:105|383:71,1,140
367,75,69681,1,0,0:0:0:0:
487,112,69853,1,0,0:0:0:0:
487,112,70196,1,0,0:0:0:0:
487,112,70367,2,0,P|510:88|502:55,1,70
251,132,70710,1,0,0:0:0:0:
251,132,70881,2,0,P|242:164|265:188,1,70
386,338,71224,1,0,0:0:0:0:
386,338,71567,1,0,0:0:0:0:
246,274,71738,1,0,0:0:0:0:
245,274,71824,1,0,0:0:0:0:
245,274,71910,6,0,B|172:257|200:332|100:298,1,140
81,176,72424,1,0,0:0:0:0:
81,176,72596,2,0,P|75:238|14:228,1,140
36,85,73110,2,0,P|69:78|96:100,1,70
78,183,73453,1,0,0:0:0:0:
78,183,73796,1,0,0:0:0:0:
206,22,73967,2,0,P|221:52|207:83,1,70
330,94,74310,2,0,P|311:122|277:126,1,70
273,140,74567,1,0,0:0:0:0:
273,140,74653,6,0,B|346:123|318:198|418:164,1,140
424,16,75167,1,0,0:0:0:0:
424,16,75338,2,0,P|404:60|444:88,1,105.000004005432
443,87,75681,1,0,0:0:0:0:
105,165,75853,1,0,0:0:0:0:
105,165,76024,6,0,L|36:174,1,70
386,236,76367,1,0,0:0:0:0:
386,236,76538,2,0,L|421:241,1,35
159,300,76881,1,0,0:0:0:0:
159,300,77053,1,0,0:0:0:0:
159,300,77224,2,0,L|143:307,1,17.5
323,366,77396,5,0,0:0:0:0:
