osu file format v14

[General]
AudioFilename: audio.mp3
AudioLeadIn: 0
PreviewTime: -1
Countdown: 0
SampleSet: Normal
StackLeniency: 0.7
Mode: 3
LetterboxInBreaks: 0
SpecialStyle: 0
WidescreenStoryboard: 0

[Editor]
DistanceSpacing: 1.1
BeatDivisor: 4
GridSize: 4
TimelineZoom: 2.2

[Metadata]
Title:Strawberry Karute (feat. peach box)
TitleUnicode:Strawberry Karute (feat. 桃箱)
Artist:yunomi
ArtistUnicode:yunomi
Creator:Hayabusa
Version:Big Strawberry
Source:
Tags:
BeatmapID:2012108
BeatmapSetID:961110

[Difficulty]
HPDrainRate:9
CircleSize:4
OverallDifficulty:9
ApproachRate:5
SliderMultiplier:1.4
SliderTickRate:1

[Events]
//Background and Video events
//Break Periods
//Storyboard Layer 0 (Background)
//Storyboard Layer 1 (Fail)
//Storyboard Layer 2 (Pass)
//Storyboard Layer 3 (Foreground)
//Storyboard Sound Samples

[TimingPoints]
12509,344.827586206897,4,1,0,100,1,0

[HitObjects]
64,192,12508,5,0,0:0:0:0:
192,192,12508,1,0,0:0:0:0:
64,192,12681,1,0,0:0:0:0:
320,192,12767,1,0,0:0:0:0:
64,192,12853,1,0,0:0:0:0:
192,192,12853,1,0,0:0:0:0:
448,192,12940,1,0,0:0:0:0:
320,192,13026,1,0,0:0:0:0:
192,192,13198,1,0,0:0:0:0:
448,192,13198,1,0,0:0:0:0:
320,192,13284,1,0,0:0:0:0:
192,192,13543,1,0,0:0:0:0:
64,192,13543,1,0,0:0:0:0:
320,192,13715,1,0,0:0:0:0:
448,192,13888,1,0,0:0:0:0:
320,192,13888,1,0,0:0:0:0:
448,192,14060,1,0,0:0:0:0:
192,192,14146,1,0,0:0:0:0:
448,192,14233,1,0,0:0:0:0:
320,192,14233,1,0,0:0:0:0:
64,192,14319,1,0,0:0:0:0:
192,192,14405,1,0,0:0:0:0:
320,192,14577,1,0,0:0:0:0:
64,192,14577,1,0,0:0:0:0:
192,192,14664,1,0,0:0:0:0:
320,192,14922,1,0,0:0:0:0:
448,192,14922,1,0,0:0:0:0:
192,192,15095,1,0,0:0:0:0:
448,192,15267,1,0,0:0:0:0:
192,192,15267,1,0,0:0:0:0:
192,192,15440,1,0,0:0:0:0:
320,192,15526,1,0,0:0:0:0:
448,192,15612,1,0,0:0:0:0:
64,192,15612,1,0,0:0:0:0:
320,192,15698,1,0,0:0:0:0:
192,192,15784,1,0,0:0:0:0:
448,192,15957,1,0,0:0:0:0:
320,192,15957,1,0,0:0:0:0:
192,192,16043,1,0,0:0:0:0:
64,192,16302,1,0,0:0:0:0:
192,192,16302,1,0,0:0:0:0:
320,192,16474,1,0,0:0:0:0:
64,192,16646,1,0,0:0:0:0:
448,192,16646,1,0,0:0:0:0:
320,192,16819,1,0,0:0:0:0:
192,192,16905,1,0,0:0:0:0:
64,192,16991,1,0,0:0:0:0:
320,192,16991,1,0,0:0:0:0:
448,192,17077,1,0,0:0:0:0:
320,192,17164,1,0,0:0:0:0:
192,192,17336,1,0,0:0:0:0:
64,192,17336,1,0,0:0:0:0:
320,192,17422,1,0,0:0:0:0:
192,192,17681,1,0,0:0:0:0:
64,192,17681,1,0,0:0:0:0:
320,192,17853,1,0,0:0:0:0:
192,192,18026,1,0,0:0:0:0:
64,192,18026,1,0,0:0:0:0:
320,192,18198,1,0,0:0:0:0:
192,192,18198,1,0,0:0:0:0:
320,192,18371,1,0,0:0:0:0:
448,192,18371,1,0,0:0:0:0:
192,192,18543,1,0,0:0:0:0:
64,192,18543,1,0,0:0:0:0:
192,192,18715,1,0,0:0:0:0:
320,192,18715,1,0,0:0:0:0:
320,192,18888,1,0,0:0:0:0:
448,192,18888,1,0,0:0:0:0:
64,192,19060,1,0,0:0:0:0:
192,192,19060,1,0,0:0:0:0:
192,192,19233,1,0,0:0:0:0:
320,192,19233,1,0,0:0:0:0:
320,192,19405,1,0,0:0:0:0:
448,192,19405,1,0,0:0:0:0:
192,192,19577,1,0,0:0:0:0:
320,192,19577,1,0,0:0:0:0:
64,192,19750,1,0,0:0:0:0:
192,192,19750,1,0,0:0:0:0:
448,192,19922,1,0,0:0:0:0:
320,192,19922,1,0,0:0:0:0:
192,192,20095,1,0,0:0:0:0:
320,192,20095,1,0,0:0:0:0:
64,192,20267,1,0,0:0:0:0:
192,192,20267,1,0,0:0:0:0:
448,192,20440,1,0,0:0:0:0:
320,192,20440,1,0,0:0:0:0:
192,192,20612,1,0,0:0:0:0:
320,192,20612,1,0,0:0:0:0:
64,192,20784,1,0,0:0:0:0:
192,192,20784,1,0,0:0:0:0:
320,192,20871,1,0,0:0:0:0:
448,192,20871,1,0,0:0:0:0:
64,192,20957,1,0,0:0:0:0:
192,192,20957,1,0,0:0:0:0:
320,192,21043,1,0,0:0:0:0:
448,192,21043,1,0,0:0:0:0:
192,192,21129,1,0,0:0:0:0:
64,192,21129,1,0,0:0:0:0:
320,192,21215,1,0,0:0:0:0:
448,192,21215,1,0,0:0:0:0:
192,192,21302,1,0,0:0:0:0:
64,192,21302,1,0,0:0:0:0:
320,192,21388,1,0,0:0:0:0:
448,192,21388,1,0,0:0:0:0:
192,192,21474,1,0,0:0:0:0:
64,192,21474,1,0,0:0:0:0:
320,192,21560,1,0,0:0:0:0:
448,192,21560,1,0,0:0:0:0:
192,192,21646,1,0,0:0:0:0:
64,192,21646,1,0,0:0:0:0:
320,192,21733,1,0,0:0:0:0:
448,192,21733,1,0,0:0:0:0:
192,192,21819,1,0,0:0:0:0:
64,192,21819,1,0,0:0:0:0:
320,192,21905,1,0,0:0:0:0:
448,192,21905,1,0,0:0:0:0:
192,192,21991,1,0,0:0:0:0:
64,192,21991,1,0,0:0:0:0:
320,192,22077,1,0,0:0:0:0:
448,192,22077,1,0,0:0:0:0:
192,192,22164,1,0,0:0:0:0:
64,192,22164,1,0,0:0:0:0:
448,192,23026,1,0,0:0:0:0:
320,192,23083,1,0,0:0:0:0:
64,192,23141,1,0,0:0:0:0:
192,192,23198,128,0,23543:0:0:0:0:
64,192,23543,128,0,23715:0:0:0:0:
448,192,23543,1,0,0:0:0:0:
192,192,23715,128,0,23888:0:0:0:0:
320,192,23715,1,0,0:0:0:0:
320,192,23888,128,0,24060:0:0:0:0:
448,192,23888,1,0,0:0:0:0:
64,192,23888,1,0,0:0:0:0:
448,192,24060,128,0,24577:0:0:0:0:
64,192,24060,1,0,0:0:0:0:
192,192,24233,1,0,0:0:0:0:
320,192,24405,1,0,0:0:0:0:
64,192,24405,1,0,0:0:0:0:
192,192,24405,128,0,24922:0:0:0:0:
64,192,24577,128,0,24664:0:0:0:0:
320,192,24664,128,0,24750:0:0:0:0:
64,192,24750,128,0,24922:0:0:0:0:
448,192,24922,128,0,25095:0:0:0:0:
320,192,24922,1,0,0:0:0:0:
320,192,25095,128,0,25267:0:0:0:0:
64,192,25095,1,0,0:0:0:0:
64,192,25267,128,0,25440:0:0:0:0:
448,192,25267,1,0,0:0:0:0:
192,192,25267,1,0,0:0:0:0:
192,192,25440,128,0,25612:0:0:0:0:
320,192,25440,1,0,0:0:0:0:
448,192,25612,1,0,0:0:0:0:
320,192,25784,128,0,25957:0:0:0:0:
192,192,25784,1,0,0:0:0:0:
64,192,25784,1,0,0:0:0:0:
448,192,25784,128,0,26302:0:0:0:0:
192,192,25957,1,0,0:0:0:0:
192,192,26129,128,0,26302:0:0:0:0:
64,192,26129,1,0,0:0:0:0:
64,192,26302,128,0,26474:0:0:0:0:
320,192,26302,1,0,0:0:0:0:
192,192,26474,128,0,26646:0:0:0:0:
320,192,26474,1,0,0:0:0:0:
320,192,26646,128,0,26819:0:0:0:0:
64,192,26646,1,0,0:0:0:0:
448,192,26646,1,0,0:0:0:0:
448,192,26819,128,0,27336:0:0:0:0:
192,192,26819,1,0,0:0:0:0:
64,192,26991,1,0,0:0:0:0:
320,192,27164,1,0,0:0:0:0:
192,192,27164,128,0,27681:0:0:0:0:
64,192,27336,128,0,27422:0:0:0:0:
320,192,27422,128,0,27509:0:0:0:0:
64,192,27509,128,0,27681:0:0:0:0:
448,192,27681,128,0,27853:0:0:0:0:
320,192,27681,1,0,0:0:0:0:
192,192,27767,1,0,0:0:0:0:
320,192,27853,128,0,28026:0:0:0:0:
64,192,27853,1,0,0:0:0:0:
192,192,27940,1,0,0:0:0:0:
64,192,28026,128,0,28198:0:0:0:0:
448,192,28026,1,0,0:0:0:0:
192,192,28198,128,0,28371:0:0:0:0:
448,192,28198,1,0,0:0:0:0:
320,192,28284,1,0,0:0:0:0:
448,192,28371,1,0,0:0:0:0:
64,192,28457,1,0,0:0:0:0:
448,192,28543,128,0,28715:0:0:0:0:
320,192,28543,128,0,29060:0:0:0:0:
192,192,28543,1,0,0:0:0:0:
192,192,28715,1,0,0:0:0:0:
64,192,28715,1,0,0:0:0:0:
192,192,28888,128,0,29060:0:0:0:0:
448,192,28888,1,0,0:0:0:0:
64,192,29060,128,0,29233:0:0:0:0:
448,192,29060,1,0,0:0:0:0:
192,192,29233,128,0,29405:0:0:0:0:
320,192,29233,1,0,0:0:0:0:
320,192,29405,128,0,29577:0:0:0:0:
64,192,29405,1,0,0:0:0:0:
448,192,29405,1,0,0:0:0:0:
448,192,29577,128,0,30095:0:0:0:0:
192,192,29577,1,0,0:0:0:0:
64,192,29750,1,0,0:0:0:0:
320,192,29922,1,0,0:0:0:0:
192,192,29922,128,0,30440:0:0:0:0:
64,192,30095,128,0,30181:0:0:0:0:
320,192,30181,128,0,30267:0:0:0:0:
64,192,30267,128,0,30440:0:0:0:0:
448,192,30440,128,0,30612:0:0:0:0:
320,192,30440,1,0,0:0:0:0:
320,192,30612,128,0,30784:0:0:0:0:
64,192,30612,1,0,0:0:0:0:
64,192,30784,128,0,30957:0:0:0:0:
448,192,30784,1,0,0:0:0:0:
192,192,30784,1,0,0:0:0:0:
192,192,30957,128,0,31129:0:0:0:0:
448,192,30957,1,0,0:0:0:0:
64,192,31129,1,0,0:0:0:0:
320,192,31302,128,0,31474:0:0:0:0:
64,192,31302,1,0,0:0:0:0:
448,192,31302,128,0,31819:0:0:0:0:
192,192,31474,1,0,0:0:0:0:
64,192,31646,128,0,31819:0:0:0:0:
320,192,31646,1,0,0:0:0:0:
192,192,31819,128,0,31991:0:0:0:0:
64,192,31991,128,0,32164:0:0:0:0:
448,192,31991,1,0,0:0:0:0:
320,192,32077,1,0,0:0:0:0:
192,192,32164,128,0,32336:0:0:0:0:
448,192,32164,1,0,0:0:0:0:
64,192,32336,128,0,32422:0:0:0:0:
448,192,32336,1,0,0:0:0:0:
192,192,32422,128,0,32509:0:0:0:0:
64,192,32509,128,0,32681:0:0:0:0:
192,192,32681,128,0,32853:0:0:0:0:
448,192,32681,1,0,0:0:0:0:
448,192,32853,128,0,33026:0:0:0:0:
192,192,33026,128,0,33112:0:0:0:0:
320,192,33112,128,0,33198:0:0:0:0:
448,192,33198,128,0,33371:0:0:0:0:
64,192,33284,1,0,0:0:0:0:
192,192,33371,128,0,33543:0:0:0:0:
320,192,33371,1,0,0:0:0:0:
64,192,33543,128,0,33715:0:0:0:0:
448,192,33543,1,0,0:0:0:0:
320,192,33629,1,0,0:0:0:0:
192,192,33715,128,0,34060:0:0:0:0:
448,192,33715,1,0,0:0:0:0:
320,192,33802,1,0,0:0:0:0:
64,192,33888,1,0,0:0:0:0:
320,192,33974,1,0,0:0:0:0:
448,192,34060,128,0,34233:0:0:0:0:
64,192,34060,1,0,0:0:0:0:
320,192,34233,128,0,34405:0:0:0:0:
192,192,34233,1,0,0:0:0:0:
192,192,34405,128,0,34577:0:0:0:0:
448,192,34405,1,0,0:0:0:0:
64,192,34577,128,0,34750:0:0:0:0:
448,192,34577,1,0,0:0:0:0:
320,192,34750,1,0,0:0:0:0:
192,192,34750,128,0,34922:0:0:0:0:
320,192,34922,128,0,35095:0:0:0:0:
64,192,34922,1,0,0:0:0:0:
448,192,34922,1,0,0:0:0:0:
448,192,35095,128,0,35612:0:0:0:0:
64,192,35612,128,0,35698:0:0:0:0:
192,192,35698,128,0,35784:0:0:0:0:
320,192,35784,128,0,35957:0:0:0:0:
448,192,35957,128,0,36129:0:0:0:0:
320,192,36129,128,0,36302:0:0:0:0:
64,192,36302,128,0,36474:0:0:0:0:
192,192,36474,128,0,36646:0:0:0:0:
320,192,36819,128,0,36991:0:0:0:0:
192,192,37164,128,0,37336:0:0:0:0:
