osu file format v14

[General]
AudioFilename: audio.mp3
AudioLeadIn: 0
PreviewTime: 11272
Countdown: 1
SampleSet: Normal
StackLeniency: 0.7
Mode: 0
LetterboxInBreaks: 0
WidescreenStoryboard: 0

[Editor]
Bookmarks: 190,11272,12037,13279,45858,49107,54648,69361,78533,85795
DistanceSpacing: 1.5
BeatDivisor: 4
GridSize: 4
TimelineZoom: 2

[Metadata]
Title:e a potencia (nao tem como) [prod VinnyBlack666]
TitleUnicode:é a potencia (não tem como) [prod VinnyBlack666]
Artist:yung lixo
ArtistUnicode:yung lixo
Creator:LeoFLT
Version:Carros rapidos, carros rapidos
Source:
Tags:yung lixo Vinny Black 666
BeatmapID:2079759
BeatmapSetID:994686

[Difficulty]
HPDrainRate:5
CircleSize:4.2
OverallDifficulty:8
ApproachRate:9.4
SliderMultiplier:2
SliderTickRate:1

[Events]
//Background and Video events
Video,0,"y2mate.com - yung_lixo_e_a_potencia_nao_tem_como_prod_vinnyblack666_d6kymWPdkj8_720p.mp4"
0,0,"poteeeencia.png",0,0
//Break Periods
2,49116,54108
//Storyboard Layer 0 (Background)
//Storyboard Layer 1 (Fail)
//Storyboard Layer 2 (Pass)
//Storyboard Layer 3 (Foreground)
//Storyboard Sound Samples

[TimingPoints]
190,382.165605095541,4,1,0,100,1,0
12323,-100,4,1,0,100,0,0
27514,-100,4,1,0,100,0,0
31527,-50,4,1,0,100,0,0
33534,-100,4,1,0,100,0,0
35158,-83.3333333333333,4,1,0,100,0,0
47100,-41.6666666666667,4,1,0,100,0,0
55030,-104.166666666667,4,1,0,100,0,0
56654,-100,4,1,0,100,0,0
57992,-149.253731343284,4,1,0,100,0,0
61336,-133.333333333333,4,1,0,100,0,0
61718,-100,4,1,0,100,0,0
65922,-333.333333333333,4,1,0,100,0,0
68407,-200,4,1,0,100,0,0
69361,-222.222222222222,4,1,0,100,0,0
70508,-400,4,1,0,100,0,0
71559,-263.157894736842,4,1,0,100,0,0
72419,-200,4,1,0,100,0,0
73565,-200,4,1,0,100,0,0
74616,-250,4,1,0,100,0,0
75381,-263.157894736842,4,1,0,100,0,0
80911,-142.857142857143,4,1,0,100,0,0

[HitObjects]
38,139,190,5,2,0:0:0:0:
314,165,1336,2,2,B|441:315,1,150
176,170,2100,2,4,P|176:232|176:233,4,50
61,336,3056,5,2,0:0:0:0:
78,326,3247,2,2,P|147:246|147:246,1,100
247,164,4393,6,2,P|292:211|205:290,1,200
136,74,5922,5,2,0:0:0:0:
268,76,6113,1,2,0:0:0:0:
314,92,6304,2,2,B|384:177,1,100
38,139,7451,5,2,0:0:0:0:
169,129,8215,2,2,L|167:186,4,50
388,75,9170,5,2,0:0:0:0:
117,275,9362,1,2,0:0:0:0:
78,326,10508,2,2,P|207:166|207:166,1,200
197,164,11368,6,2,L|245:163,3,50
247,164,11654,2,2,P|292:211|252:274,1,150
413,339,12323,6,2,B|316:336|325:336,2,50
106,334,13374,6,2,L|156:292,2,50
141,72,14330,5,2,0:0:0:0:
381,270,14712,2,2,B|266:255,1,100
476,26,15094,2,2,P|409:29|381:66,1,100
445,86,15476,2,2,P|445:137|406:165,1,100
266,281,16241,2,2,P|333:278|361:241,1,100
297,221,16623,2,2,P|297:170|336:142,1,100
196,141,17387,5,2,0:0:0:0:
196,141,17483,1,2,0:0:0:0:
196,141,17578,1,2,0:0:0:0:
203,140,17865,6,2,P|262:166|293:277,1,150
293,250,18534,2,2,B|302:199|274:174|274:174,1,50
172,143,18916,5,2,0:0:0:0:
180,138,19011,1,2,0:0:0:0:
194,130,19107,2,2,P|257:112|296:151,1,100
288,186,19680,5,2,0:0:0:0:
312,156,20062,2,2,L|349:115,1,50
195,196,20444,5,2,0:0:0:0:
193,156,20635,2,2,L|205:90,1,50
209,104,21018,1,2,0:0:0:0:
226,71,21209,2,2,P|279:62|292:106,1,100
293,124,21591,6,2,L|295:180,1,50
99,182,21973,5,2,0:0:0:0:
116,149,22164,2,2,P|169:140|182:184,1,100
243,212,22355,1,2,0:0:0:0:
283,93,22737,6,2,B|327:180|246:255,1,150
256,192,23120,12,2,23502,0:0:0:0:
256,192,23884,12,2,24266,0:0:0:0:
45,35,24457,5,2,0:0:0:0:
103,37,24648,2,2,P|165:37|173:84,1,100
190,98,25030,1,2,0:0:0:0:
207,123,25221,1,2,0:0:0:0:
267,149,25413,2,2,B|386:180|445:269|442:268,1,200
300,213,25986,5,2,0:0:0:0:
258,253,26177,2,2,P|214:297|175:269,1,100
101,223,26559,1,2,0:0:0:0:
101,223,26654,1,2,0:0:0:0:
101,223,26750,1,2,0:0:0:0:
392,125,26941,5,2,0:0:0:0:
392,125,27132,2,2,P|383:186|321:217,1,100
88,275,27514,5,2,0:0:0:0:
120,174,27705,1,2,0:0:0:0:
390,157,28470,2,2,P|331:269|233:298,1,200
192,274,29043,5,2,0:0:0:0:
110,234,29234,1,2,0:0:0:0:
111,128,29425,5,2,0:0:0:0:
190,190,29616,1,2,0:0:0:0:
260,128,29807,1,2,0:0:0:0:
312,148,29999,2,2,B|346:219|305:266,2,100
303,175,30763,5,2,0:0:0:0:
237,255,30954,1,2,0:0:0:0:
237,255,31145,1,2,0:0:0:0:
79,221,31336,5,2,0:0:0:0:
91,157,31527,2,2,B|162:79|162:79|257:57|255:56,1,200
346,103,32100,2,2,P|358:221|292:305,1,200
246,307,32483,1,2,0:0:0:0:
288,337,32865,5,2,0:0:0:0:
223,306,33056,1,2,0:0:0:0:
170,249,33247,1,2,0:0:0:0:
167,176,33438,1,2,0:0:0:0:
196,114,33629,6,2,B|261:57|261:57|360:-5,1,200
185,64,34393,5,2,0:0:0:0:
306,128,34585,1,2,0:0:0:0:
203,195,34776,1,2,0:0:0:0:
210,285,34967,1,2,0:0:0:0:
369,238,35158,6,2,B|442:172|442:172|466:15,1,239.999992675781
369,233,35731,2,2,B|290:287|220:266|181:238|185:170|189:112|158:19|120:184|29:142|39:196|43:277|101:340|218:345|246:106,1,719.999978027344
140,198,37069,5,2,0:0:0:0:
256,80,37260,1,2,0:0:0:0:
346,233,37451,1,2,0:0:0:0:
109,94,37642,5,2,0:0:0:0:
402,56,37833,1,2,0:0:0:0:
243,311,38024,1,2,0:0:0:0:
78,42,38215,5,2,0:0:0:0:
417,51,38406,1,2,0:0:0:0:
242,356,38597,1,2,0:0:0:0:
35,0,38788,5,2,0:0:0:0:
425,304,38979,1,2,0:0:0:0:
54,306,39171,1,2,0:0:0:0:
354,80,39362,5,2,0:0:0:0:
164,320,39553,1,2,0:0:0:0:
146,40,39744,1,2,0:0:0:0:
117,310,39935,5,2,0:0:0:0:
311,235,40126,1,2,0:0:0:0:
320,79,40317,1,2,0:0:0:0:
115,186,40508,5,2,0:0:0:0:
391,303,40699,1,2,0:0:0:0:
360,45,40890,1,2,0:0:0:0:
151,280,41081,5,2,0:0:0:0:
256,34,41272,1,2,0:0:0:0:
320,277,41463,5,2,0:0:0:0:
103,155,41654,1,2,0:0:0:0:
201,322,41846,1,2,0:0:0:0:
343,81,42037,1,2,0:0:0:0:
335,144,42228,2,2,B|324:222|260:260|262:260,1,119.999996337891
262,312,42801,5,2,0:0:0:0:
203,280,42992,2,2,B|137:246|157:176,1,119.999996337891
186,119,43374,5,2,0:0:0:0:
232,104,43565,1,2,0:0:0:0:
311,100,43756,2,2,P|380:135|357:205,1,119.999996337891
300,260,44139,1,2,0:0:0:0:
96,269,44330,1,2,0:0:0:0:
96,269,44426,1,2,0:0:0:0:
96,269,44521,2,2,P|72:247|103:215,1,59.9999981689454
150,172,44903,5,2,0:0:0:0:
282,190,45094,1,2,0:0:0:0:
371,297,45285,1,2,0:0:0:0:
224,329,45476,2,2,P|186:329|159:258,1,119.999996337891
416,115,45858,1,2,0:0:0:0:
416,115,45954,1,2,0:0:0:0:
416,115,46049,2,2,P|440:137|408:168,1,59.9999981689454
332,214,46432,5,2,0:0:0:0:
287,199,46527,2,2,P|257:181|258:146,1,59.9999981689454
248,113,46814,1,2,0:0:0:0:
132,65,47005,1,2,0:0:0:0:
132,74,47100,2,2,L|132:348,1,239.999992675781
114,335,47578,5,2,0:0:0:0:
196,302,47769,1,2,0:0:0:0:
282,240,47960,1,2,0:0:0:0:
348,123,48151,1,2,0:0:0:0:
219,23,48342,1,2,0:0:0:0:
55,16,48533,1,2,0:0:0:0:
70,107,48725,2,2,B|189:183|259:140|277:275|277:276,1,239.999992675781
48,295,54648,5,2,0:0:0:0:
253,28,54744,1,2,0:0:0:0:
354,237,54935,2,2,P|232:279|135:198,1,239.999992675781
148,223,55221,2,2,P|267:176|367:254,1,239.999992675781
225,306,55795,1,2,0:0:0:0:
103,117,55986,1,2,0:0:0:0:
377,76,56177,1,2,0:0:0:0:
353,212,56463,5,2,0:0:0:0:
263,239,56654,2,2,P|195:230|155:199,1,100
122,163,57037,1,2,0:0:0:0:
110,46,57228,1,2,0:0:0:0:
175,4,57419,2,2,B|239:-44|271:-14|328:39,1,150
366,81,57801,5,2,0:0:0:0:
366,81,57897,1,2,0:0:0:0:
366,81,57992,2,2,P|402:117|340:235,1,200
202,245,58661,5,2,0:0:0:0:
96,140,58852,1,2,0:0:0:0:
229,64,59043,2,2,B|292:38|322:96|322:97,1,100
309,144,59425,5,2,0:0:0:0:
338,247,59616,1,2,0:0:0:0:
98,300,59807,2,2,P|45:257|51:193,1,100
163,103,60189,5,2,0:0:0:0:
362,257,60381,1,2,0:0:0:0:
110,261,60572,2,2,B|186:187,1,100
311,159,60858,5,2,0:0:0:0:
60,62,60954,1,2,0:0:0:0:
373,313,61145,1,2,0:0:0:0:
83,297,61336,2,2,B|48:251|126:129,1,160
155,114,61814,5,2,0:0:0:0:
214,101,61909,1,2,0:0:0:0:
262,97,62005,2,2,B|301:90|334:150|288:216|268:243|257:301|318:329,1,250
85,260,62674,2,2,P|70:234|111:188,1,100
160,146,62960,1,2,0:0:0:0:
235,106,63247,2,2,P|278:72|375:90,1,150
416,115,63916,5,2,0:0:0:0:
416,115,64012,1,2,0:0:0:0:
416,115,64107,2,2,P|403:272|247:319,1,300
264,203,64871,5,2,0:0:0:0:
259,198,64967,2,2,P|190:125|17:195,1,300
184,261,65731,5,2,0:0:0:0:
337,51,65922,2,2,L|338:106,1,50
331,143,66495,1,2,0:0:0:0:
200,115,66591,2,2,L|147:99,1,44.999998626709
76,312,67068,5,2,0:0:0:0:
228,245,67451,2,2,B|277:242|293:197,1,74.9999977111817
228,245,68502,2,2,B|277:242|293:197,1,75.0000028610231
228,245,69361,2,2,B|277:242|292:197|293:197,1,75
52,62,70126,5,2,0:0:0:0:
305,81,70508,2,2,B|295:77|341:90|343:126,1,37.5000014305115
354,225,71559,2,2,B|348:272|301:285,1,75.0000028610231,2|2,0:0|2:3,0:0:0:0:
215,283,72419,2,2,B|170:298|138:260,1,75.0000028610231,2|2,0:0|2:3,0:0:0:0:
93,217,73183,5,2,0:0:0:0:
94,115,73565,2,2,B|96:67|142:51,1,75.0000028610231,2|2,0:0|2:3,0:0:0:0:
288,15,74616,2,2,B|334:5|362:45,1,75.0000028610231,2|2,2:0|2:3,2:0:0:0:
288,15,75381,2,2,B|334:5|362:45,1,75.0000028610231,2|2,2:0|2:3,2:0:0:0:
104,340,76240,5,2,0:0:0:0:
79,280,76623,2,2,B|34:263|33:214,1,75.0000028610231,2|2,2:0|2:3,2:0:0:0:
79,280,77674,2,2,B|34:263|33:214,1,75.0000028610231,2|2,2:0|2:3,2:0:0:0:
79,280,78533,2,2,B|34:263|33:214,1,75.0000028610231,2|2,2:0|2:3,2:0:0:0:
111,163,79298,5,2,0:0:0:0:
172,86,79680,2,2,B|215:67|250:101,1,75.0000028610231,2|2,2:0|2:3,2:0:0:0:
57,27,81018,6,2,B|258:144|280:292|165:326|326:373|369:348|369:348|414:324|433:221|346:120|177:243|0:342|-37:265|26:156|52:91|172:78|362:119|350:103|350:103|282:13|282:13|126:374,1,1749.99994659424
