osu file format v14

[General]
AudioFilename: audio.mp3
AudioLeadIn: 0
PreviewTime: 57607
Countdown: 0
SampleSet: Soft
StackLeniency: 0.7
Mode: 3
LetterboxInBreaks: 0
EpilepsyWarning: 1
SpecialStyle: 0
WidescreenStoryboard: 1

[Editor]
Bookmarks: 12861,25064,35912,46759,57607,67098,76590,79302,92861,103708,114556,130827,138285,144386
DistanceSpacing: 1
BeatDivisor: 5
GridSize: 16
TimelineZoom: 1.1

[Metadata]
Title:Lyrith -Meikyuu Lyrith-
TitleUnicode:Lyrith -迷宮リリス-
Artist:yumemidoll
ArtistUnicode:ユメミド
Creator:cai_ji_ccc
Version:Lyrith
Source:BOFU2017 - LEGENDA EST A MYTH -
Tags:hoyiqiang [gb]v1do shizehao yueast 2018 _stan mpg mg mappers' guild featured artist fa the bms of fighters ultimate 2017 muse dash chainbeet 同步音律喵赛克 musynx phigros 孤高クローバー Kokou Clover electronic instrumental IRON MAIDEN 遥壱朗 テンソル FRENZ2017 Leaf
BeatmapID:4139916
BeatmapSetID:1992352

[Difficulty]
HPDrainRate:8.5
CircleSize:4
OverallDifficulty:8
ApproachRate:5
SliderMultiplier:1.4
SliderTickRate:1

[Events]
//Background and Video events
0,0,"Lyrith.png",0,0
Video,0,"Lyrith.mp4"
//Break Periods
//Storyboard Layer 0 (Background)
//Storyboard Layer 1 (Fail)
//Storyboard Layer 2 (Pass)
//Storyboard Layer 3 (Foreground)
//Storyboard Layer 4 (Overlay)
//Storyboard Sound Samples

[TimingPoints]
658,338.983050847458,4,2,1,50,1,0
35912,-100,4,2,1,50,0,1
46081,-100,4,2,1,50,0,0
46759,-100,4,2,1,50,0,1
52183,-100,4,2,1,50,0,0
57607,338.983050847458,7,2,1,50,1,1
57607,-100,7,2,1,50,0,1
66759,-100,7,2,1,50,0,0
67098,-100,7,2,1,50,0,1
76590,338.983050847458,4,2,1,50,1,0
76590,-100,4,2,1,50,0,0
92861,-100,4,2,1,50,0,1
103369,-100,4,2,1,50,0,0
103708,-100,4,2,1,50,0,1
114556,-100,4,2,1,50,0,0
122691,-100,4,2,1,50,0,1
125403,-100,4,2,1,50,0,0
130827,-100,4,2,1,50,0,1
138284,-100,4,2,1,50,0,0

[HitObjects]
448,192,522,5,0,0:0:0:0:
320,192,573,1,0,0:0:0:0:
192,192,615,1,0,0:0:0:0:
64,192,658,128,0,1335:0:0:0:0:
448,192,658,1,0,0:0:0:0:
192,192,996,128,0,1674:0:0:0:0:
320,192,1335,128,0,2013:0:0:0:0:
448,192,1674,128,0,2013:0:0:0:0:
64,192,2013,128,0,2691:0:0:0:0:
192,192,2013,128,0,2352:0:0:0:0:
320,192,2691,128,0,3030:0:0:0:0:
448,192,2691,128,0,3369:0:0:0:0:
64,192,3285,1,0,0:0:0:0:
192,192,3369,128,0,4047:0:0:0:0:
320,192,3369,1,0,0:0:0:0:
448,192,3708,128,0,4386:0:0:0:0:
320,192,4047,128,0,4386:0:0:0:0:
64,192,4386,1,0,0:0:0:0:
192,192,4471,1,0,0:0:0:0:
448,192,4556,1,0,0:0:0:0:
320,192,4612,1,0,0:0:0:0:
64,192,4669,1,0,0:0:0:0:
192,192,4725,1,0,0:0:0:0:
448,192,4725,128,0,5234:0:0:0:0:
320,192,4895,1,0,0:0:0:0:
192,192,5064,1,0,0:0:0:0:
64,192,5234,128,0,5319:0:0:0:0:
64,192,5403,128,0,5742:0:0:0:0:
320,192,5403,1,0,0:0:0:0:
192,192,5573,1,0,0:0:0:0:
448,192,5742,1,0,0:0:0:0:
192,192,5855,1,0,0:0:0:0:
320,192,5968,1,0,0:0:0:0:
64,192,6081,1,0,0:0:0:0:
192,192,6081,1,0,0:0:0:0:
448,192,6081,128,0,7437:0:0:0:0:
64,192,6420,1,0,0:0:0:0:
320,192,6420,1,0,0:0:0:0:
192,192,6759,1,0,0:0:0:0:
320,192,6759,1,0,0:0:0:0:
64,192,7098,1,0,0:0:0:0:
192,192,7098,1,0,0:0:0:0:
64,192,7437,128,0,8793:0:0:0:0:
320,192,7437,1,0,0:0:0:0:
192,192,7607,1,0,0:0:0:0:
320,192,7776,1,0,0:0:0:0:
448,192,7946,1,0,0:0:0:0:
192,192,8115,1,0,0:0:0:0:
320,192,8285,1,0,0:0:0:0:
448,192,8454,1,0,0:0:0:0:
320,192,8624,1,0,0:0:0:0:
192,192,8793,1,2,0:0:0:0:
448,192,8793,128,0,9471:0:0:0:0:
192,192,9132,1,0,0:0:0:0:
64,192,9471,128,2,10149:0:0:0:0:
320,192,9471,1,0,0:0:0:0:
320,192,9810,1,0,0:0:0:0:
192,192,10149,1,2,0:0:0:0:
448,192,10149,128,0,10488:0:0:0:0:
64,192,10488,1,2,0:0:0:0:
192,192,10488,1,0,0:0:0:0:
64,192,10827,128,2,11166:0:0:0:0:
320,192,10827,1,0,0:0:0:0:
320,192,11166,1,2,0:0:0:0:
448,192,11166,1,0,0:0:0:0:
64,192,11505,1,0,0:0:0:0:
192,192,11505,1,0,0:0:0:0:
448,192,12522,1,0,0:0:0:0:
320,192,12607,1,0,0:0:0:0:
64,192,12691,1,0,0:0:0:0:
192,192,12776,1,0,0:0:0:0:
64,192,12861,1,2,0:0:0:0:
320,192,12861,1,0,0:0:0:40:CrashL.wav
448,192,12861,128,0,13200:0:0:0:0:
192,192,13200,128,0,13369:0:0:0:0:
320,192,13369,128,0,13539:0:0:0:0:
64,192,13539,1,0,0:0:0:0:
192,192,13624,1,0,0:0:0:0:
448,192,13708,1,0,0:0:0:0:
320,192,13765,1,0,0:0:0:0:
64,192,13821,1,0,0:0:0:0:
192,192,13878,1,0,0:0:0:0:
448,192,13963,1,0,0:0:0:0:
64,192,14047,1,2,0:0:0:0:
320,192,14047,1,0,0:0:0:0:
192,192,14132,1,0,0:0:0:0:
64,192,14217,1,2,0:0:0:0:
320,192,14217,1,0,0:0:0:40:CrashS.wav
448,192,14217,1,0,0:0:0:0:
192,192,14386,1,0,0:0:0:0:
448,192,14556,1,0,0:0:0:0:
192,192,14641,1,0,0:0:0:0:
320,192,14725,1,0,0:0:0:0:
64,192,14810,1,0,0:0:0:0:
448,192,14895,1,0,0:0:0:0:
192,192,14980,1,0,0:0:0:0:
320,192,15064,1,0,0:0:0:0:
64,192,15149,1,0,0:0:0:0:
192,192,15234,1,0,0:0:0:0:
448,192,15234,128,0,15403:0:0:0:0:
320,192,15403,128,0,15573:0:0:0:0:
64,192,15573,128,2,15912:0:0:0:0:
192,192,15573,1,0,0:0:0:40:CrashL.wav
448,192,15573,1,0,0:0:0:0:
192,192,15742,128,0,16081:0:0:0:0:
448,192,15912,128,0,16081:0:0:0:0:
64,192,16081,1,2,0:0:0:0:
320,192,16081,128,0,16251:0:0:0:0:
64,192,16251,128,2,16590:0:0:0:0:
192,192,16251,1,0,0:0:0:40:CrashL.wav
448,192,16251,1,0,0:0:0:0:
192,192,16420,128,0,16759:0:0:0:0:
448,192,16590,128,0,16759:0:0:0:0:
320,192,16759,128,0,16929:0:0:0:0:
64,192,16929,1,2,0:0:0:0:
192,192,16929,1,0,0:0:0:0:
448,192,17013,1,2,0:0:0:0:
64,192,17098,1,2,0:0:0:0:
192,192,17098,1,0,0:0:0:40:CrashS.wav
320,192,17098,1,0,0:0:0:0:
448,192,17183,1,0,0:0:0:0:
64,192,17268,1,2,0:0:0:0:
192,192,17268,1,0,0:0:0:40:CrashS.wav
320,192,17352,1,2,0:0:0:0:
448,192,17352,1,0,0:0:0:40:CrashS.wav
64,192,17437,1,0,0:0:0:0:
192,192,17522,1,2,0:0:0:0:
320,192,17522,1,0,0:0:0:40:CrashS.wav
64,192,17607,1,2,0:0:0:0:
448,192,17607,1,0,0:0:0:40:CrashS.wav
192,192,17691,1,0,0:0:0:0:
64,192,17776,1,2,0:0:0:0:
320,192,17776,1,0,0:0:0:40:CrashS.wav
448,192,17776,1,0,0:0:0:0:
192,192,17861,1,0,0:0:0:0:
320,192,17946,128,0,18115:0:0:0:0:
64,192,18115,1,2,0:0:0:0:
192,192,18115,1,0,0:0:0:0:
64,192,18285,1,2,0:0:0:0:
320,192,18285,1,0,0:0:0:40:CrashL.wav
448,192,18285,1,0,0:0:0:0:
320,192,18454,1,0,0:0:0:0:
64,192,18539,1,0,0:0:0:0:
192,192,18624,1,8,0:0:0:0:
448,192,18624,128,2,18793:0:0:0:0:
320,192,18708,128,0,18878:0:0:0:0:
64,192,18793,1,0,0:0:0:0:
192,192,18878,1,0,0:0:0:0:
320,192,18963,1,2,0:0:0:0:
448,192,18963,1,0,0:0:0:0:
64,192,19047,1,0,0:0:0:0:
192,192,19132,1,0,0:0:0:0:
320,192,19217,1,0,0:0:0:0:
64,192,19302,1,8,0:0:0:0:
448,192,19302,1,2,0:0:0:0:
320,192,19471,1,0,0:0:0:0:
192,192,19556,1,0,0:0:0:0:
64,192,19641,1,2,0:0:0:0:
448,192,19641,1,0,0:0:0:0:
320,192,19810,1,0,0:0:0:0:
192,192,19895,128,0,19980:0:0:0:0:
64,192,19980,128,8,20064:0:0:0:0:
448,192,19980,1,2,0:0:0:0:
320,192,20064,128,0,20149:0:0:0:0:
192,192,20149,128,0,20234:0:0:0:0:
64,192,20234,128,0,20319:0:0:0:0:
320,192,20319,128,2,20403:0:0:0:0:
448,192,20319,1,0,0:0:0:0:
192,192,20403,128,0,20488:0:0:0:0:
448,192,20488,128,0,20573:0:0:0:0:
320,192,20573,128,0,20658:0:0:0:0:
64,192,20658,1,8,0:0:0:0:
192,192,20658,1,2,0:0:0:0:
320,192,20827,1,0,0:0:0:0:
64,192,20912,1,0,0:0:0:0:
192,192,20996,1,2,0:0:0:0:
448,192,20996,1,0,0:0:0:0:
320,192,21166,1,0,0:0:0:0:
192,192,21251,1,0,0:0:0:0:
64,192,21335,1,2,0:0:0:0:
448,192,21335,1,8,0:0:0:0:
192,192,21505,1,0,0:0:0:0:
320,192,21590,1,0,0:0:0:0:
64,192,21674,1,2,0:0:0:0:
448,192,21674,1,0,0:0:0:0:
192,192,21759,1,0,0:0:0:0:
320,192,21844,1,0,0:0:0:0:
64,192,21929,1,0,0:0:0:0:
192,192,22013,1,8,0:0:0:0:
448,192,22013,1,2,0:0:0:0:
320,192,22183,1,0,0:0:0:0:
192,192,22268,1,0,0:0:0:0:
64,192,22352,1,2,0:0:0:0:
448,192,22352,1,0,0:0:0:0:
192,192,22522,1,2,0:0:0:0:
320,192,22522,1,0,0:0:0:40:CrashS.wav
448,192,22522,1,0,0:0:0:0:
64,192,22691,1,2,0:0:0:0:
192,192,22691,1,0,0:0:0:40:CrashS.wav
64,192,22776,1,2,0:0:0:0:
320,192,22776,1,0,0:0:0:40:CrashS.wav
448,192,22776,1,0,0:0:0:0:
320,192,22946,1,2,0:0:0:0:
448,192,22946,1,0,0:0:0:40:CrashS.wav
64,192,23030,1,2,0:0:0:0:
192,192,23030,1,0,0:0:0:40:CrashS.wav
448,192,23030,1,0,0:0:0:0:
64,192,23200,128,2,23708:0:0:0:0:
192,192,23200,1,0,0:0:0:40:CrashL.wav
320,192,23200,1,0,0:0:0:0:
448,192,23708,1,0,0:0:0:0:
192,192,23793,1,0,0:0:0:0:
320,192,23878,1,0,0:0:0:0:
64,192,23963,1,0,0:0:0:0:
192,192,24047,1,0,0:0:0:0:
448,192,24132,1,0,0:0:0:0:
320,192,24217,1,0,0:0:0:0:
64,192,24302,1,0,0:0:0:0:
192,192,24386,1,0,0:0:0:0:
448,192,24443,1,0,0:0:0:0:
320,192,24499,1,0,0:0:0:0:
64,192,24641,128,2,24810:0:0:0:0:
192,192,24641,128,0,24810:0:0:0:0:
320,192,24895,128,2,24980:0:0:0:0:
448,192,24895,128,0,24980:0:0:0:0:
64,192,25064,1,2,0:0:0:0:
192,192,25064,1,0,0:0:0:40:CrashL.wav
448,192,25064,128,0,25742:0:0:0:0:
320,192,25234,1,0,0:0:0:0:
64,192,25403,128,0,25742:0:0:0:0:
192,192,25573,128,0,25912:0:0:0:0:
320,192,25742,128,0,26081:0:0:0:0:
448,192,25912,128,0,26081:0:0:0:0:
64,192,26081,128,0,26420:0:0:0:0:
192,192,26251,128,2,26590:0:0:0:0:
448,192,26251,1,0,0:0:0:0:
320,192,26420,1,2,0:0:0:0:
448,192,26420,128,0,26759:0:0:0:0:
320,192,26590,128,0,26929:0:0:0:0:
64,192,26759,128,0,27098:0:0:0:0:
192,192,26929,128,2,27268:0:0:0:0:
448,192,26929,1,0,0:0:0:0:
320,192,27098,128,2,27268:0:0:0:0:
448,192,27098,128,0,27268:0:0:0:0:
64,192,27268,1,0,0:0:0:0:
320,192,27437,128,0,27607:0:0:0:0:
448,192,27607,1,2,0:0:0:0:
192,192,27607,128,0,27776:0:0:0:0:
64,192,27776,128,2,28454:0:0:0:0:
320,192,27776,1,0,0:0:0:0:
192,192,27946,1,0,0:0:0:0:
448,192,28115,128,0,28454:0:0:0:0:
320,192,28285,128,0,28624:0:0:0:0:
192,192,28454,128,0,28793:0:0:0:0:
64,192,28624,128,0,28793:0:0:0:0:
448,192,28793,128,0,29132:0:0:0:0:
64,192,28963,1,2,0:0:0:0:
320,192,28963,128,0,29302:0:0:0:0:
64,192,29132,128,2,29471:0:0:0:0:
192,192,29132,1,0,0:0:0:0:
192,192,29302,128,0,29641:0:0:0:0:
448,192,29471,128,0,29810:0:0:0:0:
64,192,29641,1,2,0:0:0:0:
320,192,29641,128,0,29980:0:0:0:0:
64,192,29810,128,2,29980:0:0:0:0:
192,192,29810,128,0,29980:0:0:0:0:
448,192,29980,1,0,0:0:0:0:
64,192,30149,128,0,30234:0:0:0:0:
192,192,30319,128,2,30403:0:0:0:0:
448,192,30319,1,0,0:0:0:0:
320,192,30488,128,2,31166:0:0:0:0:
448,192,30488,1,0,0:0:0:0:
64,192,30658,1,0,0:0:0:0:
448,192,30827,128,0,31166:0:0:0:0:
192,192,30996,128,0,31335:0:0:0:0:
64,192,31166,128,0,31505:0:0:0:0:
320,192,31335,128,0,31505:0:0:0:0:
448,192,31505,128,0,31844:0:0:0:0:
192,192,31674,1,2,0:0:0:0:
320,192,31674,128,0,32013:0:0:0:0:
64,192,31844,1,2,0:0:0:0:
192,192,31844,128,0,32183:0:0:0:0:
64,192,32013,128,0,32352:0:0:0:0:
320,192,32183,128,0,32522:0:0:0:0:
192,192,32352,1,2,0:0:0:0:
448,192,32352,128,0,32691:0:0:0:0:
64,192,32522,128,2,32691:0:0:0:0:
192,192,32522,128,0,32691:0:0:0:0:
320,192,32691,1,0,0:0:0:0:
64,192,32861,128,0,33030:0:0:0:0:
320,192,33030,128,2,33200:0:0:0:0:
448,192,33030,1,0,0:0:0:0:
64,192,33200,1,2,0:0:0:0:
192,192,33200,1,0,0:0:0:40:CrashL.wav
448,192,33200,1,0,0:0:0:0:
320,192,33369,1,0,0:0:0:0:
64,192,33539,128,0,33708:0:0:0:0:
192,192,33539,1,0,0:0:0:0:
320,192,33708,128,0,33878:0:0:0:0:
448,192,33708,1,0,0:0:0:0:
64,192,33878,1,2,0:0:0:0:
192,192,33878,1,0,0:0:0:40:CrashL.wav
448,192,33878,1,0,0:0:0:0:
320,192,34047,1,0,0:0:0:0:
64,192,34217,128,0,34386:0:0:0:0:
192,192,34217,1,0,0:0:0:0:
320,192,34386,128,0,34556:0:0:0:0:
448,192,34386,1,0,0:0:0:0:
64,192,34556,128,2,34725:0:0:0:0:
192,192,34556,128,0,34725:0:0:0:40:CrashS.wav
448,192,34556,128,0,34725:0:0:0:0:
64,192,34895,128,2,35064:0:0:0:0:
192,192,34895,128,0,35234:0:0:0:40:CrashS.wav
320,192,34895,128,0,35064:0:0:0:0:
64,192,35234,1,2,0:0:0:0:
320,192,35234,1,0,0:0:0:40:CrashS.wav
448,192,35234,1,0,0:0:0:0:
192,192,35319,1,0,0:0:0:0:
448,192,35403,1,0,0:0:0:0:
320,192,35488,1,0,0:0:0:0:
64,192,35573,128,0,35658:0:0:0:0:
192,192,35573,128,0,35742:0:0:0:0:
320,192,35742,128,0,35912:0:0:0:0:
448,192,35742,128,0,35827:0:0:0:0:
64,192,35912,128,2,35996:0:0:0:0:
192,192,35912,128,0,35996:0:0:0:40:CrashL.wav
448,192,35912,1,0,0:0:0:0:
320,192,35996,1,0,0:0:0:0:
192,192,36081,1,0,0:0:0:0:
448,192,36166,1,0,0:0:0:0:
64,192,36251,128,2,36335:0:0:0:0:
320,192,36251,128,8,36335:0:0:0:0:
192,192,36335,1,0,0:0:0:0:
320,192,36420,1,0,0:0:0:0:
64,192,36505,1,0,0:0:0:0:
448,192,36590,128,2,36674:0:0:0:0:
192,192,36590,128,0,36674:0:0:0:0:
320,192,36674,1,0,0:0:0:0:
192,192,36759,1,0,0:0:0:0:
64,192,36844,1,0,0:0:0:0:
320,192,36929,128,2,37013:0:0:0:0:
448,192,36929,128,8,37013:0:0:0:0:
192,192,37013,1,0,0:0:0:0:
448,192,37098,1,0,0:0:0:0:
320,192,37183,1,0,0:0:0:0:
192,192,37268,128,2,37352:0:0:0:0:
64,192,37268,128,0,37352:0:0:0:0:
448,192,37352,1,0,0:0:0:0:
320,192,37437,128,0,37522:0:0:0:0:
192,192,37437,128,0,37522:0:0:0:0:
64,192,37522,1,0,0:0:0:0:
448,192,37607,128,2,37691:0:0:0:0:
320,192,37607,128,8,37691:0:0:0:0:
64,192,37691,1,0,0:0:0:0:
320,192,37776,128,0,37861:0:0:0:0:
192,192,37776,128,0,37861:0:0:0:0:
448,192,37861,1,0,0:0:0:0:
192,192,37946,128,2,38030:0:0:0:0:
64,192,37946,128,0,38030:0:0:0:0:
320,192,38030,1,0,0:0:0:0:
448,192,38115,1,0,0:0:0:0:
192,192,38200,1,2,0:0:0:0:
64,192,38200,1,0,0:0:0:0:
448,192,38285,128,2,38369:0:0:0:0:
320,192,38285,128,8,38369:0:0:0:0:
64,192,38369,1,0,0:0:0:0:
320,192,38454,128,0,38539:0:0:0:0:
192,192,38454,128,0,38539:0:0:0:0:
448,192,38539,1,0,0:0:0:0:
192,192,38624,128,2,38708:0:0:0:0:
64,192,38624,128,0,38708:0:0:0:0:
320,192,38708,1,0,0:0:0:0:
192,192,38793,1,0,0:0:0:0:
448,192,38878,1,0,0:0:0:0:
320,192,38963,128,2,39047:0:0:0:0:
64,192,38963,128,8,39047:0:0:0:0:
192,192,39047,1,0,0:0:0:0:
320,192,39132,1,0,0:0:0:0:
64,192,39217,1,0,0:0:0:0:
192,192,39302,128,2,39386:0:0:0:0:
448,192,39302,128,0,39386:0:0:0:0:
320,192,39386,1,0,0:0:0:0:
192,192,39471,1,0,0:0:0:0:
64,192,39556,1,0,0:0:0:0:
448,192,39641,128,2,39725:0:0:0:0:
320,192,39641,128,8,39725:0:0:0:0:
192,192,39725,1,0,0:0:0:0:
448,192,39810,1,0,0:0:0:0:
320,192,39895,1,0,0:0:0:0:
64,192,39980,128,2,40064:0:0:0:0:
192,192,39980,128,0,40064:0:0:0:0:
448,192,40064,1,0,0:0:0:0:
192,192,40149,128,0,40234:0:0:0:0:
320,192,40149,128,0,40234:0:0:0:0:
64,192,40234,1,0,0:0:0:0:
320,192,40319,128,2,40403:0:0:0:0:
448,192,40319,128,8,40403:0:0:0:0:
64,192,40403,1,0,0:0:0:0:
192,192,40488,128,0,40573:0:0:0:0:
320,192,40488,128,0,40573:0:0:0:0:
448,192,40573,1,0,0:0:0:0:
64,192,40658,128,2,40742:0:0:0:0:
192,192,40658,128,0,40742:0:0:0:0:
320,192,40742,1,0,0:0:0:0:
448,192,40827,1,0,0:0:0:0:
64,192,40912,1,2,0:0:0:0:
192,192,40912,1,0,0:0:0:0:
320,192,40996,128,2,41081:0:0:0:0:
448,192,40996,128,8,41081:0:0:0:0:
64,192,41081,1,0,0:0:0:0:
192,192,41166,128,2,41251:0:0:0:0:
320,192,41166,128,0,41251:0:0:0:0:
448,192,41251,1,0,0:0:0:0:
64,192,41335,128,2,41420:0:0:0:0:
192,192,41335,128,0,41420:0:0:0:0:
320,192,41420,1,0,0:0:0:0:
448,192,41505,1,0,0:0:0:0:
64,192,41590,1,0,0:0:0:0:
192,192,41674,128,2,41759:0:0:0:0:
320,192,41674,128,8,41759:0:0:0:0:
448,192,41759,1,0,0:0:0:0:
64,192,41844,1,0,0:0:0:0:
192,192,41929,1,0,0:0:0:0:
320,192,42013,128,2,42098:0:0:0:0:
448,192,42013,128,0,42098:0:0:0:0:
192,192,42098,1,0,0:0:0:0:
64,192,42183,1,0,0:0:0:0:
448,192,42268,1,0,0:0:0:0:
192,192,42352,128,8,42437:0:0:0:0:
320,192,42352,128,2,42437:0:0:0:0:
64,192,42437,1,0,0:0:0:0:
448,192,42522,1,0,0:0:0:0:
320,192,42607,1,0,0:0:0:0:
64,192,42691,128,2,42776:0:0:0:0:
192,192,42691,128,0,42776:0:0:0:0:
448,192,42776,1,0,0:0:0:0:
192,192,42861,128,0,42946:0:0:0:0:
320,192,42861,128,0,42946:0:0:0:0:
64,192,42946,1,0,0:0:0:0:
320,192,43030,128,2,43115:0:0:0:0:
448,192,43030,128,8,43115:0:0:0:0:
64,192,43115,1,0,0:0:0:0:
192,192,43200,128,0,43285:0:0:0:0:
320,192,43200,128,0,43285:0:0:0:0:
448,192,43285,1,0,0:0:0:0:
64,192,43369,128,2,43454:0:0:0:0:
192,192,43369,128,0,43454:0:0:0:0:
448,192,43454,1,0,0:0:0:0:
320,192,43539,1,0,0:0:0:0:
64,192,43624,1,2,0:0:0:0:
192,192,43624,1,0,0:0:0:0:
320,192,43708,128,2,43793:0:0:0:0:
448,192,43708,128,8,43793:0:0:0:0:
64,192,43793,1,0,0:0:0:0:
192,192,43878,128,0,43963:0:0:0:0:
320,192,43878,128,0,43963:0:0:0:0:
448,192,43963,1,0,0:0:0:0:
64,192,44047,128,2,44132:0:0:0:0:
192,192,44047,128,0,44132:0:0:0:0:
320,192,44132,1,0,0:0:0:0:
448,192,44217,1,0,0:0:0:0:
64,192,44302,1,0,0:0:0:0:
192,192,44386,128,2,44471:0:0:0:0:
320,192,44386,128,8,44471:0:0:0:0:
448,192,44471,1,0,0:0:0:0:
64,192,44556,1,0,0:0:0:0:
192,192,44641,1,0,0:0:0:0:
320,192,44725,128,2,44810:0:0:0:0:
448,192,44725,128,0,44810:0:0:0:0:
192,192,44810,1,0,0:0:0:0:
64,192,44895,1,0,0:0:0:0:
448,192,44980,1,0,0:0:0:0:
192,192,45064,128,2,45149:0:0:0:0:
320,192,45064,128,8,45149:0:0:0:0:
64,192,45149,1,0,0:0:0:0:
448,192,45234,1,0,0:0:0:0:
320,192,45319,1,0,0:0:0:0:
64,192,45403,128,2,45488:0:0:0:0:
192,192,45403,128,0,45488:0:0:0:0:
448,192,45488,1,0,0:0:0:0:
192,192,45573,128,0,45658:0:0:0:0:
320,192,45573,128,0,45658:0:0:0:0:
448,192,45658,1,0,0:0:0:0:
64,192,45658,1,2,0:0:0:0:
192,192,45742,128,2,45827:0:0:0:0:
320,192,45742,128,8,45827:0:0:0:0:
64,192,45827,1,0,0:0:0:0:
320,192,45912,128,2,45996:0:0:0:0:
448,192,45912,128,0,45996:0:0:0:0:
64,192,45996,1,0,0:0:0:0:
192,192,46081,1,2,0:0:0:0:
448,192,46081,1,0,0:0:0:0:
320,192,46166,1,0,0:0:0:0:
64,192,46251,1,0,0:0:0:0:
192,192,46335,1,2,0:0:0:0:
448,192,46335,1,0,0:0:0:0:
64,192,46420,1,2,0:0:0:0:
320,192,46420,1,8,0:0:0:0:
192,192,46505,1,0,0:0:0:0:
320,192,46590,1,2,0:0:0:0:
448,192,46590,1,0,0:0:0:0:
64,192,46674,1,0,0:0:0:0:
192,192,46759,1,2,0:0:0:0:
320,192,46759,128,0,46844:0:0:0:40:CrashL.wav
448,192,46759,128,0,46844:0:0:0:0:
64,192,46844,1,0,0:0:0:0:
192,192,46929,1,0,0:0:0:0:
320,192,47013,1,0,0:0:0:0:
64,192,47098,1,2,0:0:0:0:
448,192,47098,1,8,0:0:0:0:
192,192,47183,1,0,0:0:0:0:
320,192,47268,1,0,0:0:0:0:
448,192,47352,1,0,0:0:0:0:
64,192,47437,1,2,0:0:0:0:
192,192,47437,1,0,0:0:0:0:
320,192,47522,1,0,0:0:0:0:
192,192,47607,1,0,0:0:0:0:
448,192,47607,1,0,0:0:0:0:
64,192,47691,1,0,0:0:0:0:
320,192,47776,128,2,47861:0:0:0:0:
448,192,47776,128,8,47861:0:0:0:0:
64,192,47861,1,0,0:0:0:0:
192,192,47946,128,0,48030:0:0:0:0:
448,192,47946,128,0,48030:0:0:0:0:
320,192,48030,1,0,0:0:0:0:
64,192,48115,128,2,48200:0:0:0:0:
192,192,48115,128,0,48200:0:0:0:0:
448,192,48200,1,0,0:0:0:0:
320,192,48285,1,0,0:0:0:0:
64,192,48369,1,2,0:0:0:0:
192,192,48369,1,0,0:0:0:0:
320,192,48454,128,2,48539:0:0:0:0:
448,192,48454,128,8,48539:0:0:0:0:
64,192,48539,1,0,0:0:0:0:
192,192,48624,128,2,48708:0:0:0:0:
448,192,48624,128,0,48708:0:0:0:0:
320,192,48708,1,0,0:0:0:0:
64,192,48793,128,2,48878:0:0:0:0:
192,192,48793,128,0,48878:0:0:0:0:
448,192,48878,1,0,0:0:0:0:
320,192,48963,1,0,0:0:0:0:
64,192,49047,1,2,0:0:0:0:
192,192,49047,1,0,0:0:0:0:
320,192,49132,128,2,49217:0:0:0:0:
448,192,49132,128,8,49217:0:0:0:0:
64,192,49217,1,0,0:0:0:0:
192,192,49302,128,2,49386:0:0:0:0:
448,192,49302,128,0,49386:0:0:0:0:
320,192,49386,1,0,0:0:0:0:
64,192,49471,128,2,49556:0:0:0:0:
192,192,49471,128,0,49556:0:0:0:0:
320,192,49556,1,0,0:0:0:0:
448,192,49641,1,0,0:0:0:0:
64,192,49725,1,0,0:0:0:0:
192,192,49810,1,2,0:0:0:0:
320,192,49810,1,8,0:0:0:0:
448,192,49895,1,0,0:0:0:0:
64,192,49980,1,0,0:0:0:0:
192,192,50064,1,0,0:0:0:0:
320,192,50149,1,2,0:0:0:0:
448,192,50149,1,0,0:0:0:0:
64,192,50234,1,0,0:0:0:0:
192,192,50319,1,0,0:0:0:0:
320,192,50403,1,2,0:0:0:0:
448,192,50403,1,0,0:0:0:0:
64,192,50488,128,2,50573:0:0:0:0:
192,192,50488,128,8,50573:0:0:0:0:
448,192,50573,1,0,0:0:0:0:
64,192,50658,128,2,50742:0:0:0:0:
320,192,50658,128,0,50742:0:0:0:0:
192,192,50742,1,0,0:0:0:0:
320,192,50827,128,2,50912:0:0:0:0:
448,192,50827,128,0,50912:0:0:0:0:
64,192,50912,1,0,0:0:0:0:
192,192,50996,1,0,0:0:0:0:
320,192,51081,1,2,0:0:0:0:
448,192,51081,1,0,0:0:0:0:
64,192,51166,128,2,51251:0:0:0:0:
192,192,51166,128,8,51251:0:0:0:0:
448,192,51251,1,0,0:0:0:0:
64,192,51335,128,2,51420:0:0:0:0:
320,192,51335,128,0,51420:0:0:0:0:
192,192,51420,1,0,0:0:0:0:
320,192,51505,128,2,51590:0:0:0:0:
448,192,51505,128,0,51590:0:0:0:0:
64,192,51590,1,0,0:0:0:0:
192,192,51674,1,0,0:0:0:0:
448,192,51759,1,0,0:0:0:0:
64,192,51844,128,2,51929:0:0:0:0:
320,192,51844,128,8,51929:0:0:0:0:
192,192,51929,1,0,0:0:0:0:
320,192,52013,128,2,52098:0:0:0:0:
448,192,52013,128,0,52098:0:0:0:0:
192,192,52098,1,0,0:0:0:0:
64,192,52183,1,2,0:0:0:0:
320,192,52183,1,0,0:0:0:40:CrashL.wav
448,192,52183,128,0,52522:0:0:0:0:
64,192,52522,1,0,0:0:0:0:
320,192,52607,1,0,0:0:0:0:
64,192,52691,1,0,0:0:0:0:
320,192,52776,1,0,0:0:0:0:
64,192,52861,128,2,53030:0:0:0:0:
192,192,52861,128,0,53030:0:0:0:40:CrashS.wav
448,192,52861,128,0,53030:0:0:0:0:
192,192,53200,128,2,53369:0:0:0:0:
320,192,53200,128,0,53539:0:0:0:40:CrashS.wav
448,192,53200,128,0,53369:0:0:0:0:
64,192,53539,128,0,54217:0:0:0:0:
192,192,53539,1,0,0:0:0:0:
448,192,53539,1,0,0:0:0:0:
448,192,53708,1,0,0:0:0:0:
192,192,53878,1,0,0:0:0:0:
320,192,53878,1,0,0:0:0:0:
192,192,54047,1,0,0:0:0:0:
320,192,54217,1,2,0:0:0:0:
448,192,54217,128,0,54556:0:0:0:0:
192,192,54556,128,0,54895:0:0:0:0:
64,192,54895,1,2,0:0:0:0:
320,192,54895,1,0,0:0:0:40:CrashL.wav
448,192,54895,1,0,0:0:0:0:
320,192,55149,1,2,0:0:0:0:
448,192,55149,1,0,0:0:0:0:
64,192,55234,1,2,0:0:0:0:
192,192,55234,1,0,0:0:0:0:
192,192,55403,1,2,0:0:0:0:
320,192,55403,1,0,0:0:0:0:
64,192,55573,1,2,0:0:0:0:
320,192,55573,1,0,0:0:0:40:CrashL.wav
448,192,55573,1,0,0:0:0:0:
192,192,55742,1,2,0:0:0:0:
448,192,55742,1,0,0:0:0:0:
64,192,55912,1,2,0:0:0:0:
320,192,55912,1,0,0:0:0:0:
64,192,56081,1,2,0:0:0:0:
192,192,56081,1,0,0:0:0:0:
192,192,56251,128,2,56420:0:0:0:0:
320,192,56251,128,0,56420:0:0:0:40:CrashS.wav
448,192,56251,128,0,56420:0:0:0:0:
64,192,56590,128,2,56759:0:0:0:0:
192,192,56590,128,0,57098:0:0:0:40:CrashS.wav
448,192,56590,128,0,56759:0:0:0:0:
64,192,56929,128,2,57098:0:0:0:0:
320,192,56929,128,0,57098:0:0:0:40:CrashS.wav
448,192,56929,128,0,57098:0:0:0:0:
64,192,57607,1,2,0:0:0:0:
320,192,57607,128,0,57776:0:0:0:40:CrashL.wav
448,192,57607,128,0,57776:0:0:0:0:
64,192,57776,128,0,57945:0:0:0:0:
192,192,57776,1,0,0:0:0:0:
192,192,57945,128,0,58115:0:0:0:0:
448,192,57945,1,0,0:0:0:0:
64,192,58115,1,2,0:0:0:0:
320,192,58115,128,0,58284:0:0:0:40:CrashL.wav
448,192,58115,128,0,58284:0:0:0:0:
64,192,58284,128,0,58454:0:0:0:0:
192,192,58284,1,0,0:0:0:0:
192,192,58454,128,0,58623:0:0:0:0:
448,192,58454,1,0,0:0:0:0:
64,192,58623,1,2,0:0:0:0:
320,192,58623,128,0,58793:0:0:0:40:CrashL.wav
448,192,58623,128,0,58793:0:0:0:0:
192,192,58793,1,0,0:0:0:0:
448,192,58878,1,0,0:0:0:0:
192,192,58962,1,0,0:0:0:0:
320,192,58962,1,0,0:0:0:0:
64,192,59132,1,2,0:0:0:0:
320,192,59132,128,0,59301:0:0:0:40:CrashL.wav
448,192,59132,128,0,59301:0:0:0:0:
64,192,59301,128,0,59471:0:0:0:0:
192,192,59301,1,0,0:0:0:0:
192,192,59471,128,0,59640:0:0:0:0:
320,192,59471,1,0,0:0:0:0:
64,192,59640,1,2,0:0:0:0:
448,192,59640,1,0,0:0:0:0:
192,192,59725,1,2,0:0:0:0:
320,192,59725,1,0,0:0:0:0:
64,192,59810,1,2,0:0:0:0:
448,192,59810,1,0,0:0:0:0:
320,192,59895,1,2,0:0:0:0:
64,192,59979,128,2,60149:0:0:0:0:
192,192,59979,128,0,60149:0:0:0:40:CrashL.wav
448,192,59979,1,0,0:0:0:0:
320,192,60149,1,0,0:0:0:0:
448,192,60149,128,0,60318:0:0:0:0:
64,192,60318,1,0,0:0:0:0:
320,192,60318,128,0,60488:0:0:0:0:
64,192,60488,128,2,60657:0:0:0:0:
192,192,60488,128,0,60657:0:0:0:40:CrashL.wav
448,192,60488,1,0,0:0:0:0:
320,192,60657,1,0,0:0:0:0:
448,192,60657,128,0,60827:0:0:0:0:
64,192,60827,1,0,0:0:0:0:
320,192,60827,128,0,60996:0:0:0:0:
64,192,60996,128,2,61166:0:0:0:0:
192,192,60996,128,0,61166:0:0:0:40:CrashL.wav
448,192,60996,1,0,0:0:0:0:
320,192,61166,1,0,0:0:0:0:
64,192,61251,1,0,0:0:0:0:
192,192,61335,1,0,0:0:0:0:
320,192,61335,1,0,0:0:0:0:
64,192,61505,128,2,61674:0:0:0:0:
192,192,61505,128,0,61674:0:0:0:40:CrashL.wav
448,192,61505,1,0,0:0:0:0:
320,192,61674,1,0,0:0:0:0:
448,192,61674,128,0,61844:0:0:0:0:
192,192,61844,1,0,0:0:0:0:
320,192,61844,128,0,62013:0:0:0:0:
64,192,62013,1,2,0:0:0:0:
192,192,62013,1,0,0:0:0:0:
320,192,62098,1,2,0:0:0:0:
448,192,62098,1,0,0:0:0:0:
64,192,62183,1,2,0:0:0:0:
192,192,62183,1,0,0:0:0:0:
320,192,62268,1,2,0:0:0:0:
64,192,62352,1,2,0:0:0:0:
192,192,62352,128,0,62522:0:0:0:40:CrashL.wav
448,192,62352,128,0,62522:0:0:0:0:
64,192,62522,128,0,62691:0:0:0:0:
320,192,62522,1,0,0:0:0:0:
192,192,62691,1,0,0:0:0:0:
320,192,62691,128,0,62861:0:0:0:0:
64,192,62861,1,2,0:0:0:0:
192,192,62861,128,0,63030:0:0:0:40:CrashL.wav
448,192,62861,128,0,63030:0:0:0:0:
64,192,63030,128,0,63200:0:0:0:0:
320,192,63030,1,0,0:0:0:0:
192,192,63200,1,0,0:0:0:0:
320,192,63200,128,0,63369:0:0:0:0:
64,192,63369,1,2,0:0:0:0:
192,192,63369,128,0,63539:0:0:0:40:CrashL.wav
448,192,63369,128,0,63539:0:0:0:0:
320,192,63539,1,0,0:0:0:0:
64,192,63623,1,0,0:0:0:0:
192,192,63708,1,0,0:0:0:0:
320,192,63708,1,0,0:0:0:0:
64,192,63878,1,2,0:0:0:0:
192,192,63878,128,0,64047:0:0:0:40:CrashL.wav
448,192,63878,128,0,64047:0:0:0:0:
64,192,64047,128,0,64217:0:0:0:0:
320,192,64047,1,0,0:0:0:0:
192,192,64217,1,0,0:0:0:0:
320,192,64217,128,0,64386:0:0:0:0:
64,192,64386,1,2,0:0:0:0:
448,192,64386,1,0,0:0:0:0:
192,192,64471,1,2,0:0:0:0:
320,192,64471,1,0,0:0:0:0:
64,192,64556,1,2,0:0:0:0:
448,192,64556,1,0,0:0:0:0:
192,192,64640,1,2,0:0:0:0:
64,192,64725,128,2,64895:0:0:0:0:
320,192,64725,128,0,64895:0:0:0:40:CrashL.wav
448,192,64725,1,0,0:0:0:0:
192,192,64895,1,0,0:0:0:0:
448,192,64895,128,0,65064:0:0:0:0:
192,192,65064,128,0,65234:0:0:0:0:
320,192,65064,1,0,0:0:0:0:
64,192,65234,128,2,65403:0:0:0:0:
320,192,65234,128,0,65403:0:0:0:40:CrashL.wav
448,192,65234,1,0,0:0:0:0:
192,192,65403,1,0,0:0:0:0:
448,192,65403,128,0,65573:0:0:0:0:
192,192,65573,128,0,65742:0:0:0:0:
320,192,65573,1,0,0:0:0:0:
64,192,65742,128,2,65912:0:0:0:0:
320,192,65742,128,0,65912:0:0:0:40:CrashL.wav
448,192,65742,1,0,0:0:0:0:
192,192,65912,1,0,0:0:0:0:
448,192,65996,1,0,0:0:0:0:
192,192,66081,1,0,0:0:0:0:
320,192,66081,1,0,0:0:0:0:
64,192,66251,128,2,66420:0:0:0:0:
320,192,66251,128,0,66420:0:0:0:40:CrashL.wav
448,192,66251,1,0,0:0:0:0:
192,192,66420,1,0,0:0:0:0:
448,192,66420,128,0,66590:0:0:0:0:
64,192,66590,1,0,0:0:0:0:
192,192,66590,128,0,66759:0:0:0:0:
320,192,66759,1,2,0:0:0:0:
448,192,66759,1,0,0:0:0:0:
64,192,66844,1,2,0:0:0:0:
192,192,66844,1,0,0:0:0:0:
320,192,66929,1,2,0:0:0:0:
448,192,66929,1,0,0:0:0:0:
192,192,67013,1,2,0:0:0:0:
64,192,67098,128,2,67437:0:0:0:0:
320,192,67098,1,0,0:0:0:40:CrashL.wav
448,192,67098,1,0,0:0:0:0:
192,192,67268,128,0,67607:0:0:0:0:
448,192,67268,1,0,0:0:0:0:
320,192,67437,1,2,0:0:0:0:
448,192,67437,128,0,67776:0:0:0:0:
64,192,67607,1,0,0:0:0:0:
320,192,67607,128,0,67776:0:0:0:0:
64,192,67776,1,2,0:0:0:0:
192,192,67776,1,0,0:0:0:0:
192,192,67945,128,0,68284:0:0:0:0:
320,192,67945,128,0,68115:0:0:0:0:
64,192,68115,128,2,68454:0:0:0:0:
448,192,68115,128,0,68284:0:0:0:0:
320,192,68284,1,0,0:0:0:0:
320,192,68369,1,0,0:0:0:0:
192,192,68454,1,2,0:0:0:0:
448,192,68454,1,0,0:0:0:0:
320,192,68623,1,0,0:0:0:0:
64,192,68793,1,2,0:0:0:0:
448,192,68793,1,0,0:0:0:0:
64,192,68878,1,0,0:0:0:0:
320,192,68962,1,0,0:0:0:0:
320,192,69047,1,0,0:0:0:0:
64,192,69132,1,2,0:0:0:0:
192,192,69132,1,0,0:0:0:0:
320,192,69217,1,2,0:0:0:0:
448,192,69217,1,0,0:0:0:0:
64,192,69301,1,2,0:0:0:0:
192,192,69301,1,0,0:0:0:0:
320,192,69386,1,2,0:0:0:0:
64,192,69471,1,2,0:0:0:0:
192,192,69471,1,0,0:0:0:40:CrashL.wav
448,192,69471,128,0,69810:0:0:0:0:
64,192,69640,128,0,69979:0:0:0:0:
320,192,69640,1,0,0:0:0:0:
192,192,69810,1,2,0:0:0:0:
320,192,69810,128,0,70149:0:0:0:0:
192,192,69979,128,0,70149:0:0:0:0:
448,192,69979,1,0,0:0:0:0:
64,192,70149,1,2,0:0:0:0:
448,192,70149,1,0,0:0:0:0:
64,192,70318,128,0,70657:0:0:0:0:
192,192,70318,128,0,70488:0:0:0:0:
320,192,70488,128,2,70827:0:0:0:0:
448,192,70488,128,0,70657:0:0:0:0:
192,192,70657,1,0,0:0:0:0:
192,192,70742,1,0,0:0:0:0:
64,192,70827,1,2,0:0:0:0:
448,192,70827,1,0,0:0:0:0:
192,192,70996,1,0,0:0:0:0:
320,192,71166,128,2,71335:0:0:0:0:
448,192,71166,1,0,0:0:0:0:
64,192,71335,128,0,71505:0:0:0:0:
192,192,71335,1,0,0:0:0:0:
320,192,71505,1,2,0:0:0:0:
448,192,71505,1,0,0:0:0:0:
64,192,71590,1,2,0:0:0:0:
192,192,71590,1,0,0:0:0:0:
320,192,71674,1,2,0:0:0:0:
448,192,71674,1,0,0:0:0:0:
192,192,71759,1,2,0:0:0:0:
64,192,71844,128,2,72183:0:0:0:0:
320,192,71844,1,0,0:0:0:40:CrashL.wav
448,192,71844,1,0,0:0:0:0:
192,192,72013,128,0,72352:0:0:0:0:
448,192,72013,1,0,0:0:0:0:
320,192,72183,1,2,0:0:0:0:
448,192,72183,128,0,72522:0:0:0:0:
64,192,72352,1,0,0:0:0:0:
320,192,72352,128,0,72522:0:0:0:0:
64,192,72522,1,2,0:0:0:0:
192,192,72522,1,0,0:0:0:0:
192,192,72691,128,0,73030:0:0:0:0:
320,192,72691,128,0,72861:0:0:0:0:
64,192,72861,128,2,73200:0:0:0:0:
448,192,72861,128,0,73030:0:0:0:0:
320,192,73030,1,0,0:0:0:0:
320,192,73115,1,0,0:0:0:0:
192,192,73200,1,2,0:0:0:0:
448,192,73200,1,0,0:0:0:0:
64,192,73369,1,0,0:0:0:0:
64,192,73454,1,0,0:0:0:0:
448,192,73539,1,2,0:0:0:0:
320,192,73539,1,0,0:0:0:0:
192,192,73623,1,0,0:0:0:0:
448,192,73708,1,0,0:0:0:0:
448,192,73793,1,0,0:0:0:0:
64,192,73878,1,2,0:0:0:0:
192,192,73878,1,0,0:0:0:0:
320,192,73962,1,2,0:0:0:0:
448,192,73962,1,0,0:0:0:0:
64,192,74047,1,2,0:0:0:0:
192,192,74047,1,0,0:0:0:0:
320,192,74132,1,2,0:0:0:0:
64,192,74217,1,2,0:0:0:0:
192,192,74217,1,0,0:0:0:40:CrashL.wav
448,192,74217,128,0,74556:0:0:0:0:
64,192,74386,128,0,74725:0:0:0:0:
320,192,74386,1,0,0:0:0:0:
192,192,74556,1,2,0:0:0:0:
320,192,74556,128,0,74895:0:0:0:0:
192,192,74725,128,0,74895:0:0:0:0:
448,192,74725,1,0,0:0:0:0:
64,192,74895,1,2,0:0:0:0:
448,192,74895,1,0,0:0:0:0:
192,192,75064,1,0,0:0:0:0:
192,192,75149,1,0,0:0:0:0:
320,192,75234,1,2,0:0:0:0:
448,192,75234,1,0,0:0:0:0:
64,192,75403,1,0,0:0:0:0:
64,192,75488,1,0,0:0:0:0:
192,192,75573,1,2,0:0:0:0:
448,192,75573,1,0,0:0:0:0:
320,192,75742,1,0,0:0:0:0:
64,192,75912,1,2,0:0:0:0:
192,192,75912,128,0,76081:0:0:0:0:
320,192,76081,1,0,0:0:0:0:
448,192,76081,128,0,76251:0:0:0:0:
64,192,76251,1,2,0:0:0:0:
192,192,76251,1,0,0:0:0:0:
320,192,76335,1,2,0:0:0:0:
448,192,76335,1,0,0:0:0:0:
64,192,76420,1,2,0:0:0:0:
192,192,76420,1,0,0:0:0:0:
320,192,76505,1,2,0:0:0:0:
448,192,76505,1,0,0:0:0:0:
64,192,76590,1,2,0:0:0:0:
192,192,76590,1,0,0:0:0:0:
448,192,76759,1,0,0:0:0:0:
192,192,76928,1,0,0:0:0:0:
192,192,77013,1,0,0:0:0:0:
64,192,77183,1,0,0:0:0:0:
448,192,77267,1,0,0:0:0:0:
192,192,77437,1,0,0:0:0:0:
320,192,77606,1,0,0:0:0:0:
64,192,77776,1,2,0:0:0:0:
448,192,77776,1,0,0:0:0:0:
64,192,77945,1,2,0:0:0:0:
192,192,77945,1,0,0:0:0:0:
64,192,78030,1,0,0:0:0:0:
448,192,78200,1,0,0:0:0:0:
448,192,78284,1,0,0:0:0:0:
192,192,78454,1,0,0:0:0:0:
320,192,78539,1,0,0:0:0:0:
64,192,78623,1,2,0:0:0:0:
192,192,78623,1,0,0:0:0:0:
448,192,78793,128,2,79132:0:0:0:0:
320,192,78793,128,0,79301:0:0:0:40:CrashL.wav
64,192,78793,128,0,79132:0:0:0:0:
448,192,79301,128,2,79640:0:0:0:0:
192,192,79301,1,0,0:0:0:40:CrashL.wav
64,192,79301,128,0,80657:0:0:0:0:
320,192,79471,128,0,79810:0:0:0:0:
192,192,79640,128,0,79979:0:0:0:0:
448,192,79810,128,0,80149:0:0:0:0:
320,192,79979,128,0,80318:0:0:0:0:
192,192,80149,128,0,80488:0:0:0:0:
448,192,80318,128,0,80657:0:0:0:0:
320,192,80488,128,0,80827:0:0:0:0:
192,192,80657,128,0,81335:0:0:0:0:
448,192,80827,128,0,81166:0:0:0:0:
64,192,80996,128,0,81335:0:0:0:0:
320,192,81166,128,0,81505:0:0:0:0:
448,192,81335,128,0,82013:0:0:0:0:
64,192,81505,128,0,81844:0:0:0:0:
192,192,81674,128,0,82013:0:0:0:0:
320,192,81844,128,0,82183:0:0:0:0:
64,192,82013,128,0,83708:0:0:0:0:
192,192,82183,128,0,82522:0:0:0:0:
448,192,82352,128,0,82691:0:0:0:0:
320,192,82522,128,0,82861:0:0:0:0:
192,192,82691,128,0,83030:0:0:0:0:
448,192,82861,128,0,83200:0:0:0:0:
320,192,83030,128,0,83369:0:0:0:0:
192,192,83200,128,0,83539:0:0:0:0:
448,192,83369,128,0,83708:0:0:0:0:
320,192,83539,128,0,83708:0:0:0:0:
192,192,83708,128,0,83878:0:0:0:0:
320,192,83878,128,0,84047:0:0:0:0:
448,192,84047,128,0,84386:0:0:0:0:
192,192,84047,1,0,0:0:0:0:
320,192,84132,1,0,0:0:0:0:
64,192,84217,1,0,0:0:0:0:
192,192,84301,1,0,0:0:0:0:
320,192,84386,128,0,84725:0:0:0:0:
64,192,84471,1,0,0:0:0:0:
192,192,84556,1,0,0:0:0:0:
64,192,84640,1,0,0:0:0:0:
448,192,84725,128,0,85064:0:0:0:0:
192,192,84725,128,0,85742:0:0:0:0:
64,192,84895,128,0,85234:0:0:0:0:
320,192,85064,128,0,85403:0:0:0:0:
448,192,85234,128,0,85573:0:0:0:0:
64,192,85403,128,0,85742:0:0:0:0:
320,192,85573,128,0,85912:0:0:0:0:
448,192,85742,128,0,86081:0:0:0:0:
192,192,85912,128,0,86251:0:0:0:0:
320,192,86081,128,0,86759:0:0:0:0:
64,192,86081,128,0,86420:0:0:0:0:
448,192,86251,128,0,86590:0:0:0:0:
192,192,86420,128,0,86590:0:0:0:0:
64,192,86590,128,0,86759:0:0:0:0:
448,192,86759,128,0,87098:0:0:0:0:
192,192,86759,128,0,87098:0:0:0:0:
320,192,87098,128,2,87437:0:0:0:0:
64,192,87098,128,0,87437:0:0:0:0:
448,192,87437,128,2,90149:0:0:0:0:
192,192,87437,128,0,87776:0:0:0:0:
64,192,87776,128,0,88115:0:0:0:0:
320,192,88115,128,0,88284:0:0:0:0:
192,192,88284,128,0,88454:0:0:0:0:
320,192,88454,1,2,0:0:0:0:
64,192,88454,128,0,88623:0:0:0:0:
192,192,88623,128,0,88793:0:0:0:0:
320,192,88793,128,2,88962:0:0:0:0:
64,192,88793,1,0,0:0:0:0:
192,192,88962,128,0,89132:0:0:0:0:
64,192,89132,128,0,89301:0:0:0:0:
320,192,89301,128,0,89471:0:0:0:0:
192,192,89471,128,0,89640:0:0:0:0:
320,192,89640,128,0,89810:0:0:0:0:
64,192,89810,128,0,89979:0:0:0:0:
192,192,89979,128,0,90149:0:0:0:0:
320,192,90149,1,0,0:0:0:0:
64,192,90149,1,0,0:0:0:0:
64,192,90488,128,2,90657:0:0:0:0:
192,192,90488,128,0,90657:0:0:0:40:CrashL.wav
320,192,90488,128,0,90657:0:0:0:0:
448,192,90488,128,0,90996:0:0:0:0:
192,192,90827,128,2,91335:0:0:0:0:
64,192,90827,128,0,90996:0:0:0:40:CrashL.wav
320,192,90827,128,0,90996:0:0:0:0:
64,192,91166,128,2,91335:0:0:0:0:
448,192,91166,128,0,91335:0:0:0:40:CrashL.wav
320,192,91166,128,0,91505:0:0:0:0:
64,192,91505,128,2,92183:0:0:0:0:
192,192,91505,1,0,0:0:0:40:CrashL.wav
448,192,91505,1,0,0:0:0:0:
320,192,91674,1,2,0:0:0:0:
448,192,91674,1,0,0:0:0:0:
320,192,91844,1,2,0:0:0:0:
192,192,91844,1,0,0:0:0:0:
192,192,92013,1,2,0:0:0:0:
448,192,92013,1,0,0:0:0:0:
320,192,92183,1,2,0:0:0:0:
448,192,92183,128,0,92522:0:0:0:0:
192,192,92522,128,0,92861:0:0:0:0:
64,192,92861,1,2,0:0:0:0:
320,192,92861,128,0,93030:0:0:0:40:CrashL.wav
448,192,92861,128,0,93030:0:0:0:0:
192,192,93030,1,0,0:0:0:0:
320,192,93115,1,2,0:0:0:0:
448,192,93115,1,0,0:0:0:0:
64,192,93200,1,2,0:0:0:0:
192,192,93200,1,8,0:0:0:0:
320,192,93369,1,0,0:0:0:0:
448,192,93369,1,0,0:0:0:0:
64,192,93454,1,0,0:0:0:0:
320,192,93454,1,0,0:0:0:0:
64,192,93539,128,2,93708:0:0:0:0:
192,192,93539,128,0,93708:0:0:0:0:
448,192,93539,1,0,0:0:0:0:
320,192,93708,1,0,0:0:0:0:
64,192,93793,1,2,0:0:0:0:
192,192,93793,1,0,0:0:0:0:
320,192,93878,1,2,0:0:0:0:
448,192,93878,1,8,0:0:0:0:
64,192,94047,1,0,0:0:0:0:
192,192,94047,1,0,0:0:0:0:
192,192,94132,1,0,0:0:0:0:
448,192,94132,1,0,0:0:0:0:
64,192,94217,1,2,0:0:0:0:
320,192,94217,128,0,94386:0:0:0:0:
448,192,94217,128,0,94386:0:0:0:0:
192,192,94386,1,0,0:0:0:0:
320,192,94471,1,2,0:0:0:0:
448,192,94471,1,0,0:0:0:0:
64,192,94556,128,2,94810:0:0:0:0:
192,192,94556,128,8,94640:0:0:0:0:
448,192,94556,128,0,94640:0:0:0:0:
192,192,94725,128,2,94810:0:0:0:0:
320,192,94725,128,0,94810:0:0:0:0:
448,192,94725,128,0,94979:0:0:0:0:
64,192,94895,128,2,94979:0:0:0:0:
192,192,94895,128,0,94979:0:0:0:0:
320,192,94979,1,0,0:0:0:0:
192,192,95064,1,0,0:0:0:0:
448,192,95149,1,0,0:0:0:0:
64,192,95234,1,2,0:0:0:0:
320,192,95234,1,8,0:0:0:0:
192,192,95318,1,0,0:0:0:0:
320,192,95403,1,2,0:0:0:0:
448,192,95403,1,0,0:0:0:0:
64,192,95488,1,0,0:0:0:0:
192,192,95573,1,2,0:0:0:0:
320,192,95573,128,0,95742:0:0:0:0:
448,192,95573,128,0,95742:0:0:0:0:
64,192,95742,1,0,0:0:0:0:
192,192,95827,1,2,0:0:0:0:
448,192,95827,1,0,0:0:0:0:
64,192,95912,1,2,0:0:0:0:
320,192,95912,1,8,0:0:0:0:
192,192,96081,1,0,0:0:0:0:
448,192,96081,1,0,0:0:0:0:
64,192,96166,1,0,0:0:0:0:
448,192,96166,1,0,0:0:0:0:
64,192,96251,128,2,96420:0:0:0:0:
192,192,96251,128,0,96420:0:0:0:0:
320,192,96251,1,0,0:0:0:0:
448,192,96420,1,0,0:0:0:0:
64,192,96505,1,2,0:0:0:0:
320,192,96505,1,0,0:0:0:0:
192,192,96590,1,2,0:0:0:0:
448,192,96590,1,8,0:0:0:0:
320,192,96759,128,0,96928:0:0:0:0:
448,192,96759,128,0,97098:0:0:0:0:
64,192,96928,128,2,97098:0:0:0:0:
192,192,96928,128,0,97098:0:0:0:0:
320,192,97098,1,0,0:0:0:0:
64,192,97183,1,2,0:0:0:0:
192,192,97183,1,0,0:0:0:0:
64,192,97267,128,2,97522:0:0:0:0:
320,192,97267,128,8,97352:0:0:0:0:
448,192,97267,128,0,97352:0:0:0:0:
192,192,97437,128,2,97522:0:0:0:0:
320,192,97437,128,0,97522:0:0:0:0:
448,192,97437,128,0,97691:0:0:0:0:
64,192,97606,128,2,97691:0:0:0:0:
192,192,97606,128,0,97691:0:0:0:0:
320,192,97691,1,0,0:0:0:0:
192,192,97776,1,0,0:0:0:0:
64,192,97861,1,0,0:0:0:0:
320,192,97945,1,2,0:0:0:0:
448,192,97945,1,8,0:0:0:0:
192,192,98030,1,0,0:0:0:0:
64,192,98115,1,2,0:0:0:0:
448,192,98115,1,0,0:0:0:0:
320,192,98200,1,0,0:0:0:0:
64,192,98284,128,2,98454:0:0:0:0:
192,192,98284,128,0,98454:0:0:0:0:
448,192,98284,1,0,0:0:0:0:
320,192,98454,1,0,0:0:0:0:
64,192,98539,1,2,0:0:0:0:
192,192,98539,1,0,0:0:0:0:
320,192,98623,1,2,0:0:0:0:
448,192,98623,1,8,0:0:0:0:
64,192,98793,1,0,0:0:0:0:
192,192,98793,1,0,0:0:0:0:
192,192,98878,1,0,0:0:0:0:
448,192,98878,1,0,0:0:0:0:
64,192,98962,1,2,0:0:0:0:
320,192,98962,128,0,99132:0:0:0:0:
448,192,98962,128,0,99132:0:0:0:0:
192,192,99132,1,0,0:0:0:0:
320,192,99217,1,2,0:0:0:0:
448,192,99217,1,0,0:0:0:0:
64,192,99301,1,2,0:0:0:0:
192,192,99301,1,8,0:0:0:0:
320,192,99471,1,0,0:0:0:0:
448,192,99471,1,0,0:0:0:0:
64,192,99556,1,0,0:0:0:0:
320,192,99556,1,0,0:0:0:0:
64,192,99640,128,2,99895:0:0:0:0:
192,192,99640,128,0,99725:0:0:0:0:
448,192,99640,128,0,99725:0:0:0:0:
192,192,99810,128,2,100064:0:0:0:0:
320,192,99810,128,0,99895:0:0:0:0:
448,192,99810,128,0,99895:0:0:0:0:
64,192,99979,128,2,100064:0:0:0:0:
320,192,99979,128,8,100234:0:0:0:0:
448,192,99979,128,0,100064:0:0:0:0:
64,192,100149,128,2,100234:0:0:0:0:
192,192,100149,128,0,100234:0:0:0:0:
448,192,100149,128,0,100403:0:0:0:0:
64,192,100318,128,2,100488:0:0:0:0:
192,192,100318,128,0,100403:0:0:0:0:
320,192,100318,128,0,100403:0:0:0:0:
192,192,100488,1,0,0:0:0:0:
320,192,100573,1,2,0:0:0:0:
448,192,100573,1,0,0:0:0:0:
64,192,100657,128,2,100827:0:0:0:0:
192,192,100657,128,8,100827:0:0:0:0:
448,192,100657,128,0,100996:0:0:0:0:
320,192,100827,1,0,0:0:0:0:
64,192,100996,128,2,101335:0:0:0:0:
192,192,100996,128,0,101166:0:0:0:0:
320,192,100996,128,0,101166:0:0:0:0:
448,192,101166,1,0,0:0:0:0:
192,192,101335,128,2,101505:0:0:0:0:
320,192,101335,128,8,101674:0:0:0:0:
448,192,101335,128,0,101505:0:0:0:0:
64,192,101505,1,0,0:0:0:0:
64,192,101674,128,2,101844:0:0:0:0:
192,192,101674,128,0,102013:0:0:0:0:
448,192,101674,128,0,101844:0:0:0:0:
320,192,101844,1,0,0:0:0:0:
64,192,102013,128,2,102183:0:0:0:0:
320,192,102013,128,8,102183:0:0:0:0:
448,192,102013,128,0,102352:0:0:0:0:
192,192,102183,1,0,0:0:0:0:
64,192,102352,1,2,0:0:0:0:
192,192,102352,1,0,0:0:0:40:CrashS.wav
64,192,102437,1,2,0:0:0:0:
192,192,102437,1,0,0:0:0:40:CrashS.wav
320,192,102522,1,2,0:0:0:0:
448,192,102522,1,0,0:0:0:40:CrashS.wav
320,192,102606,1,2,0:0:0:0:
448,192,102606,1,0,0:0:0:40:CrashS.wav
64,192,102691,1,2,0:0:0:0:
192,192,102691,1,0,0:0:0:40:CrashS.wav
192,192,102861,1,2,0:0:0:0:
320,192,102861,1,0,0:0:0:40:CrashS.wav
448,192,102861,1,0,0:0:0:0:
64,192,103030,1,2,0:0:0:0:
320,192,103030,1,0,0:0:0:40:CrashS.wav
448,192,103030,1,0,0:0:0:0:
320,192,103369,1,2,0:0:0:0:
448,192,103369,1,0,0:0:0:0:
64,192,103454,1,2,0:0:0:0:
192,192,103454,1,0,0:0:0:0:
320,192,103539,1,2,0:0:0:0:
448,192,103539,1,0,0:0:0:0:
64,192,103623,1,2,0:0:0:0:
192,192,103623,1,0,0:0:0:0:
64,192,103708,1,2,0:0:0:0:
320,192,103708,128,0,103878:0:0:0:40:CrashL.wav
448,192,103708,128,0,103878:0:0:0:0:
192,192,103878,1,0,0:0:0:0:
320,192,103962,1,2,0:0:0:0:
448,192,103962,1,0,0:0:0:0:
64,192,104047,1,2,0:0:0:0:
192,192,104047,1,8,0:0:0:0:
320,192,104217,1,0,0:0:0:0:
448,192,104217,1,0,0:0:0:0:
64,192,104301,1,0,0:0:0:0:
320,192,104301,1,0,0:0:0:0:
64,192,104386,128,2,104556:0:0:0:0:
192,192,104386,128,0,104556:0:0:0:0:
448,192,104386,1,0,0:0:0:0:
320,192,104556,1,0,0:0:0:0:
64,192,104640,1,2,0:0:0:0:
192,192,104640,1,0,0:0:0:0:
320,192,104725,1,2,0:0:0:0:
448,192,104725,1,8,0:0:0:0:
64,192,104895,1,0,0:0:0:0:
192,192,104895,1,0,0:0:0:0:
192,192,104979,1,0,0:0:0:0:
448,192,104979,1,0,0:0:0:0:
64,192,105064,1,2,0:0:0:0:
320,192,105064,128,0,105234:0:0:0:0:
448,192,105064,128,0,105234:0:0:0:0:
192,192,105234,1,0,0:0:0:0:
320,192,105318,1,2,0:0:0:0:
448,192,105318,1,0,0:0:0:0:
64,192,105403,128,2,105657:0:0:0:0:
192,192,105403,128,8,105488:0:0:0:0:
448,192,105403,128,0,105488:0:0:0:0:
192,192,105573,128,2,105657:0:0:0:0:
320,192,105573,128,0,105657:0:0:0:0:
448,192,105573,128,0,105827:0:0:0:0:
64,192,105742,128,2,105827:0:0:0:0:
192,192,105742,128,0,105827:0:0:0:0:
320,192,105827,1,0,0:0:0:0:
192,192,105912,1,0,0:0:0:0:
448,192,105996,1,0,0:0:0:0:
64,192,106081,1,8,0:0:0:0:
320,192,106081,1,0,0:0:0:0:
192,192,106166,1,0,0:0:0:0:
320,192,106251,1,0,0:0:0:0:
448,192,106251,1,0,0:0:0:0:
64,192,106335,1,0,0:0:0:0:
192,192,106420,1,2,0:0:0:0:
320,192,106420,128,0,106590:0:0:0:0:
448,192,106420,128,0,106590:0:0:0:0:
64,192,106590,1,0,0:0:0:0:
192,192,106674,1,2,0:0:0:0:
448,192,106674,1,0,0:0:0:0:
64,192,106759,1,2,0:0:0:0:
320,192,106759,1,8,0:0:0:0:
192,192,106928,1,0,0:0:0:0:
448,192,106928,1,0,0:0:0:0:
64,192,107013,1,0,0:0:0:0:
448,192,107013,1,0,0:0:0:0:
64,192,107098,128,2,107267:0:0:0:0:
192,192,107098,128,0,107267:0:0:0:0:
320,192,107098,1,0,0:0:0:0:
448,192,107267,1,0,0:0:0:0:
64,192,107352,1,2,0:0:0:0:
320,192,107352,1,0,0:0:0:0:
192,192,107437,1,2,0:0:0:0:
448,192,107437,1,8,0:0:0:0:
320,192,107606,128,0,107776:0:0:0:0:
448,192,107606,128,0,107945:0:0:0:0:
64,192,107776,128,2,107945:0:0:0:0:
192,192,107776,128,0,107945:0:0:0:0:
320,192,107945,1,0,0:0:0:0:
64,192,108030,1,2,0:0:0:0:
192,192,108030,1,0,0:0:0:0:
64,192,108115,128,2,108369:0:0:0:0:
320,192,108115,128,8,108200:0:0:0:0:
448,192,108115,128,0,108200:0:0:0:0:
192,192,108284,128,2,108369:0:0:0:0:
320,192,108284,128,0,108369:0:0:0:0:
448,192,108284,128,0,108539:0:0:0:0:
64,192,108454,128,2,108539:0:0:0:0:
192,192,108454,128,0,108539:0:0:0:0:
320,192,108539,1,0,0:0:0:0:
192,192,108623,128,0,108708:0:0:0:0:
448,192,108708,1,0,0:0:0:0:
64,192,108793,1,8,0:0:0:0:
320,192,108793,128,0,108878:0:0:0:0:
192,192,108878,1,0,0:0:0:0:
448,192,108962,128,0,109047:0:0:0:0:
320,192,109047,1,0,0:0:0:0:
64,192,109132,128,2,109301:0:0:0:0:
192,192,109132,128,0,109301:0:0:0:0:
448,192,109132,1,0,0:0:0:0:
320,192,109301,1,0,0:0:0:0:
64,192,109471,128,2,109810:0:0:0:0:
192,192,109471,128,8,109640:0:0:0:0:
448,192,109471,128,0,109640:0:0:0:0:
320,192,109640,1,0,0:0:0:0:
192,192,109810,128,2,109979:0:0:0:0:
320,192,109810,128,0,109979:0:0:0:0:
448,192,109810,128,0,110149:0:0:0:0:
64,192,109979,1,0,0:0:0:0:
64,192,110149,128,2,110318:0:0:0:0:
192,192,110149,128,8,110488:0:0:0:0:
320,192,110149,128,0,110318:0:0:0:0:
448,192,110318,1,0,0:0:0:0:
64,192,110488,1,2,0:0:0:0:
320,192,110488,1,0,0:0:0:0:
448,192,110488,128,0,111166:0:0:0:0:
192,192,110657,1,0,0:0:0:0:
64,192,110827,1,2,0:0:0:0:
192,192,110827,1,8,0:0:0:0:
320,192,110827,1,0,0:0:0:0:
320,192,110996,1,0,0:0:0:0:
64,192,111166,128,2,111844:0:0:0:0:
192,192,111166,1,0,0:0:0:0:
320,192,111166,1,0,0:0:0:0:
448,192,111335,1,0,0:0:0:0:
192,192,111505,1,2,0:0:0:0:
320,192,111505,1,8,0:0:0:0:
448,192,111505,1,0,0:0:0:0:
192,192,111674,1,0,0:0:0:0:
192,192,111844,1,2,0:0:0:0:
320,192,111844,1,0,0:0:0:40:CrashS.wav
448,192,111844,1,0,0:0:0:0:
64,192,112013,1,2,0:0:0:0:
320,192,112013,1,0,0:0:0:40:CrashS.wav
448,192,112013,1,0,0:0:0:0:
64,192,112183,1,2,0:0:0:0:
192,192,112183,1,0,0:0:0:40:CrashS.wav
64,192,112267,1,2,0:0:0:0:
192,192,112267,1,0,0:0:0:40:CrashS.wav
448,192,112267,1,0,0:0:0:0:
320,192,112437,1,2,0:0:0:0:
448,192,112437,1,0,0:0:0:0:
64,192,112522,1,2,0:0:0:0:
320,192,112522,1,0,0:0:0:40:CrashS.wav
448,192,112522,1,0,0:0:0:0:
64,192,112691,1,2,0:0:0:0:
192,192,112691,1,0,0:0:0:0:
64,192,112776,1,2,0:0:0:0:
320,192,112776,1,0,0:0:0:40:CrashS.wav
448,192,112776,1,0,0:0:0:0:
192,192,112861,1,0,0:0:0:0:
320,192,112945,1,2,0:0:0:0:
448,192,112945,1,0,0:0:0:0:
64,192,113030,1,2,0:0:0:0:
192,192,113030,1,0,0:0:0:40:CrashS.wav
448,192,113030,1,0,0:0:0:0:
64,192,113200,1,2,0:0:0:0:
192,192,113200,1,0,0:0:0:40:CrashS.wav
64,192,113284,1,2,0:0:0:0:
192,192,113284,1,0,0:0:0:40:CrashS.wav
320,192,113369,1,2,0:0:0:0:
448,192,113369,1,0,0:0:0:40:CrashS.wav
320,192,113454,1,2,0:0:0:0:
448,192,113454,1,0,0:0:0:40:CrashS.wav
64,192,113539,1,2,0:0:0:0:
192,192,113539,1,0,0:0:0:40:CrashS.wav
192,192,113708,1,2,0:0:0:0:
448,192,113708,1,0,0:0:0:0:
64,192,113878,128,2,114217:0:0:0:0:
320,192,113878,1,0,0:0:0:40:CrashS.wav
448,192,113878,1,0,0:0:0:0:
448,192,114217,128,0,114556:0:0:0:0:
64,192,114556,128,2,114725:0:0:0:0:
192,192,114556,128,0,114725:0:0:0:40:CrashL.wav
320,192,114556,128,0,114895:0:0:0:0:
64,192,114895,1,2,0:0:0:0:
192,192,114895,1,8,0:0:0:0:
64,192,115064,128,0,115234:0:0:0:0:
192,192,115234,128,2,115573:0:0:0:0:
320,192,115234,128,0,115403:0:0:0:0:
448,192,115234,128,0,115403:0:0:0:0:
320,192,115573,1,2,0:0:0:0:
448,192,115573,1,8,0:0:0:0:
448,192,115742,128,0,115912:0:0:0:0:
64,192,115912,128,2,116081:0:0:0:0:
192,192,115912,128,0,116081:0:0:0:0:
320,192,115912,128,0,116251:0:0:0:0:
64,192,116251,1,2,0:0:0:0:
192,192,116251,1,8,0:0:0:0:
192,192,116420,128,0,116759:0:0:0:0:
448,192,116420,1,0,0:0:0:0:
64,192,116590,128,2,116759:0:0:0:0:
320,192,116590,128,0,116759:0:0:0:0:
448,192,116590,128,0,116759:0:0:0:0:
320,192,116844,1,2,0:0:0:0:
448,192,116844,1,0,0:0:0:40:CrashS.wav
64,192,116928,1,2,0:0:0:0:
192,192,116928,1,0,0:0:0:40:CrashS.wav
320,192,117013,1,2,0:0:0:0:
448,192,117013,1,0,0:0:0:40:CrashS.wav
320,192,117098,1,2,0:0:0:0:
448,192,117098,1,0,0:0:0:40:CrashS.wav
64,192,117183,1,2,0:0:0:0:
192,192,117183,1,0,0:0:0:40:CrashS.wav
64,192,117267,1,2,0:0:0:0:
192,192,117267,1,0,0:0:0:40:CrashS.wav
448,192,117267,1,0,0:0:0:0:
64,192,117437,1,2,0:0:0:0:
192,192,117437,1,0,0:0:0:40:CrashS.wav
448,192,117437,1,0,0:0:0:0:
64,192,117606,1,2,0:0:0:0:
192,192,117606,1,0,0:0:0:40:CrashS.wav
448,192,117606,1,0,0:0:0:0:
320,192,117776,1,0,0:0:0:0:
64,192,117945,1,2,0:0:0:0:
320,192,117945,1,0,0:0:0:40:CrashS.wav
448,192,117945,1,0,0:0:0:0:
64,192,118200,1,2,0:0:0:0:
320,192,118200,1,0,0:0:0:40:CrashS.wav
448,192,118200,1,0,0:0:0:0:
192,192,118284,1,0,0:0:0:0:
64,192,118454,1,2,0:0:0:0:
192,192,118454,1,0,0:0:0:40:CrashS.wav
448,192,118454,1,0,0:0:0:0:
320,192,118623,1,0,0:0:0:0:
64,192,118793,1,2,0:0:0:0:
192,192,118793,1,0,0:0:0:40:CrashS.wav
320,192,118793,1,0,0:0:0:0:
64,192,118962,1,2,0:0:0:0:
320,192,118962,1,0,0:0:0:40:CrashS.wav
448,192,118962,1,0,0:0:0:0:
192,192,119132,1,0,0:0:0:0:
320,192,119301,1,2,0:0:0:0:
448,192,119301,1,0,0:0:0:40:CrashS.wav
64,192,119386,1,2,0:0:0:0:
192,192,119386,1,0,0:0:0:40:CrashS.wav
448,192,119386,1,0,0:0:0:0:
64,192,119556,1,2,0:0:0:0:
192,192,119556,1,0,0:0:0:40:CrashS.wav
64,192,119640,1,2,0:0:0:0:
320,192,119640,1,0,0:0:0:40:CrashS.wav
448,192,119640,1,0,0:0:0:0:
320,192,119810,1,2,0:0:0:0:
448,192,119810,1,0,0:0:0:40:CrashS.wav
64,192,119895,1,2,0:0:0:0:
192,192,119895,1,0,0:0:0:40:CrashS.wav
448,192,119895,1,0,0:0:0:0:
320,192,119979,1,0,0:0:0:0:
64,192,120149,1,2,0:0:0:0:
192,192,120149,1,0,0:0:0:40:CrashS.wav
448,192,120149,1,0,0:0:0:0:
64,192,120318,1,2,0:0:0:0:
192,192,120318,1,0,0:0:0:40:CrashS.wav
448,192,120318,1,0,0:0:0:0:
320,192,120488,1,0,0:0:0:0:
64,192,120657,1,2,0:0:0:0:
192,192,120657,1,0,0:0:0:40:CrashS.wav
64,192,120742,1,2,0:0:0:0:
320,192,120742,1,0,0:0:0:40:CrashS.wav
448,192,120742,1,0,0:0:0:0:
320,192,120912,1,2,0:0:0:0:
448,192,120912,1,0,0:0:0:40:CrashS.wav
64,192,120996,1,2,0:0:0:0:
192,192,120996,1,0,0:0:0:40:CrashS.wav
448,192,120996,1,0,0:0:0:0:
64,192,121166,1,2,0:0:0:0:
192,192,121166,1,0,0:0:0:40:CrashS.wav
64,192,121251,1,2,0:0:0:0:
320,192,121251,1,0,0:0:0:40:CrashS.wav
448,192,121251,1,0,0:0:0:0:
192,192,121335,1,0,0:0:0:0:
320,192,121420,1,2,0:0:0:0:
448,192,121420,1,0,0:0:0:40:CrashS.wav
64,192,121505,1,2,0:0:0:0:
192,192,121505,1,0,0:0:0:40:CrashS.wav
448,192,121505,1,0,0:0:0:0:
64,192,121674,1,2,0:0:0:0:
192,192,121674,1,0,0:0:0:40:CrashS.wav
64,192,121759,1,2,0:0:0:0:
320,192,121759,1,0,0:0:0:40:CrashS.wav
448,192,121759,1,0,0:0:0:0:
192,192,121844,1,0,0:0:0:0:
320,192,121928,1,2,0:0:0:0:
448,192,121928,1,0,0:0:0:40:CrashS.wav
64,192,122013,1,2,0:0:0:0:
192,192,122013,1,0,0:0:0:40:CrashS.wav
448,192,122013,1,0,0:0:0:0:
64,192,122183,1,2,0:0:0:0:
192,192,122183,1,0,0:0:0:40:CrashS.wav
64,192,122267,1,2,0:0:0:0:
320,192,122267,1,0,0:0:0:40:CrashS.wav
448,192,122267,1,0,0:0:0:0:
192,192,122352,1,0,0:0:0:0:
320,192,122437,1,2,0:0:0:0:
448,192,122437,1,0,0:0:0:40:CrashS.wav
64,192,122522,1,2,0:0:0:0:
192,192,122522,1,0,0:0:0:40:CrashS.wav
320,192,122606,1,2,0:0:0:0:
448,192,122606,1,0,0:0:0:40:CrashS.wav
64,192,122691,1,2,0:0:0:0:
192,192,122691,1,0,0:0:0:40:CrashS.wav
64,192,122776,1,2,0:0:0:0:
192,192,122776,1,0,0:0:0:40:CrashS.wav
320,192,122861,1,2,0:0:0:0:
448,192,122861,1,0,0:0:0:40:CrashS.wav
64,192,122945,1,2,0:0:0:0:
192,192,122945,1,0,0:0:0:40:CrashS.wav
320,192,123030,1,2,0:0:0:0:
448,192,123030,1,0,0:0:0:40:CrashS.wav
320,192,123115,1,2,0:0:0:0:
448,192,123115,1,0,0:0:0:40:CrashS.wav
64,192,123200,1,2,0:0:0:0:
192,192,123200,1,0,0:0:0:40:CrashS.wav
320,192,123284,1,2,0:0:0:0:
448,192,123284,1,0,0:0:0:40:CrashS.wav
64,192,123369,1,2,0:0:0:0:
192,192,123369,1,0,0:0:0:40:CrashS.wav
64,192,123454,1,2,0:0:0:0:
192,192,123454,1,0,0:0:0:40:CrashS.wav
320,192,123539,1,2,0:0:0:0:
448,192,123539,1,0,0:0:0:40:CrashS.wav
64,192,123623,1,2,0:0:0:0:
192,192,123623,1,0,0:0:0:40:CrashS.wav
320,192,123708,1,2,0:0:0:0:
448,192,123708,1,0,0:0:0:40:CrashS.wav
320,192,123793,1,2,0:0:0:0:
448,192,123793,1,0,0:0:0:40:CrashS.wav
64,192,123878,1,2,0:0:0:0:
192,192,123878,1,0,0:0:0:40:CrashS.wav
320,192,123962,1,2,0:0:0:0:
448,192,123962,1,0,0:0:0:40:CrashS.wav
64,192,124047,1,2,0:0:0:0:
192,192,124047,1,0,0:0:0:40:CrashS.wav
320,192,124104,1,2,0:0:0:0:
448,192,124104,1,0,0:0:0:40:CrashS.wav
64,192,124160,1,2,0:0:0:0:
192,192,124160,1,0,0:0:0:40:CrashS.wav
320,192,124217,1,2,0:0:0:0:
448,192,124217,1,0,0:0:0:40:CrashS.wav
64,192,124301,1,2,0:0:0:0:
192,192,124301,1,0,0:0:0:40:CrashS.wav
320,192,124386,1,2,0:0:0:0:
448,192,124386,1,0,0:0:0:40:CrashS.wav
192,192,124471,1,2,0:0:0:0:
64,192,124471,1,0,0:0:0:40:CrashS.wav
448,192,124556,1,2,0:0:0:0:
320,192,124556,1,0,0:0:0:40:CrashS.wav
192,192,124640,1,2,0:0:0:0:
64,192,124640,1,0,0:0:0:40:CrashS.wav
448,192,124725,1,2,0:0:0:0:
320,192,124725,1,0,0:0:0:40:CrashS.wav
448,192,124810,1,2,0:0:0:0:
320,192,124810,1,0,0:0:0:40:CrashS.wav
192,192,124895,1,2,0:0:0:0:
64,192,124895,1,0,0:0:0:40:CrashS.wav
320,192,124979,1,2,0:0:0:0:
448,192,124979,1,0,0:0:0:40:CrashS.wav
192,192,125064,1,2,0:0:0:0:
64,192,125064,1,0,0:0:0:40:CrashS.wav
64,192,125149,1,2,0:0:0:0:
192,192,125149,1,0,0:0:0:40:CrashS.wav
448,192,125234,1,2,0:0:0:0:
320,192,125234,1,0,0:0:0:40:CrashS.wav
192,192,125318,1,2,0:0:0:0:
64,192,125318,1,0,0:0:0:40:CrashS.wav
448,192,125403,128,2,125742:0:0:0:0:
320,192,125403,128,0,125573:0:0:0:40:CrashL.wav
64,192,125403,128,0,125573:0:0:0:0:
192,192,125742,128,0,126081:0:0:0:0:
448,192,126081,128,2,126251:0:0:0:0:
320,192,126081,128,0,126420:0:0:0:40:CrashL.wav
64,192,126081,128,0,126251:0:0:0:0:
64,192,126420,128,0,126759:0:0:0:0:
448,192,126759,128,2,126928:0:0:0:0:
320,192,126759,128,0,126928:0:0:0:40:CrashS.wav
192,192,126759,128,0,127098:0:0:0:0:
448,192,127098,1,2,0:0:0:0:
320,192,127098,1,0,0:0:0:40:CrashS.wav
64,192,127098,1,0,0:0:0:0:
320,192,127267,1,0,0:0:0:0:
448,192,127437,128,2,127945:0:0:0:0:
192,192,127437,128,0,127606:0:0:0:40:CrashS.wav
64,192,127437,128,0,127606:0:0:0:0:
320,192,127776,128,2,127945:0:0:0:0:
192,192,127776,128,0,128115:0:0:0:40:CrashS.wav
64,192,127776,128,0,127945:0:0:0:0:
448,192,128115,1,2,0:0:0:0:
320,192,128115,128,0,129471:0:0:0:40:CrashL.wav
64,192,128115,1,0,0:0:0:0:
192,192,128623,1,2,0:0:0:0:
64,192,128623,1,0,0:0:0:0:
192,192,128793,1,2,0:0:0:0:
64,192,128793,128,0,129471:0:0:0:0:
448,192,129301,1,2,0:0:0:0:
192,192,129301,1,0,0:0:0:0:
448,192,129471,1,2,0:0:0:0:
192,192,129471,1,0,0:0:0:0:
320,192,129725,1,2,0:0:0:0:
448,192,129725,1,0,0:0:0:0:
64,192,129810,1,2,0:0:0:0:
192,192,129810,1,0,0:0:0:0:
320,192,129979,1,2,0:0:0:0:
448,192,129979,1,0,0:0:0:0:
64,192,130149,1,2,0:0:0:0:
192,192,130149,128,0,130318:0:0:0:0:
64,192,130318,1,0,0:0:0:0:
320,192,130318,1,0,0:0:0:0:
448,192,130318,1,0,0:0:0:0:
192,192,130488,1,0,0:0:0:0:
448,192,130488,1,0,0:0:0:0:
64,192,130657,1,0,0:0:0:0:
320,192,130657,1,0,0:0:0:0:
64,192,130827,128,2,130996:0:0:0:0:
192,192,130827,128,0,130996:0:0:0:40:CrashL.wav
448,192,130827,128,0,131166:0:0:0:0:
320,192,130996,1,0,0:0:0:0:
64,192,131166,1,2,0:0:0:0:
192,192,131166,1,8,0:0:0:0:
192,192,131335,1,0,0:0:0:0:
64,192,131505,128,2,131844:0:0:0:0:
320,192,131505,128,0,131674:0:0:0:40:CrashL.wav
448,192,131505,128,0,131674:0:0:0:0:
192,192,131674,1,0,0:0:0:0:
320,192,131844,1,8,0:0:0:0:
448,192,131844,1,2,0:0:0:0:
320,192,132013,1,0,0:0:0:0:
64,192,132183,128,2,132352:0:0:0:0:
192,192,132183,128,0,132352:0:0:0:40:CrashL.wav
448,192,132183,128,0,132522:0:0:0:0:
320,192,132352,1,0,0:0:0:0:
64,192,132522,1,8,0:0:0:0:
192,192,132522,1,2,0:0:0:0:
320,192,132691,1,0,0:0:0:0:
448,192,132691,1,0,0:0:0:0:
64,192,132861,1,2,0:0:0:0:
192,192,132861,1,0,0:0:0:40:CrashL.wav
448,192,132861,1,0,0:0:0:0:
192,192,133030,1,0,0:0:0:0:
320,192,133030,1,0,0:0:0:0:
320,192,133200,1,2,0:0:0:0:
448,192,133200,1,8,0:0:0:0:
64,192,133369,1,0,0:0:0:0:
192,192,133369,1,0,0:0:0:0:
64,192,133539,128,2,133878:0:0:0:0:
320,192,133539,128,0,133708:0:0:0:40:CrashS.wav
448,192,133539,128,0,133708:0:0:0:0:
192,192,133708,1,0,0:0:0:0:
192,192,133878,1,8,0:0:0:0:
320,192,133878,1,2,0:0:0:0:
448,192,133878,1,0,0:0:0:40:CrashS.wav
320,192,134047,1,0,0:0:0:0:
64,192,134217,128,2,134386:0:0:0:0:
192,192,134217,128,0,134386:0:0:0:40:CrashS.wav
448,192,134217,128,0,134556:0:0:0:0:
320,192,134386,1,0,0:0:0:0:
64,192,134556,1,8,0:0:0:0:
192,192,134556,1,2,0:0:0:0:
320,192,134556,1,0,0:0:0:40:CrashS.wav
192,192,134725,1,0,0:0:0:0:
320,192,134895,1,0,0:0:0:40:CrashS.wav
448,192,134895,128,0,135064:0:0:0:0:
64,192,134895,1,2,0:0:0:0:
192,192,135064,1,0,0:0:0:0:
320,192,135064,128,0,135234:0:0:0:0:
64,192,135234,1,2,0:0:0:0:
448,192,135234,1,8,0:0:0:0:
192,192,135234,128,0,135403:0:0:0:40:CrashS.wav
320,192,135403,1,0,0:0:0:0:
64,192,135403,128,0,135573:0:0:0:0:
448,192,135573,128,2,135912:0:0:0:0:
192,192,135573,1,0,0:0:0:0:
320,192,135573,128,0,135742:0:0:0:40:CrashS.wav
192,192,135742,1,0,0:0:0:0:
64,192,135912,1,2,0:0:0:0:
320,192,135912,128,0,136251:0:0:0:40:CrashS.wav
192,192,135912,128,8,136081:0:0:0:0:
64,192,136081,1,0,0:0:0:0:
448,192,136251,1,2,0:0:0:0:
64,192,136251,128,0,136420:0:0:0:40:CrashS.wav
192,192,136251,128,0,136590:0:0:0:0:
448,192,136420,1,0,0:0:0:0:
448,192,136590,128,2,136759:0:0:0:0:
320,192,136590,128,8,136928:0:0:0:0:
64,192,136590,1,0,0:0:0:40:CrashS.wav
64,192,136759,1,0,0:0:0:0:
448,192,136928,1,2,0:0:0:0:
192,192,136928,128,0,137098:0:0:0:40:CrashS.wav
64,192,136928,128,0,137267:0:0:0:0:
448,192,137098,1,0,0:0:0:0:
320,192,137267,128,2,137437:0:0:0:0:
448,192,137267,128,8,137606:0:0:0:0:
192,192,137267,1,0,0:0:0:40:CrashS.wav
192,192,137437,1,0,0:0:0:0:
64,192,137606,1,2,0:0:0:0:
320,192,137606,1,0,0:0:0:40:CrashS.wav
192,192,137606,1,0,0:0:0:0:
320,192,137776,1,2,0:0:0:0:
64,192,137776,1,0,0:0:0:40:CrashS.wav
192,192,137945,1,2,0:0:0:0:
448,192,137945,1,0,0:0:0:40:CrashS.wav
64,192,137945,1,0,0:0:0:0:
192,192,138115,1,2,0:0:0:0:
448,192,138115,1,0,0:0:0:40:CrashS.wav
64,192,138284,1,2,0:0:0:0:
192,192,138284,1,0,0:0:0:40:CrashL.wav
320,192,138284,1,0,0:0:0:0:
448,192,138284,128,0,139979:0:0:0:0:
64,192,139979,1,0,0:0:0:0:
192,192,140036,1,0,0:0:0:0:
320,192,140092,1,0,0:0:0:0:
64,192,140149,1,0,0:0:0:0:
192,192,140205,1,0,0:0:0:0:
448,192,140262,1,0,0:0:0:0:
320,192,140318,1,0,0:0:0:0:
192,192,140375,1,0,0:0:0:0:
64,192,140431,1,0,0:0:0:0:
320,192,140488,1,0,0:0:0:0:
448,192,140544,1,0,0:0:0:0:
192,192,140601,1,0,0:0:0:0:
320,192,140657,1,0,0:0:0:0:
64,192,140714,1,0,0:0:0:0:
192,192,140770,1,0,0:0:0:0:
448,192,140827,1,0,0:0:0:0:
320,192,140883,1,0,0:0:0:0:
192,192,140940,1,0,0:0:0:0:
448,192,140996,1,0,0:0:0:0:
320,192,141053,1,0,0:0:0:0:
64,192,141109,1,0,0:0:0:0:
192,192,141166,1,0,0:0:0:0:
320,192,141222,1,0,0:0:0:0:
64,192,141279,1,0,0:0:0:0:
192,192,141335,1,0,0:0:0:0:
320,192,141420,1,0,0:0:0:0:
448,192,141505,1,0,0:0:0:0:
192,192,141590,1,0,0:0:0:0:
64,192,141674,1,0,0:0:0:0:
320,192,141759,1,0,0:0:0:0:
192,192,141844,1,0,0:0:0:0:
448,192,141928,1,0,0:0:0:0:
320,192,142013,1,0,0:0:0:0:
64,192,142098,1,0,0:0:0:0:
448,192,142183,1,0,0:0:0:0:
192,192,142267,1,0,0:0:0:0:
320,192,142352,1,0,0:0:0:0:
64,192,142437,1,0,0:0:0:0:
192,192,142522,1,0,0:0:0:0:
448,192,142606,1,0,0:0:0:0:
320,192,142691,1,0,0:0:0:0:
192,192,142748,1,0,0:0:0:0:
64,192,142804,1,0,0:0:0:0:
448,192,142861,1,0,0:0:0:0:
320,192,142917,1,0,0:0:0:0:
192,192,142974,1,0,0:0:0:0:
448,192,143030,1,0,0:0:0:0:
320,192,143087,1,0,0:0:0:0:
64,192,143143,1,0,0:0:0:0:
192,192,143200,1,0,0:0:0:0:
448,192,143256,1,0,0:0:0:0:
320,192,143313,1,0,0:0:0:0:
192,192,143369,1,0,0:0:0:0:
64,192,143412,1,0,0:0:0:0:
448,192,143454,1,0,0:0:0:0:
320,192,143496,1,0,0:0:0:0:
192,192,143539,1,0,0:0:0:0:
448,192,143581,1,0,0:0:0:0:
320,192,143623,1,0,0:0:0:0:
64,192,143666,1,0,0:0:0:0:
192,192,143708,1,0,0:0:0:0:
320,192,143751,1,0,0:0:0:0:
64,192,143793,1,0,0:0:0:0:
192,192,143835,1,0,0:0:0:0:
448,192,143878,1,0,0:0:0:0:
320,192,143920,1,0,0:0:0:0:
64,192,143962,1,0,0:0:0:0:
192,192,144005,1,0,0:0:0:0:
320,192,144047,1,0,0:0:0:0:
448,192,144047,1,0,0:0:0:0:
192,192,144132,1,0,0:0:0:0:
64,192,144132,1,0,0:0:0:0:
448,192,144217,1,0,0:0:0:0:
320,192,144217,1,0,0:0:0:0:
64,192,144301,1,0,0:0:0:0:
192,192,144301,1,0,0:0:0:0:
320,192,144386,1,0,0:0:0:0:
448,192,144386,1,0,0:0:0:0:
