osu file format v14

[General]
AudioFilename: audio.mp3
AudioLeadIn: 0
PreviewTime: 92217
Countdown: 0
SampleSet: Normal
StackLeniency: 0.7
Mode: 1
LetterboxInBreaks: 0
WidescreenStoryboard: 0

[Editor]
DistanceSpacing: 1
BeatDivisor: 4
GridSize: 32
TimelineZoom: 2.2

[Metadata]
Title:Lyrith -Meikyuu Lyrith-
TitleUnicode:Lyrith -迷宮リリス-
Artist:yumemidoll
ArtistUnicode:ユメミド
Creator:Rhytoly
Version:Inner Oni
Source:BMS
Tags:leaf yumemido frenz2017 bofu2017 -legenda est a myth- the bms of fighters ultimate 2017 めいきゅう 孤高クローバー エース 遥壱朗 テンソル
BeatmapID:1489676
BeatmapSetID:704195

[Difficulty]
HPDrainRate:5
CircleSize:2
OverallDifficulty:6
ApproachRate:5
SliderMultiplier:1.4
SliderTickRate:1

[Events]
//Background and Video events
0,0,"lie.png",0,-136
//Break Periods
//Storyboard Layer 0 (Background)
//Storyboard Layer 1 (Fail)
//Storyboard Layer 2 (Pass)
//Storyboard Layer 3 (Foreground)
//Storyboard Sound Samples

[TimingPoints]
692,338.983050847458,4,1,0,75,1,0
692,-133.333333333333,4,1,0,75,0,0
6115,-125,4,1,0,75,0,0
6793,-121.951219512195,4,1,0,75,0,0
7132,-120.481927710843,4,1,0,75,0,0
7471,-119.047619047619,4,1,0,75,0,0
8149,-116.279069767442,4,1,0,75,0,0
8488,-114.942528735632,4,1,0,75,0,0
8827,-113.636363636364,4,1,0,75,0,0
9505,-111.111111111111,4,1,0,75,0,0
9844,-109.89010989011,4,1,0,75,0,0
10183,-108.695652173913,4,1,0,75,0,0
10522,-107.52688172043,4,1,0,75,0,0
10861,-106.382978723404,4,1,0,75,0,0
11200,-105.263157894737,4,1,0,75,0,0
11539,-104.166666666667,4,1,0,75,0,0
12895,-90.9090909090909,4,1,0,75,0,0
13234,-100,4,1,0,75,0,0
13573,-99.009900990099,4,1,0,75,0,0
13658,-98.0392156862745,4,1,0,75,0,0
13742,-97.0873786407767,4,1,0,75,0,0
13799,-96.1538461538461,4,1,0,75,0,0
13855,-95.2380952380952,4,1,0,75,0,0
13912,-94.3396226415094,4,1,0,75,0,0
13997,-93.4579439252336,4,1,0,75,0,0
14081,-90.9090909090909,4,1,0,75,0,0
14590,-91.743119266055,4,1,0,75,0,0
14675,-92.5925925925926,4,1,0,75,0,0
14759,-93.4579439252336,4,1,0,75,0,0
14844,-94.3396226415094,4,1,0,75,0,0
14929,-95.2380952380952,4,1,0,75,0,0
15014,-96.1538461538461,4,1,0,75,0,0
15098,-97.0873786407767,4,1,0,75,0,0
15183,-98.0392156862745,4,1,0,75,0,0
15268,-99.009900990099,4,1,0,75,0,0
15381,-96.1538461538461,4,1,0,75,0,0
15494,-93.4579439252336,4,1,0,75,0,0
15607,-90.9090909090909,4,1,0,75,0,0
17047,-90.0900900900901,4,1,0,75,0,0
17132,-89.2857142857143,4,1,0,75,0,0
17217,-88.4955752212389,4,1,0,75,0,0
17302,-87.719298245614,4,1,0,75,0,0
17386,-86.9565217391304,4,1,0,75,0,0
17471,-86.2068965517241,4,1,0,75,0,0
17556,-85.4700854700855,4,1,0,75,0,0
17641,-84.7457627118644,4,1,0,75,0,0
17725,-85.4700854700855,4,1,0,75,0,0
17810,-86.2068965517241,4,1,0,75,0,0
17895,-86.9565217391304,4,1,0,75,0,0
17980,-87.719298245614,4,1,0,75,0,0
18064,-88.4955752212389,4,1,0,75,0,0
18149,-89.2857142857143,4,1,0,75,0,0
18319,-90.9090909090909,4,1,0,75,0,1
19929,-91.743119266055,4,1,0,75,0,1
20014,-92.5925925925926,4,1,0,75,0,1
20098,-93.4579439252336,4,1,0,75,0,1
20183,-94.3396226415094,4,1,0,75,0,1
20268,-95.2380952380952,4,1,0,75,0,1
20353,-96.1538461538461,4,1,0,75,0,1
20437,-97.0873786407767,4,1,0,75,0,1
20522,-98.0392156862745,4,1,0,75,0,1
20607,-99.009900990099,4,1,0,75,0,1
20692,-100,4,1,0,75,0,1
20776,-101.010101010101,4,1,0,75,0,1
20861,-102.040816326531,4,1,0,75,0,1
20946,-103.092783505155,4,1,0,75,0,1
21030,-104.166666666667,4,1,0,75,0,1
21200,-100,4,1,0,75,0,1
21285,-98.0392156862745,4,1,0,75,0,1
21369,-96.1538461538461,4,1,0,75,0,1
21539,-93.4579439252336,4,1,0,75,0,1
21708,-90.9090909090909,4,1,0,75,0,1
22556,-89.2857142857143,4,1,0,75,0,1
22725,-87.719298245614,4,1,0,75,0,1
22810,-86.9565217391304,4,1,0,75,0,1
22980,-85.4700854700855,4,1,0,75,0,1
23064,-84.7457627118644,4,1,0,75,0,1
23234,-76.9230769230769,4,1,0,75,0,1
23827,-78.125,4,1,0,75,0,1
23912,-79.3650793650794,4,1,0,75,0,1
23997,-80.6451612903226,4,1,0,75,0,1
24081,-81.9672131147541,4,1,0,75,0,1
24166,-83.3333333333333,4,1,0,75,0,1
24251,-84.7457627118644,4,1,0,75,0,1
24336,-86.2068965517241,4,1,0,75,0,1
24420,-87.719298245614,4,1,0,75,0,1
24505,-89.2857142857143,4,1,0,75,0,1
24590,-90.9090909090909,4,1,0,75,0,1
24675,-92.5925925925926,4,1,0,75,0,1
24929,-98.0392156862745,4,1,0,75,0,1
25098,-100,4,1,0,75,0,0
32725,-99.009900990099,4,1,0,75,0,0
32895,-97.0873786407767,4,1,0,75,0,0
33064,-92.5925925925926,4,1,0,75,0,0
33234,-86.9565217391304,4,1,0,75,0,0
33573,-97.0873786407767,4,1,0,75,0,0
33742,-92.5925925925926,4,1,0,75,0,0
33912,-86.9565217391304,4,1,0,75,0,0
34251,-97.0873786407767,4,1,0,75,0,0
34420,-92.5925925925926,4,1,0,75,0,0
34590,-86.9565217391304,4,1,0,75,0,0
34929,-83.3333333333333,4,1,0,75,0,0
35268,-83.3333333333333,4,1,0,75,0,0
35946,-83.3333333333333,4,1,0,75,0,1
36115,-81.9672131147541,4,1,0,75,0,1
36200,-81.3008130081301,4,1,0,75,0,1
36285,-80.6451612903226,4,1,0,75,0,1
36454,-81.9672131147541,4,1,0,75,0,1
36539,-82.6446280991736,4,1,0,75,0,1
36624,-83.3333333333333,4,1,0,75,0,1
36793,-81.9672131147541,4,1,0,75,0,1
36878,-81.3008130081301,4,1,0,75,0,1
36963,-80.6451612903226,4,1,0,75,0,1
37132,-81.9672131147541,4,1,0,75,0,1
37217,-82.6446280991736,4,1,0,75,0,1
37302,-83.3333333333333,4,1,0,75,0,1
37471,-81.9672131147541,4,1,0,75,0,1
37556,-81.3008130081301,4,1,0,75,0,1
37641,-80.6451612903226,4,1,0,75,0,1
37725,-80,4,1,0,75,0,1
37810,-79.3650793650794,4,1,0,75,0,1
37895,-78.7401574803149,4,1,0,75,0,1
37980,-78.125,4,1,0,75,0,1
38149,-79.3650793650794,4,1,0,75,0,1
38234,-80,4,1,0,75,0,1
38319,-80.6451612903226,4,1,0,75,0,1
38403,-81.3008130081301,4,1,0,75,0,1
38488,-81.9672131147541,4,1,0,75,0,1
38573,-82.6446280991736,4,1,0,75,0,1
38658,-83.3333333333333,4,1,0,75,0,1
38827,-81.9672131147541,4,1,0,75,0,1
38912,-81.3008130081301,4,1,0,75,0,1
38997,-80.6451612903226,4,1,0,75,0,1
39166,-81.9672131147541,4,1,0,75,0,1
39251,-82.6446280991736,4,1,0,75,0,1
39336,-83.3333333333333,4,1,0,75,0,1
39505,-81.9672131147541,4,1,0,75,0,1
39590,-81.3008130081301,4,1,0,75,0,1
39675,-80.6451612903226,4,1,0,75,0,1
39844,-81.9672131147541,4,1,0,75,0,1
39929,-82.6446280991736,4,1,0,75,0,1
40014,-83.3333333333333,4,1,0,75,0,1
40183,-81.9672131147541,4,1,0,75,0,1
40268,-81.3008130081301,4,1,0,75,0,1
40353,-80.6451612903226,4,1,0,75,0,1
40437,-80,4,1,0,75,0,1
40522,-79.3650793650794,4,1,0,75,0,1
40607,-78.7401574803149,4,1,0,75,0,1
40692,-78.125,4,1,0,75,0,1
40861,-79.3650793650794,4,1,0,75,0,1
40946,-80,4,1,0,75,0,1
41030,-81.3008130081301,4,1,0,75,0,1
41115,-82.6446280991736,4,1,0,75,0,1
41200,-84.0336134453781,4,1,0,75,0,1
41285,-85.4700854700855,4,1,0,75,0,1
41369,-86.9565217391304,4,1,0,75,0,1
41539,-85.4700854700855,4,1,0,75,0,1
41624,-84.7457627118644,4,1,0,75,0,1
41708,-84.0336134453781,4,1,0,75,0,1
41878,-85.4700854700855,4,1,0,75,0,1
41963,-86.2068965517241,4,1,0,75,0,1
42047,-86.9565217391304,4,1,0,75,0,1
42217,-85.4700854700855,4,1,0,75,0,1
42302,-84.7457627118644,4,1,0,75,0,1
42386,-84.0336134453781,4,1,0,75,0,1
42556,-85.4700854700855,4,1,0,75,0,1
42641,-86.2068965517241,4,1,0,75,0,1
42725,-86.9565217391304,4,1,0,75,0,1
42895,-88.4955752212389,4,1,0,75,0,1
42980,-89.2857142857143,4,1,0,75,0,1
43064,-90.0900900900901,4,1,0,75,0,1
43149,-90.9090909090909,4,1,0,75,0,1
43234,-91.743119266055,4,1,0,75,0,1
43319,-92.5925925925926,4,1,0,75,0,1
43403,-93.4579439252336,4,1,0,75,0,1
43573,-91.743119266055,4,1,0,75,0,1
43658,-90.9090909090909,4,1,0,75,0,1
43742,-90.0900900900901,4,1,0,75,0,1
43827,-89.2857142857143,4,1,0,75,0,1
43912,-88.4955752212389,4,1,0,75,0,1
43997,-87.719298245614,4,1,0,75,0,1
44081,-86.9565217391304,4,1,0,75,0,1
44251,-85.4700854700855,4,1,0,75,0,1
44336,-84.7457627118644,4,1,0,75,0,1
44420,-84.0336134453781,4,1,0,75,0,1
44590,-85.4700854700855,4,1,0,75,0,1
44675,-86.2068965517241,4,1,0,75,0,1
44759,-86.9565217391304,4,1,0,75,0,1
44929,-85.4700854700855,4,1,0,75,0,1
45014,-84.7457627118644,4,1,0,75,0,1
45098,-84.0336134453781,4,1,0,75,0,1
45268,-85.4700854700855,4,1,0,75,0,1
45353,-86.2068965517241,4,1,0,75,0,1
45437,-86.9565217391304,4,1,0,75,0,1
45607,-88.4955752212389,4,1,0,75,0,1
45692,-89.2857142857143,4,1,0,75,0,1
45776,-90.0900900900901,4,1,0,75,0,1
45861,-90.9090909090909,4,1,0,75,0,1
45946,-91.743119266055,4,1,0,75,0,1
46030,-92.5925925925926,4,1,0,75,0,1
46115,-93.4579439252336,4,1,0,75,0,1
46200,-93.4579439252336,4,1,0,75,0,1
46285,-92.5925925925926,4,1,0,75,0,1
46369,-90.9090909090909,4,1,0,75,0,1
46454,-89.2857142857143,4,1,0,75,0,1
46539,-87.719298245614,4,1,0,75,0,1
46624,-86.2068965517241,4,1,0,75,0,1
46708,-84.7457627118644,4,1,0,75,0,1
46793,-83.3333333333333,4,1,0,75,0,1
46963,-81.9672131147541,4,1,0,75,0,1
47302,-84.7457627118644,4,1,0,75,0,1
47641,-80,4,1,0,75,0,1
47980,-82.6446280991736,4,1,0,75,0,1
48488,-83.3333333333333,4,1,0,75,0,1
48827,-84.0336134453781,4,1,0,75,0,1
49166,-83.3333333333333,4,1,0,75,0,1
49505,-82.6446280991736,4,1,0,75,0,1
49675,-80.6451612903226,4,1,0,75,0,1
50014,-79.3650793650794,4,1,0,75,0,1
50353,-81.3008130081301,4,1,0,75,0,1
50692,-80.6451612903226,4,1,0,75,0,1
51200,-81.3008130081301,4,1,0,75,0,1
51539,-81.9672131147541,4,1,0,75,0,1
51878,-82.6446280991736,4,1,0,75,0,1
52217,-83.3333333333333,4,1,0,75,0,1
52895,-83.3333333333333,4,1,0,75,0,1
53234,-76.9230769230769,4,1,0,75,0,1
53573,-83.3333333333333,4,1,0,75,0,1
53742,-86.9565217391304,4,1,0,75,0,1
53912,-90.9090909090909,4,1,0,75,0,1
54081,-95.2380952380952,4,1,0,75,0,1
54251,-100,4,1,0,75,0,1
54929,-90.9090909090909,4,1,0,75,0,0
56624,-86.9565217391304,4,1,0,75,0,0
56963,-83.3333333333333,4,1,0,75,0,0
57302,-100,4,1,0,75,0,0
57641,338.983050847458,7,1,0,75,1,0
57641,-90.9090909090909,7,1,0,75,0,1
58149,-88.4955752212389,4,1,0,75,0,1
58657,-86.2068965517241,4,1,0,75,0,1
59166,-88.4955752212389,4,1,0,75,0,1
59759,-87.719298245614,4,1,0,75,0,1
59844,-86.9565217391304,4,1,0,75,0,1
59929,-86.2068965517241,4,1,0,75,0,1
60013,-85.4700854700855,4,1,0,75,0,1
60522,-83.3333333333333,4,1,0,75,0,1
61030,-81.3008130081301,4,1,0,75,0,1
61539,-83.3333333333333,4,1,0,75,0,1
62132,-84.0336134453781,4,1,0,75,0,1
62217,-84.7457627118644,4,1,0,75,0,1
62302,-85.4700854700855,4,1,0,75,0,1
62386,-86.2068965517241,4,1,0,75,0,1
62895,-84.0336134453781,4,1,0,75,0,1
63403,-81.9672131147541,4,1,0,75,0,1
63912,-84.0336134453781,4,1,0,75,0,1
64505,-83.3333333333333,4,1,0,75,0,1
64590,-82.6446280991736,4,1,0,75,0,1
64674,-81.9672131147541,4,1,0,75,0,1
64759,-81.3008130081301,4,1,0,75,0,1
65268,-79.3650793650794,4,1,0,75,0,1
65776,-77.5193798449612,4,1,0,75,0,1
66285,-79.3650793650794,4,1,0,75,0,1
66539,-80.6451612903226,4,1,0,75,0,1
66624,-81.9672131147541,4,1,0,75,0,1
66708,-83.3333333333333,4,1,0,75,0,1
66793,-84.7457627118644,4,1,0,75,0,0
66878,-86.2068965517241,4,1,0,75,0,0
66963,-87.719298245614,4,1,0,75,0,0
67047,-89.2857142857143,4,1,0,75,0,0
67132,-90.9090909090909,4,1,0,75,0,1
69166,-90.0900900900901,4,1,0,75,0,1
69251,-89.2857142857143,4,1,0,75,0,1
69335,-88.4955752212389,4,1,0,75,0,1
69420,-87.719298245614,4,1,0,75,0,1
69505,-86.9565217391304,4,1,0,75,0,1
71539,-87.719298245614,4,1,0,75,0,1
71624,-88.4955752212389,4,1,0,75,0,1
71708,-89.2857142857143,4,1,0,75,0,1
71793,-90.0900900900901,4,1,0,75,0,1
71878,-90.9090909090909,4,1,0,75,0,1
73968,-90.0900900900901,4,1,0,75,0,1
74025,-89.2857142857143,4,1,0,75,0,1
74081,-88.4955752212389,4,1,0,75,0,1
74166,-87.719298245614,4,1,0,75,0,1
74251,-86.9565217391304,4,1,0,75,0,1
75861,-87.719298245614,4,1,0,75,0,1
75946,-89.2857142857143,4,1,0,75,0,1
76030,-90.9090909090909,4,1,0,75,0,1
76115,-92.5925925925926,4,1,0,75,0,1
76200,-94.3396226415094,4,1,0,75,0,1
76285,-96.1538461538461,4,1,0,75,0,1
76369,-97.0873786407767,4,1,0,75,0,1
76454,-98.0392156862745,4,1,0,75,0,1
76539,-99.009900990099,4,1,0,75,0,1
76624,338.983050847458,4,1,0,75,1,0
76624,-100,4,1,0,75,0,0
78827,-83.3333333333333,4,1,0,75,0,0
79335,-100,4,1,0,75,0,0
79675,-102.040816326531,4,1,0,75,0,0
79844,-103.092783505155,4,1,0,75,0,0
80014,-104.166666666667,4,1,0,75,0,0
80353,-106.382978723404,4,1,0,75,0,0
80522,-107.52688172043,4,1,0,75,0,0
80692,-108.695652173913,4,1,0,75,0,0
81030,-111.111111111111,4,1,0,75,0,0
81200,-112.359550561798,4,1,0,75,0,0
81369,-113.636363636364,4,1,0,75,0,0
81539,-114.942528735632,4,1,0,75,0,0
81708,-116.279069767442,4,1,0,75,0,0
81878,-117.647058823529,4,1,0,75,0,0
82047,-119.047619047619,4,1,0,75,0,0
82386,-121.951219512195,4,1,0,75,0,0
82556,-123.456790123457,4,1,0,75,0,0
82725,-125,4,1,0,75,0,0
83064,-128.205128205128,4,1,0,75,0,0
83234,-129.87012987013,4,1,0,75,0,0
83403,-131.578947368421,4,1,0,75,0,0
83742,-135.135135135135,4,1,0,75,0,0
83912,-136.986301369863,4,1,0,75,0,0
84081,-138.888888888889,4,1,0,75,0,0
84251,-140.845070422535,4,1,0,75,0,0
84420,-142.857142857143,4,1,0,75,0,0
84590,-144.927536231884,4,1,0,75,0,0
84759,-147.058823529412,4,1,0,75,0,0
85098,-151.515151515152,4,1,0,75,0,0
85268,-153.846153846154,4,1,0,75,0,0
85437,-156.25,4,1,0,75,0,0
85776,-161.290322580645,4,1,0,75,0,0
85946,-163.934426229508,4,1,0,75,0,0
86115,-166.666666666667,4,1,0,75,0,0
86285,-169.491525423729,4,1,0,75,0,0
86454,-172.413793103448,4,1,0,75,0,0
86624,-175.438596491228,4,1,0,75,0,0
86793,-178.571428571429,4,1,0,75,0,0
87132,-185.185185185185,4,1,0,75,0,0
87471,-188.679245283019,4,1,0,75,0,0
88488,-192.307692307692,4,1,0,75,0,0
88827,-196.078431372549,4,1,0,75,0,0
89505,-200,4,1,0,75,0,0
90522,-80,4,1,0,75,0,0
92556,-81.3008130081301,4,1,0,75,0,0
92895,-83.3333333333333,4,1,0,75,0,1
93064,-79.3650793650794,4,1,0,75,0,1
93403,-81.3008130081301,4,1,0,75,0,1
93742,-78.7401574803149,4,1,0,75,0,1
94081,-80.6451612903226,4,1,0,75,0,1
94420,-78.125,4,1,0,75,0,1
94505,-78.7401574803149,4,1,0,75,0,1
94590,-79.3650793650794,4,1,0,75,0,1
94674,-80,4,1,0,75,0,1
94759,-80.6451612903226,4,1,0,75,0,1
94844,-81.3008130081301,4,1,0,75,0,1
94929,-81.9672131147541,4,1,0,75,0,1
95098,-80.6451612903226,4,1,0,75,0,1
95183,-80,4,1,0,75,0,1
95268,-79.3650793650794,4,1,0,75,0,1
95352,-78.7401574803149,4,1,0,75,0,1
95437,-78.125,4,1,0,75,0,1
95522,-77.5193798449612,4,1,0,75,0,1
95776,-79.3650793650794,4,1,0,75,0,1
96115,-78.125,4,1,0,75,0,1
96454,-80.6451612903226,4,1,0,75,0,1
96793,-78.7401574803149,4,1,0,75,0,1
97132,-81.9672131147541,4,1,0,75,0,1
97217,-81.3008130081301,4,1,0,75,0,1
97301,-80.6451612903226,4,1,0,75,0,1
97386,-80,4,1,0,75,0,1
97471,-79.3650793650794,4,1,0,75,0,1
97556,-78.7401574803149,4,1,0,75,0,1
97640,-78.125,4,1,0,75,0,1
97810,-79.3650793650794,4,1,0,75,0,1
97895,-80,4,1,0,75,0,1
97979,-80.6451612903226,4,1,0,75,0,1
98064,-80,4,1,0,75,0,1
98149,-79.3650793650794,4,1,0,75,0,1
98234,-78.7401574803149,4,1,0,75,0,1
98318,-78.125,4,1,0,75,0,1
98488,-75.7575757575758,4,1,0,75,0,1
98827,-78.125,4,1,0,75,0,1
99166,-75.187969924812,4,1,0,75,0,1
99505,-78.7401574803149,4,1,0,75,0,1
99844,-81.3008130081301,4,1,0,75,0,1
99929,-80.6451612903226,4,1,0,75,0,1
100013,-80,4,1,0,75,0,1
100098,-79.3650793650794,4,1,0,75,0,1
100183,-78.7401574803149,4,1,0,75,0,1
100268,-78.125,4,1,0,75,0,1
100352,-77.5193798449612,4,1,0,75,0,1
100522,-79.3650793650794,4,1,0,75,0,1
100607,-80,4,1,0,75,0,1
100691,-80.6451612903226,4,1,0,75,0,1
100776,-81.3008130081301,4,1,0,75,0,1
100861,-81.9672131147541,4,1,0,75,0,1
100946,-82.6446280991736,4,1,0,75,0,1
101030,-83.3333333333333,4,1,0,75,0,1
103403,-71.4285714285714,4,1,0,75,0,1
103460,-74.0740740740741,4,1,0,75,0,1
103516,-76.9230769230769,4,1,0,75,0,1
103573,-80,4,1,0,75,0,1
103742,-83.3333333333333,4,1,0,75,0,1
103912,-80.6451612903226,4,1,0,75,0,1
104251,-84.0336134453781,4,1,0,75,0,1
104590,-80,4,1,0,75,0,1
104929,-81.3008130081301,4,1,0,75,0,1
105268,-78.7401574803149,4,1,0,75,0,1
105352,-79.3650793650794,4,1,0,75,0,1
105437,-80,4,1,0,75,0,1
105522,-80.6451612903226,4,1,0,75,0,1
105607,-81.3008130081301,4,1,0,75,0,1
105691,-81.9672131147541,4,1,0,75,0,1
105776,-82.6446280991736,4,1,0,75,0,1
105946,-76.9230769230769,4,1,0,75,0,1
106624,-80,4,1,0,75,0,1
106962,-78.125,4,1,0,75,0,1
107301,-80.6451612903226,4,1,0,75,0,1
107640,-77.5193798449612,4,1,0,75,0,1
107979,-79.3650793650794,4,1,0,75,0,1
108064,-80,4,1,0,75,0,1
108149,-80.6451612903226,4,1,0,75,0,1
108234,-81.3008130081301,4,1,0,75,0,1
108318,-81.9672131147541,4,1,0,75,0,1
108403,-82.6446280991736,4,1,0,75,0,1
108488,-83.3333333333333,4,1,0,75,0,1
108657,-76.9230769230769,4,1,0,75,0,1
113912,-66.6666666666667,4,1,0,75,0,0
114590,-90.9090909090909,4,1,0,75,0,1
117132,-89.2857142857143,4,1,0,75,0,1
117188,-88.4955752212389,4,1,0,75,0,1
117245,-87.719298245614,4,1,0,75,0,1
117301,-86.9565217391304,4,1,0,75,0,1
119844,-85.4700854700855,4,1,0,75,0,1
119900,-84.7457627118644,4,1,0,75,0,1
119957,-84.0336134453781,4,1,0,75,0,1
120013,-83.1255195344971,4,1,0,75,0,1
124138,-81.9672131147541,4,1,0,75,0,1
124194,-80.6451612903226,4,1,0,75,0,1
124251,-79.3650793650794,4,1,0,75,0,1
124335,-80,4,1,0,75,0,1
124420,-80.6451612903226,4,1,0,75,0,1
124505,-81.3008130081301,4,1,0,75,0,1
124590,-81.9672131147541,4,1,0,75,0,1
124674,-82.6446280991736,4,1,0,75,0,1
124759,-83.3333333333333,4,1,0,75,0,1
125437,-83.3333333333333,4,1,0,75,0,0
128488,-87.719298245614,4,1,0,75,0,0
128573,-88.4955752212389,4,1,0,75,0,0
128657,-89.2857142857143,4,1,0,75,0,0
128742,-90.0900900900901,4,1,0,75,0,0
128827,-90.9090909090909,4,1,0,75,0,0
128912,-91.743119266055,4,1,0,75,0,0
128996,-92.5925925925926,4,1,0,75,0,0
129081,-93.4579439252336,4,1,0,75,0,0
129166,-94.3396226415094,4,1,0,75,0,0
129251,-95.2380952380952,4,1,0,75,0,0
129335,-96.1538461538461,4,1,0,75,0,0
129420,-97.0873786407767,4,1,0,75,0,0
129505,-98.0392156862745,4,1,0,75,0,0
129590,-97.0873786407767,4,1,0,75,0,0
129674,-96.1538461538461,4,1,0,75,0,0
129759,-95.2380952380952,4,1,0,75,0,0
129844,-94.3396226415094,4,1,0,75,0,0
129929,-93.4579439252336,4,1,0,75,0,0
130013,-92.5925925925926,4,1,0,75,0,0
130098,-91.743119266055,4,1,0,75,0,0
130183,-90.9090909090909,4,1,0,75,0,0
130352,-87.719298245614,4,1,0,75,0,0
130522,-86.2068965517241,4,1,0,75,0,0
130691,-84.7457627118644,4,1,0,75,0,0
130861,-83.3333333333333,4,1,0,75,0,1
133234,-82.6446280991736,4,1,0,75,0,1
133318,-81.9672131147541,4,1,0,75,0,1
133403,-81.3008130081301,4,1,0,75,0,1
133488,-80.6451612903226,4,1,0,75,0,1
133573,-80,4,1,0,75,0,1
135946,-79.3650793650794,4,1,0,75,0,1
136030,-78.7401574803149,4,1,0,75,0,1
136115,-78.125,4,1,0,75,0,1
136200,-77.5193798449612,4,1,0,75,0,1
136285,-76.9230769230769,4,1,0,75,0,1
137979,-76.3358778625954,4,1,0,75,0,1
138064,-75.7575757575758,4,1,0,75,0,1
138149,-75.187969924812,4,1,0,75,0,1
138234,-74.6268656716418,4,1,0,75,0,1
138318,-74.0740740740741,4,1,0,75,0,0
144081,-95.2380952380952,4,1,0,75,0,0
144166,-96.1538461538461,4,1,0,75,0,0
144251,-97.0873786407767,4,1,0,75,0,0
144335,-98.0392156862745,4,1,0,75,0,0
144420,-99.009900990099,4,1,0,75,0,0

[HitObjects]
256,96,692,5,8,0:0:0:0:
256,128,1030,1,0,0:0:0:0:
320,96,1369,1,0,0:0:0:0:
320,96,1708,1,8,0:0:0:0:
288,96,2047,1,8,0:0:0:0:
256,96,2725,1,0,0:0:0:0:
320,96,3403,1,8,0:0:0:0:
288,96,3742,1,0,0:0:0:0:
288,96,4081,1,0,0:0:0:0:
160,128,4420,1,8,0:0:0:0:
256,128,4759,1,8,0:0:0:0:
288,128,5268,1,0,0:0:0:0:
288,128,5437,1,0,0:0:0:0:
320,224,6115,1,4,0:0:0:0:
128,160,6793,1,8,0:0:0:0:
128,160,7132,1,0,0:0:0:0:
128,160,7471,1,0,0:0:0:0:
128,160,8149,1,8,0:0:0:0:
128,160,8488,1,0,0:0:0:0:
128,160,8827,1,0,0:0:0:0:
192,160,9505,1,8,0:0:0:0:
224,160,9844,1,0,0:0:0:0:
224,160,10183,1,8,0:0:0:0:
320,128,10522,1,8,0:0:0:0:
352,128,10861,1,0,0:0:0:0:
352,128,11200,1,8,0:0:0:0:
96,160,11539,1,0,0:0:0:0:
256,160,12895,1,4,0:0:0:0:
256,128,13234,1,0,0:0:0:0:
256,128,13403,1,8,0:0:0:0:
256,128,13573,1,8,0:0:0:0:
320,160,13658,1,8,0:0:0:0:
64,160,13742,1,8,0:0:0:0:
256,192,13799,1,8,0:0:0:0:
160,160,13855,1,8,0:0:0:0:
320,160,13912,1,0,0:0:0:0:
320,160,13997,1,0,0:0:0:0:
320,160,14081,1,8,0:0:0:0:
288,96,14251,1,4,0:0:0:0:
320,96,14590,1,8,0:0:0:0:
288,96,14675,1,8,0:0:0:0:
288,96,14759,1,0,0:0:0:0:
97,135,14844,1,0,0:0:0:0:
288,96,14929,1,8,0:0:0:0:
288,96,15014,1,8,0:0:0:0:
133,140,15098,1,0,0:0:0:0:
288,96,15183,1,0,0:0:0:0:
288,96,15268,1,8,0:0:0:0:
288,96,15381,1,8,0:0:0:0:
288,96,15494,1,8,0:0:0:0:
288,64,15607,1,4,0:0:0:0:
192,160,15776,1,0,0:0:0:0:
192,160,15946,1,8,0:0:0:0:
192,160,16115,1,0,0:0:0:0:
192,160,16285,1,4,0:0:0:0:
192,160,16454,1,0,0:0:0:0:
192,160,16624,1,8,0:0:0:0:
192,160,16793,1,0,0:0:0:0:
192,160,16963,1,0,0:0:0:0:
128,192,17047,1,8,0:0:0:0:
128,192,17132,1,8,0:0:0:0:
128,192,17217,1,0,0:0:0:0:
128,192,17302,1,0,0:0:0:0:
128,192,17386,1,8,0:0:0:0:
128,192,17471,1,8,0:0:0:0:
128,192,17556,1,0,0:0:0:0:
128,192,17641,1,8,0:0:0:0:
128,192,17725,1,0,0:0:0:0:
128,192,17810,1,8,0:0:0:0:
128,192,17895,1,8,0:0:0:0:
128,192,17980,1,0,0:0:0:0:
128,192,18064,1,0,0:0:0:0:
128,192,18149,1,8,0:0:0:0:
192,160,18319,1,4,0:0:0:0:
256,160,18488,1,8,0:0:0:0:
256,160,18573,1,8,0:0:0:0:
256,160,18658,1,0,0:0:0:0:
256,160,18827,1,8,0:0:0:0:
256,160,18997,1,0,0:0:0:0:
256,160,19166,1,8,0:0:0:0:
256,160,19251,1,8,0:0:0:0:
256,160,19336,1,0,0:0:0:0:
256,160,19505,1,8,0:0:0:0:
256,160,19675,1,0,0:0:0:0:
288,160,19844,1,8,0:0:0:0:
288,160,19929,1,0,0:0:0:0:
256,192,20014,1,8,0:0:0:0:
256,192,20098,1,8,0:0:0:0:
256,192,20183,1,0,0:0:0:0:
256,192,20268,1,8,0:0:0:0:
256,192,20353,1,0,0:0:0:0:
256,192,20437,1,0,0:0:0:0:
256,192,20522,1,8,0:0:0:0:
256,192,20607,1,0,0:0:0:0:
256,192,20692,1,8,0:0:0:0:
256,192,20776,1,8,0:0:0:0:
256,192,20861,1,0,0:0:0:0:
256,192,20946,1,8,0:0:0:0:
256,192,21030,1,0,0:0:0:0:
288,160,21200,1,8,0:0:0:0:
288,160,21285,1,8,0:0:0:0:
288,160,21369,1,0,0:0:0:0:
288,160,21539,1,8,0:0:0:0:
288,160,21708,1,0,0:0:0:0:
288,160,21878,1,8,0:0:0:0:
288,160,21963,1,8,0:0:0:0:
288,160,22047,1,0,0:0:0:0:
288,160,22217,1,8,0:0:0:0:
288,160,22386,1,0,0:0:0:0:
384,160,22556,1,8,0:0:0:0:
256,160,22725,1,0,0:0:0:0:
256,160,22810,1,8,0:0:0:0:
256,128,22980,1,0,0:0:0:0:
256,128,23064,1,8,0:0:0:0:
256,128,23234,1,12,0:0:0:0:
224,160,23742,1,8,0:0:0:0:
384,160,23827,1,0,0:0:0:0:
384,160,23912,1,8,0:0:0:0:
384,160,23997,1,8,0:0:0:0:
384,160,24081,1,0,0:0:0:0:
384,160,24166,1,8,0:0:0:0:
384,160,24251,1,0,0:0:0:0:
384,160,24336,1,8,0:0:0:0:
416,160,24420,1,8,0:0:0:0:
448,128,24505,1,0,0:0:0:0:
416,160,24590,1,8,0:0:0:0:
416,160,24675,1,0,0:0:0:0:
256,128,24929,1,0,0:0:0:0:
256,128,25098,1,12,0:0:0:0:
256,192,25437,1,0,0:0:0:0:
256,192,25607,1,0,0:0:0:0:
256,192,25776,1,8,0:0:0:0:
256,160,26115,1,0,0:0:0:0:
256,160,26285,1,0,0:0:0:0:
256,160,26454,1,8,0:0:0:0:
352,192,26624,1,0,0:0:0:0:
256,160,26793,1,8,0:0:0:0:
256,160,26963,1,8,0:0:0:0:
256,160,27132,1,8,0:0:0:0:
256,160,27302,1,0,0:0:0:0:
256,160,27471,1,0,0:0:0:0:
256,160,27641,1,8,0:0:0:0:
256,160,27810,1,8,0:0:0:0:
320,192,28149,1,0,0:0:0:0:
352,192,28319,1,0,0:0:0:0:
352,192,28488,1,8,0:0:0:0:
352,192,28827,1,0,0:0:0:0:
352,192,28997,1,0,0:0:0:0:
352,192,29166,1,8,0:0:0:0:
352,192,29336,1,0,0:0:0:0:
352,192,29505,1,8,0:0:0:0:
352,192,29675,1,8,0:0:0:0:
352,192,29844,1,8,0:0:0:0:
160,160,30014,1,0,0:0:0:0:
224,160,30183,1,0,0:0:0:0:
256,160,30353,1,8,0:0:0:0:
256,160,30522,1,8,0:0:0:0:
320,160,30861,1,8,0:0:0:0:
320,160,31030,1,0,0:0:0:0:
320,160,31200,1,8,0:0:0:0:
288,192,31539,1,8,0:0:0:0:
320,192,31708,1,0,0:0:0:0:
320,192,31878,1,8,0:0:0:0:
320,192,32047,1,8,0:0:0:0:
320,192,32217,1,8,0:0:0:0:
320,192,32386,1,0,0:0:0:0:
320,192,32556,1,8,0:0:0:0:
320,192,32725,1,0,0:0:0:0:
320,192,32895,1,0,0:0:0:0:
320,192,33064,1,8,0:0:0:0:
320,192,33234,1,12,0:0:0:0:
256,160,33573,1,0,0:0:0:0:
256,160,33742,1,0,0:0:0:0:
256,160,33912,1,12,0:0:0:0:
256,160,34251,1,0,0:0:0:0:
256,160,34420,1,8,0:0:0:0:
256,160,34590,1,4,0:0:0:0:
256,128,34929,1,12,0:0:0:0:
256,128,35268,1,12,0:0:0:0:
160,128,35437,1,0,0:0:0:0:
160,128,35522,1,8,0:0:0:0:
160,128,35607,1,8,0:0:0:0:
160,128,35692,1,0,0:0:0:0:
160,128,35776,1,8,0:0:0:0:
160,128,35861,1,0,0:0:0:0:
224,64,35946,1,8,0:0:0:0:
224,128,36115,1,0,0:0:0:0:
384,256,36200,1,0,0:0:0:0:
224,128,36285,1,8,0:0:0:0:
224,128,36454,1,0,0:0:0:0:
224,160,36539,1,8,0:0:0:0:
224,128,36624,1,8,0:0:0:0:
224,128,36793,1,0,0:0:0:0:
96,160,36878,1,0,0:0:0:0:
224,128,36963,1,8,0:0:0:0:
224,128,37132,1,0,0:0:0:0:
224,128,37217,1,8,0:0:0:0:
224,128,37302,1,8,0:0:0:0:
256,128,37471,1,8,0:0:0:0:
256,128,37556,1,0,0:0:0:0:
256,128,37641,1,8,0:0:0:0:
256,128,37725,1,8,0:0:0:0:
256,128,37810,1,0,0:0:0:0:
256,128,37895,1,0,0:0:0:0:
256,128,37980,1,8,0:0:0:0:
352,192,38149,1,0,0:0:0:0:
384,192,38234,1,0,0:0:0:0:
384,192,38319,1,8,0:0:0:0:
384,192,38403,1,0,0:0:0:0:
384,192,38488,1,8,0:0:0:0:
384,192,38573,1,0,0:0:0:0:
384,192,38658,1,8,0:0:0:0:
256,128,38827,1,0,0:0:0:0:
384,224,38912,1,8,0:0:0:0:
256,128,38997,1,8,0:0:0:0:
256,128,39166,1,8,0:0:0:0:
256,128,39251,1,0,0:0:0:0:
256,128,39336,1,8,0:0:0:0:
256,128,39505,1,0,0:0:0:0:
256,96,39590,1,8,0:0:0:0:
256,128,39675,1,8,0:0:0:0:
256,128,39844,1,8,0:0:0:0:
256,128,39929,1,0,0:0:0:0:
256,128,40014,1,8,0:0:0:0:
256,128,40183,1,0,0:0:0:0:
288,192,40268,1,0,0:0:0:0:
256,128,40353,1,8,0:0:0:0:
256,128,40437,1,8,0:0:0:0:
256,128,40522,1,0,0:0:0:0:
256,128,40607,1,0,0:0:0:0:
256,128,40692,1,8,0:0:0:0:
256,128,40861,1,0,0:0:0:0:
256,128,40946,1,8,0:0:0:0:
256,128,41030,1,0,0:0:0:0:
224,160,41115,1,0,0:0:0:0:
224,160,41200,1,8,0:0:0:0:
224,160,41285,1,8,0:0:0:0:
224,160,41369,1,0,0:0:0:0:
256,192,41539,1,0,0:0:0:0:
320,192,41624,1,0,0:0:0:0:
320,192,41708,1,8,0:0:0:0:
320,192,41878,1,0,0:0:0:0:
288,64,41963,1,8,0:0:0:0:
320,64,42047,1,0,0:0:0:0:
320,192,42217,1,0,0:0:0:0:
320,192,42302,1,0,0:0:0:0:
320,192,42386,1,8,0:0:0:0:
320,192,42556,1,0,0:0:0:0:
320,192,42641,1,8,0:0:0:0:
320,192,42725,1,0,0:0:0:0:
224,160,42895,1,0,0:0:0:0:
256,160,42980,1,0,0:0:0:0:
256,160,43064,1,8,0:0:0:0:
256,160,43149,1,0,0:0:0:0:
256,160,43234,1,8,0:0:0:0:
256,160,43319,1,8,0:0:0:0:
256,160,43403,1,0,0:0:0:0:
288,160,43573,1,0,0:0:0:0:
288,160,43658,1,8,0:0:0:0:
288,160,43742,1,8,0:0:0:0:
288,160,43827,1,8,0:0:0:0:
288,160,43912,1,0,0:0:0:0:
288,160,43997,1,0,0:0:0:0:
288,160,44081,1,8,0:0:0:0:
256,160,44251,1,8,0:0:0:0:
256,160,44336,1,8,0:0:0:0:
160,160,44420,1,0,0:0:0:0:
256,160,44590,1,0,0:0:0:0:
256,160,44675,1,8,0:0:0:0:
256,160,44759,1,0,0:0:0:0:
256,160,44928,1,8,0:0:0:0:
256,160,45013,1,8,0:0:0:0:
256,160,45098,1,0,0:0:0:0:
192,96,45268,1,0,0:0:0:0:
256,160,45353,1,8,0:0:0:0:
256,64,45437,1,0,0:0:0:0:
256,160,45607,1,8,0:0:0:0:
256,160,45692,1,0,0:0:0:0:
256,160,45776,1,8,0:0:0:0:
256,160,45861,1,8,0:0:0:0:
256,160,45946,1,0,0:0:0:0:
256,160,46030,1,0,0:0:0:0:
256,160,46115,1,8,0:0:0:0:
192,160,46200,1,8,0:0:0:0:
224,128,46285,1,0,0:0:0:0:
224,128,46369,1,0,0:0:0:0:
224,128,46454,1,8,0:0:0:0:
224,128,46539,1,0,0:0:0:0:
224,128,46624,1,8,0:0:0:0:
224,128,46708,1,8,0:0:0:0:
224,128,46793,1,0,0:0:0:0:
320,160,46963,1,0,0:0:0:0:
192,96,47047,1,0,0:0:0:0:
320,160,47132,1,8,0:0:0:0:
320,160,47217,1,0,0:0:0:0:
320,160,47386,1,0,0:0:0:0:
320,160,47471,1,8,0:0:0:0:
320,160,47641,1,0,0:0:0:0:
320,160,47725,1,0,0:0:0:0:
320,160,47810,1,8,0:0:0:0:
320,160,47980,1,8,0:0:0:0:
320,160,48064,1,0,0:0:0:0:
320,160,48149,1,8,0:0:0:0:
320,160,48319,1,0,0:0:0:0:
320,160,48403,1,0,0:0:0:0:
320,160,48488,1,8,0:0:0:0:
320,160,48573,1,0,0:0:0:0:
320,160,48658,1,8,0:0:0:0:
288,128,48742,1,8,0:0:0:0:
288,128,48827,1,0,0:0:0:0:
320,128,48997,1,8,0:0:0:0:
320,128,49082,1,8,0:0:0:0:
320,160,49167,1,0,0:0:0:0:
320,128,49251,1,8,0:0:0:0:
320,128,49336,1,0,0:0:0:0:
320,128,49420,1,0,0:0:0:0:
320,128,49505,1,8,0:0:0:0:
320,160,49675,1,0,0:0:0:0:
320,160,49759,1,0,0:0:0:0:
320,160,49844,1,8,0:0:0:0:
320,160,49929,1,0,0:0:0:0:
320,160,50098,1,0,0:0:0:0:
320,160,50183,1,8,0:0:0:0:
320,160,50353,1,0,0:0:0:0:
320,160,50437,1,0,0:0:0:0:
320,160,50522,1,8,0:0:0:0:
320,160,50692,1,8,0:0:0:0:
320,160,50776,1,8,0:0:0:0:
320,160,50861,1,0,0:0:0:0:
320,160,51031,1,0,0:0:0:0:
320,160,51115,1,0,0:0:0:0:
320,160,51200,1,8,0:0:0:0:
320,160,51285,1,0,0:0:0:0:
320,160,51370,1,8,0:0:0:0:
288,128,51454,1,8,0:0:0:0:
288,128,51539,1,0,0:0:0:0:
320,128,51709,1,8,0:0:0:0:
320,128,51793,1,8,0:0:0:0:
320,160,51878,1,0,0:0:0:0:
320,128,51963,1,0,0:0:0:0:
320,128,52048,1,8,0:0:0:0:
320,128,52132,1,8,0:0:0:0:
320,128,52217,1,0,0:0:0:0:
416,256,52302,1,0,0:0:0:0:
224,64,52386,1,8,0:0:0:0:
224,129,52443,1,8,0:0:0:0:
254,167,52499,1,8,0:0:0:0:
384,192,52556,1,0,0:0:0:0:
384,192,52641,1,0,0:0:0:0:
160,128,52725,1,0,0:0:0:0:
384,192,52810,1,0,0:0:0:0:
256,96,52895,1,8,0:0:0:0:
192,160,53234,1,12,0:0:0:0:
256,96,53573,1,8,0:0:0:0:
224,160,53742,1,0,0:0:0:0:
224,160,53912,1,8,0:0:0:0:
224,160,54081,1,8,0:0:0:0:
256,192,54251,12,0,54590,0:0:0:0:
256,128,54929,5,4,0:0:0:0:
160,160,55183,1,0,0:0:0:0:
160,160,55268,1,8,0:0:0:0:
160,160,55437,1,8,0:0:0:0:
160,160,55607,1,4,0:0:0:0:
160,160,55776,1,0,0:0:0:0:
160,160,55946,1,8,0:0:0:0:
160,160,56115,1,8,0:0:0:0:
160,160,56285,1,4,0:0:0:0:
224,128,56624,1,12,0:0:0:0:
224,128,56963,1,12,0:0:0:0:
192,128,57302,1,0,0:0:0:0:
224,160,57415,1,8,0:0:0:0:
288,160,57641,5,4,0:0:0:0:
224,128,57810,1,0,0:0:0:0:
224,128,57895,1,0,0:0:0:0:
224,128,57980,1,8,0:0:0:0:
224,128,58149,1,4,0:0:0:0:
224,128,58319,1,8,0:0:0:0:
224,128,58404,1,8,0:0:0:0:
224,128,58488,1,0,0:0:0:0:
224,128,58658,1,12,0:0:0:0:
224,128,58827,1,8,0:0:0:0:
224,128,58912,1,0,0:0:0:0:
224,128,58997,1,8,0:0:0:0:
224,128,59166,1,4,0:0:0:0:
224,128,59336,1,0,0:0:0:0:
224,128,59420,1,8,0:0:0:0:
224,128,59505,1,0,0:0:0:0:
224,128,59675,1,0,0:0:0:0:
288,160,59759,1,0,0:0:0:0:
256,128,59844,1,8,0:0:0:0:
160,160,59929,1,8,0:0:0:0:
352,160,60014,1,4,0:0:0:0:
320,128,60183,1,8,0:0:0:0:
352,192,60268,1,8,0:0:0:0:
352,192,60353,1,0,0:0:0:0:
288,96,60522,1,12,0:0:0:0:
288,96,60692,1,0,0:0:0:0:
288,96,60776,1,8,0:0:0:0:
288,96,60861,1,0,0:0:0:0:
288,96,61030,1,12,0:0:0:0:
288,96,61200,1,0,0:0:0:0:
288,96,61285,1,0,0:0:0:0:
288,96,61369,1,8,0:0:0:0:
288,96,61539,1,4,0:0:0:0:
288,96,61708,1,8,0:0:0:0:
288,160,61793,1,0,0:0:0:0:
288,96,61878,1,8,0:0:0:0:
288,96,62047,1,8,0:0:0:0:
320,160,62132,1,0,0:0:0:0:
160,128,62217,1,8,0:0:0:0:
192,160,62302,1,8,0:0:0:0:
320,160,62386,1,4,0:0:0:0:
128,160,62556,1,0,0:0:0:0:
128,160,62640,1,0,0:0:0:0:
128,160,62725,1,8,0:0:0:0:
128,160,62895,1,4,0:0:0:0:
128,160,63064,1,8,0:0:0:0:
128,160,63149,1,8,0:0:0:0:
128,160,63234,1,0,0:0:0:0:
128,160,63403,1,12,0:0:0:0:
128,160,63573,1,8,0:0:0:0:
128,160,63658,1,0,0:0:0:0:
128,160,63742,1,8,0:0:0:0:
128,160,63912,1,4,0:0:0:0:
128,160,64081,1,0,0:0:0:0:
128,160,64166,1,8,0:0:0:0:
128,160,64251,1,0,0:0:0:0:
128,160,64420,1,0,0:0:0:0:
352,160,64505,1,0,0:0:0:0:
352,160,64590,1,8,0:0:0:0:
192,192,64674,1,8,0:0:0:0:
160,160,64759,1,4,0:0:0:0:
192,160,64929,1,8,0:0:0:0:
192,160,65013,1,8,0:0:0:0:
192,160,65098,1,0,0:0:0:0:
192,160,65268,1,12,0:0:0:0:
192,160,65437,1,0,0:0:0:0:
192,160,65522,1,8,0:0:0:0:
192,160,65607,1,0,0:0:0:0:
192,160,65776,1,12,0:0:0:0:
192,160,65946,1,0,0:0:0:0:
192,160,66031,1,0,0:0:0:0:
192,160,66115,1,8,0:0:0:0:
192,160,66285,1,4,0:0:0:0:
192,160,66454,1,8,0:0:0:0:
192,160,66539,1,0,0:0:0:0:
192,160,66624,1,0,0:0:0:0:
160,160,66680,1,0,0:0:0:0:
192,128,66737,1,0,0:0:0:0:
192,128,66793,1,8,0:0:0:0:
320,192,66878,1,8,0:0:0:0:
320,192,66963,1,0,0:0:0:0:
128,128,67047,1,8,0:0:0:0:
224,192,67132,1,4,0:0:0:0:
224,128,67302,1,0,0:0:0:0:
224,128,67386,1,0,0:0:0:0:
224,128,67471,1,8,0:0:0:0:
224,128,67641,1,8,0:0:0:0:
224,160,67810,1,0,0:0:0:0:
384,192,67895,1,0,0:0:0:0:
224,160,67980,1,8,0:0:0:0:
224,160,68064,1,8,0:0:0:0:
224,160,68149,1,0,0:0:0:0:
224,160,68319,1,8,0:0:0:0:
256,64,68403,1,0,0:0:0:0:
224,160,68488,1,8,0:0:0:0:
256,160,68658,1,0,0:0:0:0:
256,96,68742,1,0,0:0:0:0:
256,96,68827,1,8,0:0:0:0:
256,96,68912,1,0,0:0:0:0:
256,96,68997,1,8,0:0:0:0:
256,96,69081,1,8,0:0:0:0:
256,96,69166,1,0,0:0:0:0:
256,96,69251,1,8,0:0:0:0:
256,96,69336,1,8,0:0:0:0:
96,160,69420,1,0,0:0:0:0:
192,160,69505,1,12,0:0:0:0:
288,160,69675,1,0,0:0:0:0:
288,160,69759,1,0,0:0:0:0:
288,160,69844,1,8,0:0:0:0:
288,160,70014,1,8,0:0:0:0:
384,224,70098,1,8,0:0:0:0:
288,160,70183,1,0,0:0:0:0:
288,128,70268,1,0,0:0:0:0:
320,96,70353,1,8,0:0:0:0:
320,96,70522,1,8,0:0:0:0:
320,96,70692,1,8,0:0:0:0:
320,96,70776,1,0,0:0:0:0:
320,96,70861,1,8,0:0:0:0:
288,128,71030,1,0,0:0:0:0:
288,128,71115,1,8,0:0:0:0:
288,128,71200,1,0,0:0:0:0:
96,128,71285,1,0,0:0:0:0:
288,128,71369,1,8,0:0:0:0:
160,128,71454,1,0,0:0:0:0:
288,128,71539,1,8,0:0:0:0:
256,160,71624,1,8,0:0:0:0:
256,160,71708,1,0,0:0:0:0:
288,160,71793,1,8,0:0:0:0:
288,160,71878,1,4,0:0:0:0:
320,160,72047,1,0,0:0:0:0:
352,160,72132,1,0,0:0:0:0:
352,160,72217,1,8,0:0:0:0:
352,160,72386,1,8,0:0:0:0:
352,160,72556,1,0,0:0:0:0:
256,96,72641,1,0,0:0:0:0:
320,160,72725,1,8,0:0:0:0:
320,128,72810,1,8,0:0:0:0:
320,128,72895,1,0,0:0:0:0:
320,128,73064,1,8,0:0:0:0:
320,128,73149,1,0,0:0:0:0:
320,128,73234,1,8,0:0:0:0:
320,128,73403,1,0,0:0:0:0:
256,160,73488,1,0,0:0:0:0:
160,192,73573,1,8,0:0:0:0:
320,128,73658,1,8,0:0:0:0:
288,160,73742,1,0,0:0:0:0:
320,128,73827,1,0,0:0:0:0:
256,128,73912,1,8,0:0:0:0:
256,128,73968,1,8,0:0:0:0:
256,128,74025,1,8,0:0:0:0:
256,128,74081,1,0,0:0:0:0:
288,128,74166,1,0,0:0:0:0:
256,128,74251,1,12,0:0:0:0:
288,160,74420,1,0,0:0:0:0:
288,160,74504,1,0,0:0:0:0:
288,160,74589,1,8,0:0:0:0:
288,160,74759,1,8,0:0:0:0:
352,192,74844,1,0,0:0:0:0:
288,160,74928,1,0,0:0:0:0:
320,96,75098,1,8,0:0:0:0:
320,96,75267,1,8,0:0:0:0:
320,96,75352,1,8,0:0:0:0:
384,224,75437,1,0,0:0:0:0:
320,96,75521,1,0,0:0:0:0:
320,96,75606,1,8,0:0:0:0:
288,128,75776,1,0,0:0:0:0:
288,128,75861,1,8,0:0:0:0:
288,128,75946,1,0,0:0:0:0:
320,160,76030,1,0,0:0:0:0:
288,128,76115,1,8,0:0:0:0:
320,160,76200,1,0,0:0:0:0:
288,128,76285,1,8,0:0:0:0:
256,160,76369,1,8,0:0:0:0:
256,160,76454,1,0,0:0:0:0:
128,192,76539,1,8,0:0:0:0:
160,192,76624,1,0,0:0:0:0:
320,128,76793,1,0,0:0:0:0:
320,128,76963,1,0,0:0:0:0:
320,128,77047,1,0,0:0:0:0:
320,128,77217,1,0,0:0:0:0:
320,128,77302,1,0,0:0:0:0:
320,128,77471,1,0,0:0:0:0:
320,128,77641,1,0,0:0:0:0:
320,160,77810,1,0,0:0:0:0:
288,128,77980,1,0,0:0:0:0:
288,128,78064,1,0,0:0:0:0:
288,128,78234,1,0,0:0:0:0:
288,128,78319,1,0,0:0:0:0:
320,96,78488,1,0,0:0:0:0:
320,96,78658,1,0,0:0:0:0:
320,96,78827,1,12,0:0:0:0:
288,192,79336,1,4,0:0:0:0:
96,160,79675,1,8,0:0:0:0:
224,192,79844,1,0,0:0:0:0:
320,192,80014,1,0,0:0:0:0:
192,128,80353,1,8,0:0:0:0:
288,128,80522,1,0,0:0:0:0:
288,128,80692,1,0,0:0:0:0:
320,128,81030,1,8,0:0:0:0:
320,128,81200,1,0,0:0:0:0:
320,128,81369,1,0,0:0:0:0:
320,128,81539,1,8,0:0:0:0:
320,128,81708,1,8,0:0:0:0:
320,128,81878,1,0,0:0:0:0:
320,128,82047,1,8,0:0:0:0:
320,160,82386,1,0,0:0:0:0:
320,160,82556,1,8,0:0:0:0:
352,160,82725,1,8,0:0:0:0:
352,160,83064,1,0,0:0:0:0:
352,160,83234,1,8,0:0:0:0:
352,160,83403,1,8,0:0:0:0:
320,128,83742,1,0,0:0:0:0:
320,128,83912,1,0,0:0:0:0:
320,128,84081,1,8,0:0:0:0:
320,128,84251,1,0,0:0:0:0:
320,128,84420,1,8,0:0:0:0:
320,128,84590,1,8,0:0:0:0:
320,128,84759,1,4,0:0:0:0:
256,160,85098,1,0,0:0:0:0:
256,160,85268,1,8,0:0:0:0:
256,160,85437,1,8,0:0:0:0:
256,160,85776,1,0,0:0:0:0:
256,160,85946,1,8,0:0:0:0:
256,160,86115,1,0,0:0:0:0:
288,128,86285,1,8,0:0:0:0:
288,128,86455,1,8,0:0:0:0:
288,128,86624,1,0,0:0:0:0:
288,128,86793,1,0,0:0:0:0:
256,96,87132,1,4,0:0:0:0:
256,96,87471,1,4,0:0:0:0:
224,192,88488,1,4,0:0:0:0:
224,192,88827,1,4,0:0:0:0:
256,192,89505,12,0,90013,0:0:0:0:
352,128,90183,5,8,0:0:0:0:
211,184,90522,5,4,0:0:0:0:
238,157,90861,1,4,0:0:0:0:
238,157,91200,1,12,0:0:0:0:
183,181,91539,1,12,0:0:0:0:
304,147,92047,1,4,0:0:0:0:
304,147,92217,1,4,0:0:0:0:
256,256,92895,1,4,0:0:0:0:
263,141,93064,1,0,0:0:0:0:
258,141,93149,1,0,0:0:0:0:
263,141,93234,1,8,0:0:0:0:
212,163,93403,1,8,0:0:0:0:
263,141,93488,1,8,0:0:0:0:
263,141,93573,1,0,0:0:0:0:
263,141,93742,1,0,0:0:0:0:
263,141,93827,1,0,0:0:0:0:
263,141,93912,1,8,0:0:0:0:
263,141,94081,1,8,0:0:0:0:
302,144,94166,1,8,0:0:0:0:
263,141,94251,1,0,0:0:0:0:
284,115,94420,1,8,0:0:0:0:
284,115,94505,1,0,0:0:0:0:
284,115,94590,1,8,0:0:0:0:
284,115,94675,1,8,0:0:0:0:
284,115,94759,1,0,0:0:0:0:
284,115,94844,1,0,0:0:0:0:
284,115,94929,1,8,0:0:0:0:
253,88,95098,1,0,0:0:0:0:
253,88,95183,1,0,0:0:0:0:
253,88,95268,1,8,0:0:0:0:
253,88,95353,1,8,0:0:0:0:
253,88,95437,1,8,0:0:0:0:
253,88,95522,1,8,0:0:0:0:
253,88,95607,1,0,0:0:0:0:
188,158,95776,1,8,0:0:0:0:
236,161,95861,1,8,0:0:0:0:
236,161,95946,1,0,0:0:0:0:
236,161,96115,1,0,0:0:0:0:
236,161,96200,1,0,0:0:0:0:
236,161,96285,1,8,0:0:0:0:
236,161,96454,1,8,0:0:0:0:
236,161,96539,1,8,0:0:0:0:
236,161,96624,1,0,0:0:0:0:
236,161,96793,1,0,0:0:0:0:
236,161,96878,1,0,0:0:0:0:
236,161,96963,1,8,0:0:0:0:
137,132,97132,1,0,0:0:0:0:
137,132,97217,1,0,0:0:0:0:
137,132,97302,1,8,0:0:0:0:
137,132,97386,1,8,0:0:0:0:
137,132,97471,1,0,0:0:0:0:
137,132,97556,1,0,0:0:0:0:
137,132,97641,1,8,0:0:0:0:
229,97,97810,1,0,0:0:0:0:
229,97,97895,1,0,0:0:0:0:
229,97,97980,1,8,0:0:0:0:
229,97,98064,1,0,0:0:0:0:
229,97,98149,1,8,0:0:0:0:
229,97,98234,1,8,0:0:0:0:
229,97,98319,1,0,0:0:0:0:
256,118,98488,1,0,0:0:0:0:
256,118,98573,1,8,0:0:0:0:
256,118,98658,1,8,0:0:0:0:
256,118,98827,1,8,0:0:0:0:
256,118,98912,1,0,0:0:0:0:
256,118,98997,1,0,0:0:0:0:
256,118,99166,1,0,0:0:0:0:
256,118,99251,1,8,0:0:0:0:
256,118,99336,1,8,0:0:0:0:
256,118,99505,1,8,0:0:0:0:
256,118,99590,1,0,0:0:0:0:
256,118,99675,1,0,0:0:0:0:
201,176,99844,1,8,0:0:0:0:
252,184,99929,1,8,0:0:0:0:
252,184,100014,1,8,0:0:0:0:
252,184,100098,1,0,0:0:0:0:
252,184,100183,1,0,0:0:0:0:
252,184,100268,1,0,0:0:0:0:
252,184,100353,1,8,0:0:0:0:
351,172,100522,1,0,0:0:0:0:
358,173,100607,1,0,0:0:0:0:
358,173,100692,1,8,0:0:0:0:
358,173,100776,1,8,0:0:0:0:
358,173,100861,1,8,0:0:0:0:
358,173,100946,1,0,0:0:0:0:
361,168,101030,1,8,0:0:0:0:
261,129,101369,1,0,0:0:0:0:
210,155,101539,1,0,0:0:0:0:
261,129,101708,1,8,0:0:0:0:
261,129,102047,1,8,0:0:0:0:
261,129,102386,1,0,0:0:0:0:
188,181,102471,1,0,0:0:0:0:
224,185,102556,1,0,0:0:0:0:
224,185,102641,1,0,0:0:0:0:
224,185,102725,1,0,0:0:0:0:
224,185,102894,1,0,0:0:0:0:
224,185,103064,1,0,0:0:0:0:
274,189,103403,1,8,0:0:0:0:
247,170,103460,1,8,0:0:0:0:
247,170,103516,1,8,0:0:0:0:
247,170,103573,1,0,0:0:0:0:
293,152,103742,1,4,0:0:0:0:
216,150,103912,1,8,0:0:0:0:
216,150,103997,1,0,0:0:0:0:
216,150,104081,1,8,0:0:0:0:
216,150,104251,1,0,0:0:0:0:
216,150,104336,1,8,0:0:0:0:
216,150,104420,1,0,0:0:0:0:
216,150,104590,1,8,0:0:0:0:
216,150,104675,1,0,0:0:0:0:
216,150,104759,1,8,0:0:0:0:
216,150,104929,1,0,0:0:0:0:
216,150,105014,1,8,0:0:0:0:
216,150,105098,1,0,0:0:0:0:
251,128,105268,1,0,0:0:0:0:
251,128,105353,1,0,0:0:0:0:
251,128,105437,1,8,0:0:0:0:
251,128,105522,1,0,0:0:0:0:
251,128,105607,1,8,0:0:0:0:
311,123,105692,1,8,0:0:0:0:
251,128,105776,1,0,0:0:0:0:
291,161,105946,1,8,0:0:0:0:
0,128,106002,1,8,0:0:0:0:
128,160,106059,1,8,0:0:0:0:
291,161,106115,1,0,0:0:0:0:
296,177,106200,1,0,0:0:0:0:
160,160,106285,1,8,0:0:0:0:
224,160,106341,1,0,0:0:0:0:
299,177,106398,1,0,0:0:0:0:
243,78,106454,1,8,0:0:0:0:
195,177,106624,1,0,0:0:0:0:
195,177,106708,1,8,0:0:0:0:
195,177,106793,1,0,0:0:0:0:
195,177,106963,1,8,0:0:0:0:
195,177,107047,1,0,0:0:0:0:
195,177,107132,1,8,0:0:0:0:
195,177,107302,1,0,0:0:0:0:
195,177,107386,1,8,0:0:0:0:
195,177,107471,1,0,0:0:0:0:
195,177,107641,1,8,0:0:0:0:
195,177,107725,1,0,0:0:0:0:
195,177,107810,1,8,0:0:0:0:
251,188,107980,1,0,0:0:0:0:
246,187,108064,1,8,0:0:0:0:
251,188,108149,1,8,0:0:0:0:
257,169,108234,1,8,0:0:0:0:
257,169,108319,1,0,0:0:0:0:
257,169,108403,1,0,0:0:0:0:
257,169,108488,1,8,0:0:0:0:
316,158,108658,1,8,0:0:0:0:
325,158,108714,1,0,0:0:0:0:
195,177,108771,1,0,0:0:0:0:
325,158,108827,1,8,0:0:0:0:
96,160,108912,1,8,0:0:0:0:
100,181,108997,1,0,0:0:0:0:
160,160,109053,1,0,0:0:0:0:
160,192,109109,1,0,0:0:0:0:
266,103,109166,1,8,0:0:0:0:
272,85,109505,1,0,0:0:0:0:
186,130,109674,1,8,0:0:0:0:
272,85,109844,1,0,0:0:0:0:
272,85,110183,1,8,0:0:0:0:
272,85,110522,1,8,0:0:0:0:
300,166,110607,1,0,0:0:0:0:
310,167,110692,1,8,0:0:0:0:
310,167,110776,1,8,0:0:0:0:
310,167,110861,1,0,0:0:0:0:
284,169,111200,1,8,0:0:0:0:
185,139,111369,1,8,0:0:0:0:
384,128,111539,1,0,0:0:0:0:
128,133,111878,1,0,0:0:0:0:
234,159,112047,1,0,0:0:0:0:
284,169,112217,1,8,0:0:0:0:
284,169,112302,1,0,0:0:0:0:
284,169,112471,1,0,0:0:0:0:
284,169,112556,1,8,0:0:0:0:
196,192,112725,1,0,0:0:0:0:
256,202,112810,1,0,0:0:0:0:
256,202,112895,1,8,0:0:0:0:
256,202,112980,1,8,0:0:0:0:
256,202,113064,1,0,0:0:0:0:
251,128,113234,1,8,0:0:0:0:
251,128,113319,1,8,0:0:0:0:
251,128,113403,1,8,0:0:0:0:
251,128,113488,1,0,0:0:0:0:
251,128,113573,1,8,0:0:0:0:
251,128,113742,1,0,0:0:0:0:
256,192,113912,12,0,114251,0:0:0:0:
231,166,114590,5,4,0:0:0:0:
322,132,114929,1,8,0:0:0:0:
322,132,115098,1,0,0:0:0:0:
322,132,115268,1,4,0:0:0:0:
281,135,115607,1,8,0:0:0:0:
322,132,115776,1,0,0:0:0:0:
322,132,115946,1,4,0:0:0:0:
172,148,116285,1,8,0:0:0:0:
182,146,116454,1,8,0:0:0:0:
182,146,116624,1,4,0:0:0:0:
241,146,116878,1,0,0:0:0:0:
241,146,116963,1,8,0:0:0:0:
241,146,117047,1,8,0:0:0:0:
241,146,117132,1,0,0:0:0:0:
128,128,117188,1,0,0:0:0:0:
241,146,117245,1,0,0:0:0:0:
241,146,117302,1,8,0:0:0:0:
350,201,117471,1,8,0:0:0:0:
353,187,117641,1,0,0:0:0:0:
239,129,117980,1,8,0:0:0:0:
239,129,118149,1,0,0:0:0:0:
239,129,118234,1,8,0:0:0:0:
239,129,118403,1,0,0:0:0:0:
239,129,118488,1,8,0:0:0:0:
373,172,118658,1,0,0:0:0:0:
373,172,118742,1,0,0:0:0:0:
373,172,118827,1,8,0:0:0:0:
373,172,118912,1,0,0:0:0:0:
373,172,118997,1,8,0:0:0:0:
373,172,119166,1,0,0:0:0:0:
359,190,119336,1,8,0:0:0:0:
365,191,119420,1,8,0:0:0:0:
261,182,119590,1,0,0:0:0:0:
261,182,119675,1,8,0:0:0:0:
241,179,119844,1,0,0:0:0:0:
303,178,119901,1,0,0:0:0:0:
303,178,119957,1,0,0:0:0:0:
301,171,120014,1,8,0:0:0:0:
296,150,120183,1,8,0:0:0:0:
296,149,120353,1,0,0:0:0:0:
176,115,120692,1,8,0:0:0:0:
176,115,120776,1,0,0:0:0:0:
176,115,120946,1,8,0:0:0:0:
176,115,121030,1,0,0:0:0:0:
268,62,121200,1,8,0:0:0:0:
88,185,121285,1,8,0:0:0:0:
275,153,121454,1,8,0:0:0:0:
295,154,121539,1,8,0:0:0:0:
251,152,121708,1,0,0:0:0:0:
268,153,121793,1,0,0:0:0:0:
268,153,121963,1,0,0:0:0:0:
268,153,122047,1,0,0:0:0:0:
251,81,122217,1,0,0:0:0:0:
251,81,122302,1,8,0:0:0:0:
251,81,122471,1,0,0:0:0:0:
251,81,122556,1,8,0:0:0:0:
194,190,122641,1,0,0:0:0:0:
220,195,122725,1,8,0:0:0:0:
220,195,122810,1,8,0:0:0:0:
220,195,122895,1,0,0:0:0:0:
220,195,122980,1,8,0:0:0:0:
220,195,123064,1,8,0:0:0:0:
220,195,123149,1,0,0:0:0:0:
220,195,123234,1,0,0:0:0:0:
220,195,123319,1,8,0:0:0:0:
220,195,123403,1,8,0:0:0:0:
220,195,123488,1,0,0:0:0:0:
220,195,123573,1,8,0:0:0:0:
220,195,123658,1,0,0:0:0:0:
220,195,123742,1,8,0:0:0:0:
220,195,123827,1,8,0:0:0:0:
220,195,123912,1,0,0:0:0:0:
220,195,123997,1,0,0:0:0:0:
220,195,124081,1,8,0:0:0:0:
220,195,124138,1,8,0:0:0:0:
220,195,124194,1,8,0:0:0:0:
78,160,124251,1,0,0:0:0:0:
220,195,124336,1,0,0:0:0:0:
220,195,124420,1,8,0:0:0:0:
220,195,124505,1,0,0:0:0:0:
220,195,124590,1,8,0:0:0:0:
220,195,124675,1,8,0:0:0:0:
220,195,124759,1,0,0:0:0:0:
220,195,124844,1,8,0:0:0:0:
220,195,124929,1,0,0:0:0:0:
220,195,125014,1,8,0:0:0:0:
220,195,125098,1,8,0:0:0:0:
220,195,125183,1,0,0:0:0:0:
220,195,125268,1,0,0:0:0:0:
220,195,125353,1,8,0:0:0:0:
220,195,125437,1,0,0:0:0:0:
235,115,126115,1,4,0:0:0:0:
235,115,126793,1,12,0:0:0:0:
231,159,127132,1,12,0:0:0:0:
239,159,127471,1,4,0:0:0:0:
239,159,127810,1,12,0:0:0:0:
368,189,128149,1,4,0:0:0:0:
217,110,128488,1,0,0:0:0:0:
217,110,128573,1,0,0:0:0:0:
217,110,128657,1,8,0:0:0:0:
217,110,128742,1,0,0:0:0:0:
217,110,128827,1,8,0:0:0:0:
217,110,128912,1,8,0:0:0:0:
217,110,128996,1,0,0:0:0:0:
217,110,129081,1,0,0:0:0:0:
217,110,129166,1,8,0:0:0:0:
217,110,129251,1,0,0:0:0:0:
217,110,129335,1,8,0:0:0:0:
217,110,129420,1,8,0:0:0:0:
217,110,129505,1,0,0:0:0:0:
217,110,129590,1,8,0:0:0:0:
217,110,129674,1,0,0:0:0:0:
227,139,129759,1,0,0:0:0:0:
227,139,129844,1,8,0:0:0:0:
227,139,129929,1,8,0:0:0:0:
227,139,130013,1,0,0:0:0:0:
317,136,130098,1,8,0:0:0:0:
317,136,130183,1,8,0:0:0:0:
222,191,130353,1,4,0:0:0:0:
228,190,130522,1,4,0:0:0:0:
228,190,130692,1,12,0:0:0:0:
228,190,130861,1,12,0:0:0:0:
279,146,131030,1,0,0:0:0:0:
279,146,131115,1,0,0:0:0:0:
279,146,131200,1,8,0:0:0:0:
279,146,131369,1,0,0:0:0:0:
384,192,131454,1,8,0:0:0:0:
279,146,131539,1,8,0:0:0:0:
335,166,131708,1,0,0:0:0:0:
335,166,131793,1,0,0:0:0:0:
335,166,131878,1,8,0:0:0:0:
416,256,132047,1,8,0:0:0:0:
335,166,132132,1,0,0:0:0:0:
335,166,132217,1,8,0:0:0:0:
306,164,132386,1,0,0:0:0:0:
306,164,132471,1,8,0:0:0:0:
292,82,132556,1,0,0:0:0:0:
306,164,132641,1,0,0:0:0:0:
306,164,132725,1,8,0:0:0:0:
306,164,132810,1,0,0:0:0:0:
306,164,132895,1,8,0:0:0:0:
291,155,133064,1,0,0:0:0:0:
256,160,133149,1,8,0:0:0:0:
300,153,133234,1,8,0:0:0:0:
300,153,133319,1,8,0:0:0:0:
300,153,133403,1,0,0:0:0:0:
300,153,133488,1,0,0:0:0:0:
300,153,133573,1,8,0:0:0:0:
372,171,133742,1,0,0:0:0:0:
192,160,133827,1,8,0:0:0:0:
326,160,133912,1,8,0:0:0:0:
321,149,134081,1,8,0:0:0:0:
320,160,134166,1,0,0:0:0:0:
321,149,134251,1,8,0:0:0:0:
288,160,134420,1,0,0:0:0:0:
288,160,134505,1,8,0:0:0:0:
256,192,134590,1,8,0:0:0:0:
290,193,134759,1,8,0:0:0:0:
288,96,134844,1,0,0:0:0:0:
224,128,134929,1,8,0:0:0:0:
290,136,135098,1,0,0:0:0:0:
290,136,135183,1,8,0:0:0:0:
290,136,135268,1,0,0:0:0:0:
290,136,135353,1,0,0:0:0:0:
290,136,135437,1,8,0:0:0:0:
290,136,135522,1,8,0:0:0:0:
290,136,135607,1,0,0:0:0:0:
351,174,135776,1,0,0:0:0:0:
351,174,135861,1,8,0:0:0:0:
351,174,135946,1,8,0:0:0:0:
275,92,136030,1,0,0:0:0:0:
275,92,136115,1,0,0:0:0:0:
213,41,136200,1,8,0:0:0:0:
275,92,136285,1,8,0:0:0:0:
220,197,136454,1,8,0:0:0:0:
220,197,136539,1,8,0:0:0:0:
220,197,136624,1,0,0:0:0:0:
220,197,136793,1,0,0:0:0:0:
220,197,136878,1,0,0:0:0:0:
220,197,136963,1,8,0:0:0:0:
220,197,137132,1,8,0:0:0:0:
128,160,137217,1,0,0:0:0:0:
256,160,137302,1,8,0:0:0:0:
220,197,137471,1,0,0:0:0:0:
220,197,137556,1,8,0:0:0:0:
220,197,137641,1,0,0:0:0:0:
160,160,137810,1,8,0:0:0:0:
160,160,137895,1,8,0:0:0:0:
160,160,137979,1,0,0:0:0:0:
160,160,138064,1,0,0:0:0:0:
160,160,138149,1,8,0:0:0:0:
160,160,138234,1,8,0:0:0:0:
256,192,138318,12,0,143742,0:0:0:0:
160,128,144081,5,8,0:0:0:0:
160,128,144166,1,8,0:0:0:0:
160,128,144251,1,0,0:0:0:0:
160,128,144336,1,8,0:0:0:0:
160,128,144420,1,0,0:0:0:0:
