osu file format v14

[General]
AudioFilename: audio.mp3
AudioLeadIn: 0
PreviewTime: 183923
Countdown: 0
SampleSet: Soft
StackLeniency: 0.7
Mode: 0
LetterboxInBreaks: 0
WidescreenStoryboard: 1

[Editor]
Bookmarks: 18018,30807,44395,61446,78498,81561,95549,109402,133913,142439,150965,159491,172812,182403,186665,211176,223964,233556,241549,254337,265527,267658,282578,286308,294833,310818,337994
DistanceSpacing: 1.3
BeatDivisor: 4
GridSize: 4
TimelineZoom: 1.06

[Metadata]
Title:Ringo Uri no Utakata Shoujo
TitleUnicode:林檎売りの泡沫少女
Artist:yukkedoluce
ArtistUnicode:yukkedoluce
Creator:Noffy
Version:Boss' Easy
Source:
Tags:agatsu bossandy yahuri the transient apple salesgirl Vocaloid Gumi Megpoid original Vocalofuture 黒猫と宇宙地図 Kuro Neko to Uchuuchizu A Black Cat and Space Map THE BEST OF GUMI from Megpoid
BeatmapID:1942217
BeatmapSetID:920395

[Difficulty]
HPDrainRate:2
CircleSize:3
OverallDifficulty:2
ApproachRate:3
SliderMultiplier:0.65
SliderTickRate:1

[Events]
//Background and Video events
0,0,"apple.jpg",0,0
Video,-929,"video.avi"
//Break Periods
2,44584,51469
2,74424,77047
2,133902,140988
2,267647,282034
//Storyboard Layer 0 (Background)
//Storyboard Layer 1 (Fail)
//Storyboard Layer 2 (Pass)
//Storyboard Layer 3 (Foreground)
Sprite,Foreground,Centre,"SB\noffy.png",500,420 F,0,360750,,0
//Storyboard Layer 4 (Overlay)
//Storyboard Sound Samples

[TimingPoints]
5219,266.429840142096,3,2,1,40,1,0
18007,-100,3,2,1,50,0,0
30796,-100,3,1,1,50,0,0
43851,-100,3,2,2,50,0,0
44384,266.429840142096,4,2,2,60,1,0
95538,266.429840142096,3,2,2,60,1,0
105129,266.429840142096,4,2,2,60,1,0
109391,-100,4,3,1,80,0,1
126443,266.429840142096,3,3,1,80,1,1
126443,-100,3,3,1,80,0,1
129640,266.429840142096,4,3,1,80,1,1
132837,-100,4,2,4,60,0,0
146691,-100,4,2,2,60,0,0
150954,-100,4,2,4,60,0,0
155217,-100,4,2,2,60,0,0
159480,266.429840142096,3,2,2,60,1,0
170670,266.429840142096,4,2,2,60,1,0
172801,266.429840142096,3,2,2,60,1,0
182392,266.429840142096,4,2,2,60,1,0
186654,-100,4,3,4,80,0,1
194381,-100,4,3,2,80,0,1
195180,-100,4,3,4,80,0,1
203706,266.429840142096,3,3,4,80,1,1
206903,266.429840142096,4,3,4,80,1,1
211165,266.429840142096,3,2,4,70,1,0
217559,-100,3,2,2,70,0,0
241538,-100,3,2,2,70,0,0
265516,266.429840142096,4,2,2,50,1,0
267647,-100,4,1,3,40,0,0
286297,266.429840142096,4,3,4,80,1,1
294023,-100,4,3,2,80,0,1
294822,-100,4,3,4,80,0,1
303348,266.429840142096,3,3,4,80,1,1
306545,266.429840142096,4,3,4,80,1,1
310808,266.429840142096,3,2,1,60,1,0
329990,-100,3,2,1,50,0,0
333188,-100,3,2,1,40,0,0
338000,266.429840142096,3,2,1,40,1,0
345992,270.002700027,3,2,1,40,1,0
346802,276.497695852535,3,2,1,40,1,0
347907,283.687943262411,3,2,1,40,1,0
348474,300,3,2,1,40,1,0
349374,352.941176470588,3,2,1,40,1,0
349726,375,3,2,1,40,1,0
350101,400,3,2,1,40,1,0
350501,444.444444444444,3,2,1,40,1,0
350945,521.739130434783,3,2,1,40,1,0
351466,789.473684210526,3,2,1,40,1,0
352255,560.747663551402,3,2,1,40,1,0
352815,842.105263157895,3,2,1,40,1,0
353657,1263.15789473684,3,2,1,40,1,0
354920,833.333333333333,3,2,1,40,1,0
355753,1428.57142857143,3,2,1,40,1,0

[Colours]
Combo1 : 225,65,47
Combo2 : 243,181,86

[HitObjects]
256,332,5219,6,0,P|160:348|64:300,1,195,2|2,0:0|0:0,0:0:0:0:
36,132,6551,1,2,0:0:0:0:
104,72,6817,2,0,P|200:56|296:104,1,195,2|2,0:0|0:0,0:0:0:0:
324,272,8149,1,0,0:0:0:0:
384,340,8416,6,0,P|416:284|384:200,1,130,2|0,0:0|0:0,0:0:0:0:
320,184,9215,2,0,P|288:128|320:44,1,130,2|2,0:0|0:0,0:0:0:0:
224,20,10014,2,0,B|176:64|176:64|112:64|112:64|64:20,1,195,2|2,0:0|0:0,0:0:0:0:
4,192,11346,1,0,0:0:0:0:
64,260,11613,6,0,B|111:280|158:260|158:260|205:239|252:260,1,195,2|2,0:0|0:0,0:0:0:0:
408,356,12945,1,2,0:0:0:0:
476,296,13211,2,0,B|496:248|476:201|476:201|455:154|476:107,1,195,2|2,0:0|0:0,0:0:0:0:
326,3,14544,1,0,0:0:0:0:
256,70,14810,6,0,B|228:94|196:94|196:94|128:78,1,130,2|0,0:0|0:0,0:0:0:0:
132,172,15609,2,0,B|69:157|69:157|37:157|9:181,1,130,2|2,0:0|0:0,0:0:0:0:
8,272,16409,2,0,B|36:296|68:296|68:296|131:281,1,130,2|0,0:0|0:0,0:0:0:0:
220,260,17208,1,2,0:0:0:0:
220,76,17741,1,0,0:0:0:0:
292,132,18007,6,0,B|316:152|352:136|352:136|384:152|416:136|416:136|452:152|476:132,2,195,2|2|2,0:0|0:0|0:0,0:0:0:0:
260,312,20139,1,2,0:0:0:0:
176,344,20405,2,0,P|104:348|56:312,1,130,2|0,0:0|0:0,0:0:0:0:
32,228,21204,6,0,B|76:180|76:180|76:116,1,130,2|0,0:0|0:0,0:0:0:0:
76,24,22004,2,0,B|140:24|140:24|188:68,1,130,2|2,0:0|0:0,0:0:0:0:
256,128,22803,1,2,0:0:0:0:
140,268,23336,1,0,0:0:0:0:
208,328,23602,2,0,B|256:372|256:372|320:372,1,130,2|0,0:0|0:0,0:0:0:0:
412,368,24401,6,0,B|432:344|416:308|416:308|432:276|416:244|416:244|432:208|412:184,2,195,2|2|2,0:0|0:0|0:0,0:0:0:0:
228,368,26533,1,0,0:0:0:0:
228,276,26799,2,0,L|228:144,1,130,2|0,0:0|0:0,0:0:0:0:
264,60,27599,6,0,P|200:60|152:16,1,130,2|0,0:0|0:0,0:0:0:0:
60,20,28398,2,0,P|10:61|2:125,1,130,2|2,0:0|0:0,0:0:0:0:
48,200,29197,1,2,0:0:0:0:
232,200,29730,1,0,0:0:0:0:
300,260,29996,2,0,B|344:308|344:308|344:372,1,130,2|10,0:0|1:0,0:0:0:0:
436,372,30796,6,0,B|447:340|447:340|436:313|436:313|447:281|447:281|436:250|436:250|447:222|447:222|436:191,1,195,10|10,0:0|0:0,0:0:0:0:
412,104,31861,1,8,0:0:0:0:
436,16,32128,1,10,0:0:0:0:
348,36,32394,6,0,B|283:43|283:43|219:36,1,130,2|0,0:0|0:0,0:0:0:0:
216,128,33194,2,0,B|151:120|151:120|87:128,1,130,2|8,0:0|0:0,0:0:0:0:
60,216,33993,6,0,B|91:227|91:227|118:216|118:216|150:227|150:227|181:216|181:216|209:227|209:227|240:216,1,195,10|10,0:0|0:0,0:0:0:0:
329,185,35059,1,8,0:0:0:0:
416,212,35325,1,10,0:0:0:0:
504,188,35592,6,0,P|500:248|444:300,1,130,2|0,0:0|0:0,0:0:0:0:
365,320,36391,2,0,P|369:260|425:208,1,130,10|8,0:0|0:0,0:0:0:0:
440,124,37190,6,0,B|408:112|408:112|381:124|381:124|349:112|349:112|318:124|318:124|290:112|290:112|259:124,1,195,10|10,0:0|0:0,0:0:0:0:
172,148,38256,1,8,0:0:0:0:
84,124,38522,1,10,0:0:0:0:
0,148,38789,6,0,P|4:88|68:40,1,130,2|0,0:0|0:0,0:0:0:0:
144,56,39588,2,0,P|203:77|260:49,1,130,2|8,0:0|0:0,0:0:0:0:
340,8,40387,6,0,B|351:39|351:39|340:66|340:66|351:98|351:98|340:129|340:129|351:157|351:157|340:188,1,195,10|10,0:0|0:0,0:0:0:0:
316,276,41453,1,8,0:0:0:0:
340,364,41719,1,10,0:0:0:0:
252,344,41986,6,0,B|189:327|189:327|136:368,1,130,2|8,0:0|0:0,0:0:0:0:
224,88,43851,6,0,L|244:160,1,65,2|2,0:0|0:0,0:0:0:0:
268,236,44384,1,4,3:2:0:0:
312,280,52909,6,0,P|376:316|436:304,2,130,4|0|0,0:2|0:0|0:0,0:0:0:0:
388,228,54241,1,8,0:0:0:0:
468,184,54508,2,0,L|456:100,1,65,0|8,0:0|0:0,0:0:0:0:
432,32,55041,6,0,B|396:28|368:36|368:36|340:28|304:32,1,130,0|0,0:0|0:0,0:0:0:0:
256,108,55840,1,8,0:0:0:0:
204,184,56106,2,0,B|168:188|140:180|140:180|112:188|76:184,1,130,0|8,0:0|0:0,0:0:0:0:
28,108,56906,1,8,0:0:0:0:
76,32,57172,6,0,L|208:32,1,130,0|0,0:0|0:0,0:0:0:0:
256,108,57971,1,8,0:0:0:0:
308,184,58238,2,0,L|440:184,1,130,0|0,0:0|0:0,0:0:0:0:
320,324,59304,6,0,L|256:324,1,65,0|8,0:0|0:0,0:0:0:0:
184,268,59836,2,0,L|120:268,1,65,0|8,0:0|0:0,0:0:0:0:
48,212,60369,2,0,B|15:155|15:155|15:91|15:91|48:34,1,195,0|0,0:0|0:0,0:0:0:0:
140,32,61435,6,0,B|208:32|208:32|252:92,2,130,4|0|0,0:2|0:0|0:0,0:0:0:0:
47,34,62767,1,8,0:0:0:0:
16,120,63034,2,0,P|12:152|16:184,1,65,0|8,0:0|0:0,0:0:0:0:
48,268,63566,6,0,P|112:276|176:268,1,130,0|0,0:0|0:0,0:0:0:0:
232,196,64366,1,8,0:0:0:0:
288,124,64632,2,0,P|352:116|416:124,1,130,0|0,0:0|0:0,0:0:0:0:
472,196,65431,1,8,0:0:0:0:
416,268,65698,6,0,B|392:292|360:300|360:300|272:292,1,130,0|0,0:0|0:0,0:0:0:0:
204,280,66497,1,8,0:0:0:0:
136,344,66764,2,0,B|112:320|104:288|104:288|109:223,1,130,0|0,0:0|0:0,0:0:0:0:
128,44,67829,5,0,0:0:0:0:
208,88,68096,2,0,P|236:88|292:72,2,65,8|0|8,0:0|0:0|0:0,0:0:0:0:
28,68,69161,2,0,L|15:225,1,130,8|8,0:0|0:0,0:0:0:0:
44,284,69961,6,0,P|128:332|220:296,1,195,4|8,3:2|0:0,0:0:0:0:
252,216,71026,2,0,L|241:95,2,97.5,0|0|8,0:0|0:0|0:0,0:0:0:0:
308,288,72092,6,0,B|332:264|341:223|341:223|330:101,1,195,0|8,3:0|0:0,0:0:0:0:
420,92,73158,2,0,L|428:189,2,97.5,0|0|8,0:0|0:0|0:0,0:0:0:0:
408,0,74224,5,0,3:0:0:0:
144,72,78487,6,0,B|88:40|88:40|20:52,2,130,4|0|0,3:2|3:0|3:0,0:0:0:0:
224,112,79819,1,8,0:0:0:0:
308,152,80085,2,0,L|396:140,1,65,0|8,3:0|0:0,0:0:0:0:
416,224,80618,6,0,L|287:241,1,130,0|0,3:0|3:0,0:0:0:0:
196,252,81417,1,8,0:0:0:0:
224,340,81684,2,0,L|95:322,1,130,0|0,3:0|3:0,0:0:0:0:
4,308,82483,1,8,0:0:0:0:
64,240,82749,6,0,P|80:172|64:108,1,130,0|0,3:0|3:0,0:0:0:0:
140,56,83549,1,8,0:0:0:0:
208,116,83815,2,0,P|192:184|208:248,1,130,0|0,3:0|3:0,0:0:0:0:
364,328,84881,6,0,P|380:296|384:264,1,65,0|8,3:0|0:0,0:0:0:0:
340,188,85414,2,0,P|324:156|320:124,1,65,0|8,3:0|0:0,0:0:0:0:
384,64,85947,2,0,P|400:32|404:0,2,65,0|8|0,3:0|0:0|3:0,0:0:0:0:
200,64,87012,6,0,B|132:64|132:64|116:44|72:44,2,130,4|0|0,3:2|3:0|3:0,0:0:0:0:
292,64,88344,1,8,0:0:0:0:
248,144,88611,2,0,P|244:176|248:208,1,65,0|8,3:0|0:0,0:0:0:0:
340,208,89144,6,0,B|376:204|404:212|404:212|432:204|468:208,1,130,0|0,3:0|3:0,0:0:0:0:
448,296,89943,1,8,0:0:0:0:
356,296,90209,2,0,B|320:300|292:292|292:292|264:300|228:296,1,130,0|0,3:0|3:0,0:0:0:0:
248,208,91009,1,8,0:0:0:0:
268,120,91275,6,0,B|216:80|216:80|187:66|148:60,1,130,0|0,3:0|3:0,0:0:0:0:
64,68,92074,1,8,0:0:0:0:
28,152,92341,2,0,B|68:204|68:204|81:232|88:272,1,130,0|0,3:0|3:0,0:0:0:0:
80,356,93140,1,8,0:0:0:0:
168,328,93407,5,0,3:0:0:0:
252,292,93673,2,0,L|400:308,1,130,8|8,0:0|0:0,0:0:0:0:
472,312,94472,2,0,L|485:155,1,130,0|0,3:0|3:0,0:0:0:0:
468,92,95272,1,8,0:0:0:0:
396,152,95538,6,0,P|318:193|325:105,1,195,4|8,3:2|3:3,0:0:0:0:
383,64,96603,1,0,3:0:0:0:
468,92,96870,1,0,3:0:0:0:
482,182,97136,2,0,P|408:276|332:288,1,195,8|8,3:3|3:3,0:0:0:0:
116,152,98735,6,0,P|193:193|186:105,1,195,8|8,3:3|3:3,0:0:0:0:
129,64,99800,1,0,3:0:0:0:
44,92,100067,1,0,3:0:0:0:
30,182,100333,2,0,P|104:276|180:288,1,195,8|8,3:3|3:3,0:0:0:0:
396,152,101932,6,0,L|432:8,1,130,8|0,3:3|3:0,0:0:0:0:
504,76,102731,2,0,L|484:152,1,65,8|0,3:3|3:0,0:0:0:0:
460,228,103264,1,0,3:0:0:0:
372,248,103530,6,0,L|245:279,1,130,8|0,3:3|3:0,0:0:0:0:
156,280,104330,2,0,L|93:263,2,65,8|0|0,3:3|3:0|3:0,0:0:0:0:
200,200,105129,6,0,B|208:168|200:136|200:136|192:104|200:72,1,130,4|0,3:2|3:0,0:0:0:0:
44,168,106194,2,0,B|36:200|44:232|44:232|52:264|44:296,1,130,0|0,3:0|3:0,0:0:0:0:
0,376,106994,1,8,0:0:0:0:
92,376,107260,6,0,L|292:376,1,195,0|8,3:0|3:2,0:0:0:0:
380,376,108326,2,0,B|396:313|396:313|365:256|365:256|381:194,1,195,8|8,3:2|3:0,0:0:0:0:
404,104,109391,6,0,L|277:71,1,130,4|0,0:2|0:0,0:0:0:0:
192,44,110191,1,8,0:0:0:0:
104,24,110457,2,0,L|71:150,1,130,0|0,0:0|0:0,0:0:0:0:
48,240,111256,1,8,0:0:0:0:
136,220,111523,6,0,L|198:200,1,65,0|8,0:0|0:0,0:0:0:0:
212,292,112056,2,0,L|274:272,1,65,0|8,0:0|0:0,0:0:0:0:
292,360,112589,2,0,L|416:321,1,130,0|0,0:0|0:0,0:0:0:0:
296,184,113654,6,0,P|279:121|296:59,1,130,0|0,0:0|0:0,0:0:0:0:
380,20,114454,1,8,0:0:0:0:
459,60,114720,2,0,P|476:122|459:184,1,130,0|0,0:0|0:0,0:0:0:0:
376,224,115519,1,8,0:0:0:0:
296,180,115786,6,0,P|264:192|240:216,1,65,0|8,0:0|0:0,0:0:0:0:
168,164,116319,2,0,P|153:195|153:229,1,65,0|8,0:0|0:0,0:0:0:0:
64,224,116851,2,0,P|85:284|152:316,1,130,0|2,0:0|0:0,0:0:0:0:
232,304,117651,1,10,0:0:0:0:
320,288,117917,6,0,B|362:279|362:279|399:302|399:302|441:293,1,130,4|0,3:2|0:0,0:0:0:0:
504,228,118716,1,8,0:0:0:0:
444,160,118983,2,0,B|401:151|401:151|364:174|364:174|322:165,1,130,0|0,0:0|0:0,0:0:0:0:
260,100,119782,1,8,0:0:0:0:
196,32,120049,6,0,B|162:23|162:23|130:27,1,65,0|8,0:0|0:0,0:0:0:0:
156,116,120581,2,0,B|125:133|125:133|105:159,1,65,0|8,0:0|0:0,0:0:0:0:
184,204,121114,2,0,B|164:264|164:264|173:331,1,130,0|0,0:0|0:0,0:0:0:0:
308,208,122180,6,0,P|371:191|436:228,1,130
360,280,122979,1,8,0:0:0:0:
292,340,123246,2,0,P|229:357|164:320,1,130
240,268,124045,1,8,0:0:0:0:
328,252,124311,6,0,P|317:219|294:194,1,65,0|8,0:0|0:0,0:0:0:0:
350,124,124844,2,0,P|319:107|285:105,1,65,0|8,0:0|0:0,0:0:0:0:
295,17,125377,2,0,P|233:34|198:100,1,130,0|0,0:0|0:0,0:0:0:0:
207,181,126176,1,8,0:0:0:0:
216,272,126443,6,0,B|144:252|96:300|96:300|28:272,1,195,4|8,0:2|0:0,0:0:0:0:
304,308,128041,2,0,B|376:288|424:336|424:336|492:308,1,195,0|0,0:0|0:0,0:0:0:0:
436,232,129107,1,0,0:0:0:0:
484,156,129373,1,8,0:0:0:0:
436,76,129640,6,0,B|418:49|383:41|383:41|348:49|331:76,1,130,4|0,0:2|0:0,0:0:0:0:
284,156,130439,1,8,0:0:0:0:
240,76,130705,2,0,B|222:49|187:41|187:41|152:49|135:76,1,130,0|0,0:0|0:0,0:0:0:0:
88,156,131505,1,8,0:0:0:0:
136,236,131771,6,0,B|168:232|200:240|200:240|224:276|256:264|288:276|312:240|312:240|344:232|376:236,1,260,0|8,0:0|0:3,0:0:0:0:
64,152,142428,6,0,L|36:8,2,130,0|0|0,3:0|0:0|3:0,0:0:0:0:
128,216,143760,1,2,3:0:0:0:
176,140,144027,2,0,L|260:152,1,65,0|8,3:0|0:1,0:0:0:0:
268,236,144560,6,0,B|310:242|310:242|345:217|345:217|388:223,1,130,0|0,3:0|0:0,0:0:0:0:
472,188,145359,1,2,0:0:0:0:
408,124,145625,2,0,B|365:117|365:117|338:83|338:83|296:77,1,130,0|0,3:0|3:0,0:0:0:0:
240,149,146425,1,8,0:1:0:0:
180,216,146691,6,0,B|180:281|180:281|208:348,1,130,4|0,3:2|0:0,0:0:0:0:
120,375,147490,1,8,0:0:0:0:
36,340,147757,2,0,B|61:280|61:280|61:215,1,130,0|0,3:0|0:0,0:0:0:0:
64,32,148822,6,0,L|128:32,1,65,0|8,3:0|3:2,0:0:0:0:
202,81,149355,2,0,L|266:81,1,65,0|8,3:0|3:2,0:0:0:0:
360,84,149888,2,0,B|393:141|393:141|393:205|393:205|360:262,1,195,2|10,3:2|0:0,0:0:0:0:
440,304,150954,6,0,B|484:224|484:224|484:176,2,130,0|0|0,3:0|0:0|3:0,0:0:0:0:
388,380,152286,1,2,3:0:0:0:
304,344,152552,2,0,L|240:316,1,65,0|10,3:0|0:1,0:0:0:0:
160,280,153085,6,0,B|124:262|124:262|100:250|76:262|76:262|41:280,1,130,0|0,3:0|0:0,0:0:0:0:
0,196,153885,1,2,0:0:0:0:
40,112,154151,2,0,B|75:129|75:129|99:141|123:129|123:129|158:112,1,130,0|0,3:0|3:0,0:0:0:0:
196,196,154950,1,10,3:1:0:0:
284,224,155217,6,0,B|292:192|284:160|284:160|276:128|284:96,1,130,4|0,3:2|0:0,0:0:0:0:
368,132,156016,1,8,3:0:0:0:
452,100,156282,2,0,B|460:132|452:164|452:164|444:196|452:228,1,130,0|0,3:0|0:0,0:0:0:0:
308,344,157348,5,0,3:0:0:0:
215,343,157615,2,0,L|150:340,2,65,8|0|8,3:2|3:0|3:1,0:0:0:0:
308,344,158414,2,0,B|372:345|372:345|421:302|421:302|485:304,1,195,0|8,3:0|3:1,0:0:0:0:
492,212,159480,6,0,L|496:80,1,130,4|0,3:2|3:0,0:0:0:0:
404,76,160279,2,0,L|400:208,1,130,8|0,3:0|3:0,0:0:0:0:
308,204,161078,2,0,L|312:72,1,130,8|0,3:0|3:0,0:0:0:0:
364,0,161877,1,8,3:1:0:0:
488,244,162677,6,0,B|490:179|490:179|512:148|512:116,1,130,0|0,3:0|3:0,0:0:0:0:
420,116,163476,2,0,B|355:115|355:115|324:92|292:92,1,130,8|0,3:0|3:0,0:0:0:0:
292,184,164275,2,0,B|291:250|291:250|268:280|268:312,1,130,8|8,3:0|0:1,0:0:0:0:
360,312,165075,1,0,3:0:0:0:
128,152,165874,6,0,L|120:288,1,130,4|0,3:2|3:0,0:0:0:0:
208,312,166673,2,0,L|216:176,1,130,8|0,3:3|3:0,0:0:0:0:
304,160,167472,2,0,L|296:296,1,130,0|0,3:0|3:0,0:0:0:0:
384,320,168272,2,0,L|392:184,1,130,8|0,3:0|3:0,0:0:0:0:
376,100,169071,6,0,P|432:64|500:76,1,130,4|8,3:2|3:3,0:0:0:0:
488,164,169870,2,0,L|484:228,1,65,0|0,3:0|0:0,0:0:0:0:
476,320,170403,1,8,3:0:0:0:
400,272,170670,6,0,L|264:280,1,130,8|0,3:0|3:0,0:0:0:0:
180,288,171469,2,0,L|183:352,1,65,0|2,3:0|0:0,0:0:0:0:
92,340,172002,2,0,L|88:275,1,65,2|8,0:0|3:1,0:0:0:0:
16,220,172535,1,8,3:1:0:0:
96,176,172801,6,0,L|103:46,1,130,4|0,3:2|3:0,0:0:0:0:
184,92,173600,2,0,P|260:96|324:60,1,130,8|0,0:0|3:0,0:0:0:0:
368,8,174399,1,0,3:0:0:0:
396,96,174666,2,0,L|396:168,2,65,0|0|8,3:0|3:0|3:2,0:0:0:0:
460,32,175465,1,0,3:0:0:0:
488,120,175731,1,0,3:0:0:0:
480,212,175998,6,0,P|432:252|364:256,1,130,0|0,3:0|3:0,0:0:0:0:
308,188,176797,2,0,P|260:148|192:144,1,130,8|0,0:2|3:2,0:0:0:0:
164,228,177596,2,0,P|116:268|48:272,1,130,0|0,3:0|3:0,0:0:0:0:
0,200,178396,1,8,3:2:0:0:
52,128,178662,2,0,P|52:92|48:52,1,65,0|0,3:0|3:0,0:0:0:0:
124,12,179195,6,0,B|156:4|188:12|188:12|220:20|252:12,1,130,4|0,3:2|0:0,0:0:0:0:
328,64,179994,2,0,B|336:96|328:128|328:128|320:160|328:192,1,130,8|0,3:0|3:0,0:0:0:0:
364,276,180793,2,0,B|332:284|300:276|300:276|268:268|236:276,1,130,8|8,3:0|3:0,0:0:0:0:
152,308,181593,2,0,P|120:312|88:308,2,65,0|8|0,3:0|0:1|3:0,0:0:0:0:
164,216,182392,6,0,B|168:180|160:152|160:152|168:124|164:88,1,130,0|0,0:0|0:0,0:0:0:0:
4,0,183457,2,0,B|0:36|8:64|8:64|0:92|4:128,1,130,0|0,0:0|0:0,0:0:0:0:
16,220,184257,1,8,0:0:0:0:
28,308,184523,6,0,L|228:308,1,195,0|8,3:0|3:0,0:0:0:0:
312,328,185589,2,0,B|327:296|312:265|312:265|327:234|312:203|312:203|327:172|312:141,1,195,0|8,0:0|3:3,0:0:0:0:
224,172,186654,6,0,P|159:181|96:169,1,130,4|0,3:2|0:0,0:0:0:0:
40,96,187454,1,8,0:0:0:0:
96,24,187720,2,0,P|160:14|223:26,1,130,0|0,0:0|2:0,0:0:0:0:
280,100,188519,1,8,0:0:0:0:
264,188,188786,6,0,P|298:187|328:173,1,65,0|8,0:0|0:0,0:0:0:0:
378,246,189319,2,0,P|402:221|414:190,1,65,0|8,0:0|0:0,0:0:0:0:
496,232,189852,2,0,P|500:168|452:108,1,130,0|0,0:0|0:0,0:0:0:0:
280,100,190917,6,0,B|216:112|216:112|160:80,1,130,0|0,0:0|0:0,0:0:0:0:
68,84,191717,1,8,0:0:0:0:
112,164,191983,2,0,B|168:196|168:196|189:257,1,130,0|0,0:0|2:0,0:0:0:0:
152,340,192782,1,8,0:0:0:0:
244,336,193049,6,0,L|309:333,1,65,0|8,0:0|0:0,0:0:0:0:
300,244,193582,2,0,L|365:241,1,65,0|8,0:0|0:0,0:0:0:0:
356,152,194114,2,0,L|485:146,1,130,0|2,0:0|0:0,0:0:0:0:
500,56,194914,1,2,2:3:0:0:
408,60,195180,6,0,L|278:65,1,130,4|0,0:2|0:0,0:0:0:0:
256,156,195979,1,8,0:0:0:0:
236,244,196246,2,0,L|106:238,1,130,0|0,0:0|2:0,0:0:0:0:
32,292,197045,1,8,0:0:0:0:
12,204,197312,6,0,B|4:169|4:169|10:127,1,65,0|8,0:0|0:0,0:0:0:0:
100,148,197844,2,0,B|118:117|118:117|144:98,1,65,0|8,0:0|0:0,0:0:0:0:
221,151,198377,2,0,B|281:133|281:133|348:144,1,130,0|0,0:0|0:0,0:0:0:0:
464,284,199443,6,0,P|403:305|342:278,1,130
408,212,200242,1,8,0:0:0:0:
464,140,200509,2,0,P|404:117|343:145,1,130,0|0,0:0|2:0,0:0:0:0:
284,208,201308,1,8,0:0:0:0:
198,239,201574,6,0,P|192:204|202:172,1,65,0|8,0:0|0:0,0:0:0:0:
120,132,202107,2,0,P|139:103|169:86,1,65,0|8,0:0|0:0,0:0:0:0:
123,13,202640,2,0,P|185:1|245:45,1,130
292,112,203439,1,0,2:0:0:0:
256,196,203706,6,0,B|230:256|230:256|253:316|253:316|229:376,1,195,4|8,0:2|0:0,0:0:0:0:
8,216,205304,2,0,B|32:154|32:154|9:94|9:94|33:34,1,195,0|8,0:0|0:0,0:0:0:0:
124,20,206370,1,0,0:0:0:0:
208,52,206636,1,0,0:0:0:0:
300,32,206903,6,0,B|336:14|336:14|360:2|384:14|384:14|419:32,1,130,4|0,0:2|0:0,0:0:0:0:
468,108,207702,1,8,0:0:0:0:
419,184,207968,2,0,B|383:202|383:202|359:214|335:202|335:202|300:184,1,130,0|0,0:0|2:0,0:0:0:0:
252,108,208768,1,8,0:0:0:0:
204,184,209034,6,0,L|64:212,1,130,0|0,0:0|0:0,0:0:0:0:
5,266,209833,1,8,0:0:0:0:
72,328,210100,2,0,L|200:352,1,130,0|0,0:0|0:0,0:0:0:0:
288,368,210899,1,0,0:0:0:0:
380,384,211165,6,0,L|389:319,1,65,4|4,3:2|3:0,0:0:0:0:
412,140,211964,2,0,L|347:130,1,65,4|4,3:0|3:0,0:0:0:0:
168,100,212763,2,0,L|158:164,1,65,4|4,3:0|3:0,0:0:0:0:
136,344,213562,2,0,L|200:353,1,65,4|0,3:2|0:0,0:0:0:0:
288,368,214095,1,0,3:0:0:0:
280,276,214362,6,0,L|272:211,1,65,4|4,3:2|3:0,0:0:0:0:
246,30,215161,2,0,L|181:37,1,65,4|4,3:0|3:0,0:0:0:0:
0,55,215960,2,0,L|7:119,1,65,4|4,3:0|3:0,0:0:0:0:
33,299,216760,2,0,L|97:291,1,65,4|0,3:0|3:0,0:0:0:0:
186,283,217292,1,4,3:2:0:0:
276,272,217559,6,0,B|340:260|340:260|348:192,1,130,4|8,3:2|0:0,0:0:0:0:
416,136,218358,2,0,B|373:86|373:86|310:113,1,130,4|8,3:0|0:0,0:0:0:0:
228,84,219157,2,0,B|206:145|206:145|261:186,1,130,4|8,3:0|0:0,0:0:0:0:
348,200,219957,2,0,L|398:240,2,65,4|0|4,3:0|0:0|3:2,0:0:0:0:
258,184,220756,6,0,L|208:144,1,65,8|8,3:1|3:1,0:0:0:0:
32,196,221555,2,0,L|82:236,1,65,8|8,3:1|3:1,0:0:0:0:
228,344,222355,2,0,L|278:384,2,65,8|4|4,3:1|3:0|3:0,0:0:0:0:
156,288,223154,1,4,3:0:0:0:
82,236,223420,2,0,L|88:148,1,65,4|4,3:0|3:0,0:0:0:0:
28,100,223953,6,0,P|92:80|164:128,1,130,4|8,3:2|3:0,0:0:0:0:
196,184,224752,2,0,B|256:208|256:208|318:185,1,130,4|8,3:0|3:0,0:0:0:0:
366,104,225552,2,0,P|424:78|484:99,1,130,4|8,3:0|3:3,0:0:0:0:
425,171,226351,1,4,3:0:0:0:
328,324,226884,1,8,3:3:0:0:
256,268,227150,6,0,P|196:296|120:288,1,130,4|8,3:2|3:3,0:0:0:0:
48,256,227950,2,0,B|44:220|52:192|52:192|44:164|48:128,1,130,4|8,3:0|3:0,0:0:0:0:
133,91,228749,2,0,P|197:88|256:116,1,130,4|8,3:0|0:3,0:0:0:0:
308,192,229548,1,12,3:0:0:0:
492,192,230081,1,8,3:0:0:0:
460,276,230347,6,0,B|400:300|400:300|340:276,1,130,4|8,3:2|3:0,0:0:0:0:
308,192,231147,2,0,B|288:164|256:156|256:156|224:164|204:192,1,130,4|8,3:0|0:3,0:0:0:0:
172,276,231946,2,0,B|112:300|112:300|52:276,1,130,4|8,3:0|3:0,0:0:0:0:
20,192,232745,1,4,3:0:0:0:
112,32,233278,1,8,3:0:0:0:
192,76,233545,6,0,P|256:88|320:76,1,130,4|0,3:0|3:0,0:0:0:0:
372,148,234344,2,0,P|360:211|372:275,1,130,8|0,3:0|3:0,0:0:0:0:
320,348,235143,2,0,P|256:336|192:348,1,130,4|0,3:0|3:0,0:0:0:0:
140,276,235942,2,0,P|151:212|139:148,1,130,12|0,3:3|3:0,0:0:0:0:
104,64,236742,6,0,L|300:72,1,195,4|12,3:0|3:0,0:0:0:0:
408,320,238340,2,0,L|212:312,1,195,12|12,3:0|3:0,0:0:0:0:
144,252,239406,2,0,L|65:248,1,65,0|0,3:0|3:0,0:0:0:0:
28,172,239939,5,4,3:2:0:0:
92,104,240205,2,0,L|156:106,1,65,8|0,3:0|0:0,0:0:0:0:
248,112,240738,2,0,B|280:113|280:113|301:137|301:137|334:138|334:138|355:162|355:162|388:163|388:163|409:187,1,195,0|4,3:0|3:2,0:0:0:0:
248,272,242070,5,0,3:0:0:0:
248,364,242337,2,0,P|188:341|157:285,1,130,8|0,0:3|3:0,0:0:0:0:
248,272,243136,2,0,B|268:225|248:178|248:178|227:131|248:84,1,195,0|8,3:0|0:3,0:0:0:0:
188,12,244202,2,0,L|104:28,1,65,0|0,0:0|3:0,0:0:0:0:
36,40,244735,6,0,P|28:108|64:164,1,130,0|0,3:0|3:0,0:0:0:0:
136,112,245534,2,0,B|156:159|136:206|136:206|115:253|136:301,1,195,8|0,0:3|3:0,0:0:0:0:
408,301,247133,1,8,0:3:0:0:
480,244,247399,2,0,L|480:180,1,65,8|0,0:3|3:0,0:0:0:0:
480,88,247932,6,0,B|435:88|435:88|404:117|404:117|361:117,1,130,4|0,3:2|3:0,0:0:0:0:
364,208,248731,2,0,B|319:207|319:207|288:178|288:178|245:178,1,130,8|0,0:3|3:0,0:0:0:0:
244,88,249530,2,0,B|199:88|199:88|168:117|168:117|125:117,1,130,4|0,3:2|3:0,0:0:0:0:
128,208,250330,2,0,B|83:207|83:207|52:178|52:178|9:178,1,130,8|0,0:3|3:0,0:0:0:0:
12,268,251129,6,0,B|48:300|48:300|132:300,1,130,0|0,3:0|3:0,0:0:0:0:
208,256,251928,2,0,B|240:220|240:220|240:136,1,130,8|0,0:3|3:0,0:0:0:0:
324,100,252728,1,0,3:0:0:0:
456,224,253260,1,0,3:0:0:0:
416,308,253527,2,0,L|286:308,1,130,8|0,0:3|3:0,0:0:0:0:
218,370,254326,6,0,P|191:313|207:252,1,130,4|0,3:2|3:0,0:0:0:0:
292,220,255125,2,0,P|319:162|302:101,1,130,8|0,0:3|3:0,0:0:0:0:
236,40,255925,1,0,3:0:0:0:
80,264,256724,2,0,L|96:344,2,65,8|0|0,0:3|0:0|3:0,0:0:0:0:
8,208,257523,6,0,L|33:80,1,130,4|0,3:2|3:0,0:0:0:0:
124,80,258323,2,0,L|149:207,1,130,8|0,0:3|3:0,0:0:0:0:
240,208,259122,2,0,L|265:80,1,130,0|0,3:0|3:0,0:0:0:0:
356,80,259921,2,0,L|381:207,1,130,8|0,0:3|3:0,0:0:0:0:
344,292,260720,6,0,B|284:312|284:312|256:293|256:293|228:312|228:312|168:292,1,195,4|8,3:2|0:3,0:0:0:0:
131,207,261786,2,0,L|144:141,1,65,0|0,0:0|3:0,0:0:0:0:
162,53,262319,1,0,3:0:0:0:
256,192,262585,12,2,265516,0:0:0:0:
32,172,286297,6,0,P|41:107|29:44,1,130,4|2,0:2|0:0,0:0:0:0:
108,0,287096,1,8,0:0:0:0:
186,44,287362,2,0,P|174:107|183:171,1,130,2|2,0:0|2:3,0:0:0:0:
108,216,288162,1,8,0:0:0:0:
32,172,288428,6,0,P|21:139|24:106,1,65,2|8,0:0|0:0,0:0:0:0:
112,128,288961,2,0,P|127:96|152:75,1,65,2|8,0:0|0:0,0:0:0:0:
200,152,289494,2,0,P|258:126|331:150,1,130,2|2,0:0|0:0,0:0:0:0:
372,316,290559,6,0,L|245:349,1,130,6|2,0:2|0:0,0:0:0:0:
152,364,291359,1,8,0:0:0:0:
132,276,291625,2,0,L|99:150,1,130,2|2,0:0|2:0,0:0:0:0:
188,128,292424,1,8,0:0:0:0:
276,104,292691,6,0,L|338:84,1,65,2|8,0:0|0:0,0:0:0:0:
364,172,293224,2,0,L|302:192,1,65,2|8,0:0|0:0,0:0:0:0:
300,284,293757,2,0,L|424:245,1,130,2|2,0:0|0:0,0:0:0:0:
512,216,294556,1,10,0:0:0:0:
448,148,294822,6,0,B|444:112|452:84|452:84|444:56|448:20,1,130,6|2,0:2|0:0,0:0:0:0:
356,20,295622,1,8,0:0:0:0:
264,24,295888,2,0,B|268:60|260:88|260:88|268:116|264:152,1,130,6|2,0:2|0:0,0:0:0:0:
356,152,296687,1,8,0:0:0:0:
380,240,296954,6,0,B|388:275|388:275|382:317,1,65,6|8,0:2|0:0,0:0:0:0:
296,276,297487,2,0,B|278:307|278:307|252:326,1,65,2|8,0:0|0:0,0:0:0:0:
200,252,298019,2,0,B|140:270|140:270|73:259,1,130,6|2,0:2|0:0,0:0:0:0:
72,76,299085,6,0,P|136:64|200:76,1,130,6|2,0:2|0:0,0:0:0:0:
256,148,299884,1,8,0:0:0:0:
312,76,300151,2,0,P|376:64|440:76,1,130,6|2,0:2|0:0,0:0:0:0:
496,148,300950,1,8,0:0:0:0:
440,220,301217,6,0,P|405:227|373:219,1,65,6|8,0:2|0:0,0:0:0:0:
338,300,301749,2,0,P|309:282|290:253,1,65,6|8,0:2|0:0,0:0:0:0:
218,304,302282,2,0,P|203:242|243:180,1,130,6|2,0:2|0:0,0:0:0:0:
316,148,303082,1,8,0:0:0:0:
244,92,303348,6,0,P|148:96|64:44,1,195,6|8,0:2|0:0,0:0:0:0:
316,148,304946,2,0,P|412:152|496:100,1,195,2|8,0:0|0:0,0:0:0:0:
496,12,306012,1,2,0:0:0:0:
416,52,306278,1,0,0:0:0:0:
336,12,306545,6,0,L|204:32,1,130,6|2,0:2|0:0,0:0:0:0:
116,44,307344,1,8,0:0:0:0:
172,116,307610,2,0,L|304:136,1,130,2|2,0:0|2:0,0:0:0:0:
392,148,308410,1,8,0:0:0:0:
332,216,308676,6,0,L|200:236,1,130,2|2,0:0|0:0,0:0:0:0:
112,248,309475,1,0,0:0:0:0:
168,320,309742,2,0,L|234:330,1,65,2|0,0:0|0:0,0:0:0:0:
308,384,310275,2,0,L|374:374,1,65,2|0,0:0|0:0,0:0:0:0:
464,360,310807,6,0,B|484:313|464:266|464:266|443:219|464:172,1,195,4|10,3:2|0:3,0:0:0:0:
360,24,312140,1,0,3:0:0:0:
276,60,312406,2,0,B|252:80|216:64|216:64|184:80|152:64|152:64|116:80|92:60,1,195,0|8,3:0|0:3,0:0:0:0:
8,24,313472,2,0,P|0:55|5:87,1,65,2|2,0:0|3:0,0:0:0:0:
72,148,314005,6,0,B|72:212|72:212|28:260|28:260|28:324,1,195,0|10,3:0|0:3,0:0:0:0:
204,272,315337,1,0,3:0:0:0:
264,337,315603,2,0,P|296:339|326:328,2,65,0|2|2,3:0|0:0|3:0,0:0:0:0:
173,353,316403,2,0,P|143:366|111:366,2,65,8|2|2,0:3|3:0|3:0,0:0:0:0:
204,272,317202,6,0,B|176:216|136:200|136:200|136:104,1,195,0|10,3:0|0:3,0:0:0:0:
210,53,318268,1,0,0:0:0:0:
302,53,318534,1,0,3:0:0:0:
376,106,318800,2,0,B|376:200|376:200|336:216|308:272,1,195,4|8,3:2|0:3,0:0:0:0:
302,363,319866,1,2,0:0:0:0:
210,363,320133,1,2,3:0:0:0:
204,272,320399,6,0,P|172:224|36:193,1,195,0|10,3:0|0:3,0:0:0:0:
0,112,321465,1,0,0:0:0:0:
44,32,321731,1,0,3:0:0:0:
136,32,321998,2,0,B|172:40|196:60|196:60|264:48,1,130,2|0,3:0|3:0,0:0:0:0:
260,140,322797,2,0,B|322:129|322:129|346:149|382:157,1,130,8|0,3:3|3:0,0:0:0:0:
396,68,323596,6,0,P|456:108|448:220,1,195,4|10,3:2|0:3,0:0:0:0:
276,280,324928,1,0,3:0:0:0:
260,368,325195,2,0,P|200:328|208:216,1,195,0|8,3:0|0:3,0:0:0:0:
276,280,326260,1,2,0:0:0:0:
344,340,326527,1,2,3:0:0:0:
368,252,326793,6,0,L|344:52,1,195,0|10,3:0|0:3,0:0:0:0:
204,172,328125,1,0,3:0:0:0:
152,96,328392,2,0,L|148:28,2,65,0|2|2,3:0|0:0|3:0,0:0:0:0:
112,176,329191,2,0,L|55:213,2,65,8|2|2,0:3|0:0|3:0,0:0:0:0:
204,172,329990,6,0,L|378:259,1,195,0|10,3:0|0:3,0:0:0:0:
376,76,331323,1,0,3:0:0:0:
284,84,331589,2,0,P|228:112|204:172,1,130,0|0,3:0|3:0,0:0:0:0:
232,260,332388,2,0,P|284:294|348:285,1,130,8|2,0:3|3:0,0:0:0:0:
430,245,333188,6,0,P|435:149|375:75,1,195,0|10,3:0|0:3,0:0:0:0:
284,84,334253,2,0,P|248:96|220:120,1,65,2|2,3:0|3:0,0:0:0:0:
204,200,334786,1,2,3:0:0:0:
