osu file format v14

[General]
AudioFilename: audio.mp3
AudioLeadIn: 0
PreviewTime: 183923
Countdown: 0
SampleSet: Soft
StackLeniency: 0.6
Mode: 0
LetterboxInBreaks: 0
WidescreenStoryboard: 1

[Editor]
Bookmarks: 18007,30796,44384,61435,78487,95538,109391,142428,159480,186654,211165,223953,241538,254326,267647,323596
DistanceSpacing: 1.3
BeatDivisor: 4
GridSize: 8
TimelineZoom: 0.6599998

[Metadata]
Title:Ringo Uri no Utakata Shoujo
TitleUnicode:林檎売りの泡沫少女
Artist:yukkedoluce
ArtistUnicode:yukkedoluce
Creator:Noffy
Version:Agaffy's Normal
Source:
Tags:agatsu bossandy yahuri the transient apple salesgirl Vocaloid Gumi Megpoid original Vocalofuture 黒猫と宇宙地図 Kuro Neko to Uchuuchizu A Black Cat and Space Map THE BEST OF GUMI from Megpoid
BeatmapID:1923287
BeatmapSetID:920395

[Difficulty]
HPDrainRate:3
CircleSize:3.2
OverallDifficulty:4
ApproachRate:5
SliderMultiplier:1.1
SliderTickRate:1

[Events]
//Background and Video events
0,0,"apple.jpg",0,0
Video,-929,"video.avi"
//Break Periods
2,133902,141228
2,267847,282034
//Storyboard Layer 0 (Background)
//Storyboard Layer 1 (Fail)
//Storyboard Layer 2 (Pass)
//Storyboard Layer 3 (Foreground)
Sprite,Foreground,Centre,"SB\agatsu.png",500,415 S,0,0,,0.5 F,0,5230,6828,0,1 F,0,17752,18018,1,0 F,0,30807,31073,0,1 F,0,42796,43595,1,0 F,0,61180,61446,0,1 F,0,78231,78498,1,0 F,0,95549,95815,0,1 F,0,109136,109402,1,0 F,0,142439,142706,0,1 F,0,159224,159491,1,0 F,0,186665,186932,0,1 F,0,210910,211176,1,0 F,0,223964,224231,0,1 F,0,241282,241549,1,0 F,0,254337,254604,0,1 F,0,265527,267658,1,0 F,0,323607,323874,0,1 F,0,334797,337994,1,0
Sprite,Foreground,Centre,"SB\noffy.png",500,415 S,0,0,,0.5 F,0,18018,18285,0,1 F,0,30540,30807,1,0 F,0,43862,44128,0,1 F,0,60114,60913,1,0 F,0,78498,78764,0,1 F,0,95283,95549,1,0 F,0,109402,109669,0,1 F,0,132848,133913,1,0 F,0,159491,159757,0,1 F,0,186399,186665,1,0 F,0,211176,211442,0,1 F,0,223698,223964,1,0 F,0,241549,241815,0,1 F,0,254071,254337,1,0 F,0,284177,285642,0,1 F,0,323341,323607,1,0 F,0,360750,,0
//Storyboard Layer 4 (Overlay)
//Storyboard Sound Samples

[TimingPoints]
5219,266.429840142096,3,2,1,40,1,0
5219,-111.111111111111,3,2,1,40,0,0
18007,-111.111111111111,3,2,1,50,0,0
30796,-111.111111111111,3,1,1,50,0,0
43851,-100,3,2,2,50,0,0
44384,266.429840142096,4,2,2,60,1,0
95538,266.429840142096,3,2,2,60,1,0
105129,266.429840142096,4,2,2,60,1,0
109391,-100,4,3,1,80,0,1
126443,266.429840142096,3,3,1,80,1,1
129640,266.429840142096,4,3,1,80,1,1
132837,-100,4,2,4,60,0,0
146691,-100,4,2,2,60,0,0
150954,-100,4,2,4,60,0,0
155217,-100,4,2,2,60,0,0
159480,266.429840142096,3,2,2,60,1,0
170670,266.429840142096,4,2,2,60,1,0
172801,266.429840142096,3,2,2,60,1,0
182392,266.429840142096,4,2,2,60,1,0
186654,-100,4,3,4,80,0,1
194381,-100,4,3,2,80,0,1
195180,-100,4,3,4,80,0,1
203706,266.429840142096,3,3,4,80,1,1
206903,266.429840142096,4,3,4,80,1,1
211165,266.429840142096,3,2,4,70,1,0
217559,-100,3,2,2,70,0,0
265516,266.429840142096,4,2,2,50,1,0
267647,-100,4,1,3,40,0,0
267780,-133.333333333333,4,1,3,40,0,0
286297,266.429840142096,4,3,4,80,1,1
294023,-100,4,3,2,80,0,1
294822,-100,4,3,4,80,0,1
303348,266.429840142096,3,3,4,80,1,1
306545,266.429840142096,4,3,4,80,1,1
310808,266.429840142096,3,2,1,60,1,0
323596,-100,3,2,1,60,0,0
329990,-100,3,2,1,50,0,0
333188,-100,3,2,1,40,0,0
337983,-125,3,2,1,40,0,0
338000,266.429840142096,3,2,1,40,1,0
345992,270.002700027,3,2,1,40,1,0
346802,276.497695852535,3,2,1,40,1,0
347907,283.687943262411,3,2,1,40,1,0
348474,300,3,2,1,40,1,0
349374,352.941176470588,3,2,1,40,1,0
349726,375,3,2,1,40,1,0
350101,400,3,2,1,40,1,0
350501,444.444444444444,3,2,1,40,1,0
350945,521.739130434783,3,2,1,40,1,0
351466,789.473684210526,3,2,1,40,1,0
352255,560.747663551402,3,2,1,40,1,0
352815,842.105263157895,3,2,1,40,1,0
353657,1263.15789473684,3,2,1,40,1,0
354920,833.333333333333,3,2,1,40,1,0
355753,1428.57142857143,3,2,1,40,1,0

[Colours]
Combo1 : 225,65,47
Combo2 : 243,181,86

[HitObjects]
143,54,5219,6,0,L|33:48,2,98.9999969787599,2|0|0,0:0|0:0|0:0,0:0:0:0:
223,112,6018,2,0,L|333:106,1,98.9999969787599,2|0,0:0|0:0,0:0:0:0:
408,155,6551,1,2,0:0:0:0:
499,117,6817,6,0,P|512:63|501:11,2,98.9999969787599,2|0|0,0:0|0:0|0:0,0:0:0:0:
408,155,7616,2,0,L|401:269,1,98.9999969787599,2|0,0:0|0:0,0:0:0:0:
329,321,8149,1,0,0:0:0:0:
240,276,8416,6,0,L|136:280,2,98.9999969787599,2|0|0,0:0|0:0|0:0,0:0:0:0:
286,188,9215,2,0,L|390:192,2,98.9999969787599,2|0|2,0:0|0:0|0:0,0:0:0:0:
237,101,10014,6,0,P|174:87|138:95,1,98.9999969787599,2|0,0:0|0:0,0:0:0:0:
64,155,10547,1,0,0:0:0:0:
115,239,10814,2,0,L|106:343,1,98.9999969787599,2|0,0:0|0:0,0:0:0:0:
198,374,11346,1,0,0:0:0:0:
285,328,11613,6,0,P|341:327|392:349,2,98.9999969787599,2|0|0,0:0|0:0|0:0,0:0:0:0:
238,240,12412,2,0,L|246:127,1,98.9999969787599,2|0,0:0|0:0,0:0:0:0:
322,79,12945,1,2,0:0:0:0:
413,115,13211,6,0,L|419:213,1,98.9999969787599,2|0,0:0|0:0,0:0:0:0:
433,312,13744,2,0,L|371:307,1,49.4999984893799,0|0,0:0|0:0,0:0:0:0:
337,288,14011,2,0,P|323:336|325:389,2,98.9999969787599,2|0|0,0:0|0:0|0:0,0:0:0:0:
277,208,14810,6,0,L|162:202,1,98.9999969787599,2|0,0:0|0:0,0:0:0:0:
95,258,15343,1,0,0:0:0:0:
18,195,15609,2,0,P|17:145|30:98,1,98.9999969787599,2|0,0:0|0:0,0:0:0:0:
114,45,16142,2,0,L|178:46,1,49.4999984893799,2|0,0:0|0:0,0:0:0:0:
206,71,16409,6,0,L|319:63,1,98.9999969787599,2|0,0:0|0:0,0:0:0:0:
375,132,16941,1,0,0:0:0:0:
470,104,17208,2,0,P|479:53|473:4,2,98.9999969787599,2|0|0,0:0|0:0|0:0,0:0:0:0:
447,200,18007,6,0,P|353:232|266:183,1,197.99999395752,2|0,0:0|0:0,0:0:0:0:
214,106,18806,2,0,P|246:197|202:283,1,197.99999395752,2|0,0:0|0:0,0:0:0:0:
106,310,19606,2,0,P|127:353|169:380,1,98.9999969787599,2|0,0:0|0:0,0:0:0:0:
268,383,20139,1,2,0:0:0:0:
362,355,20405,2,0,B|397:291|318:245|375:148,1,197.99999395752,2|0,0:0|0:0,0:0:0:0:
451,110,21204,6,0,P|463:155|450:220,2,98.9999969787599,2|0|0,0:0|0:0|0:0,0:0:0:0:
364,60,22004,2,0,P|319:72|278:116,2,98.9999969787599,2|0|2,0:0|0:0|0:0,0:0:0:0:
367,162,22803,2,0,L|309:264,1,98.9999969787599,2|0,0:0|0:0,0:0:0:0:
256,325,23336,1,0,0:0:0:0:
193,248,23602,2,0,B|145:161|145:161|98:186|31:150,1,197.99999395752,2|0,0:0|0:0,0:0:0:0:
98,72,24401,6,0,P|60:52|31:-6,2,98.9999969787599,2|0|0,0:0|0:0|0:0,0:0:0:0:
197,72,25201,2,0,P|235:52|264:-6,2,98.9999969787599,2|0|2,0:0|0:0|0:0,0:0:0:0:
147,158,26000,2,0,L|122:278,1,98.9999969787599,2|0,0:0|0:0,0:0:0:0:
107,352,26533,1,0,0:0:0:0:
10,374,26799,2,0,P|40:279|126:254,1,197.99999395752,2|0,0:0|0:0,0:0:0:0:
222,281,27599,6,0,P|231:336|211:392,2,98.9999969787599,2|0|0,0:0|0:0|0:0,0:0:0:0:
228,182,28398,2,0,P|216:134|225:86,2,98.9999969787599,2|0|2,0:0|0:0|0:0,0:0:0:0:
316,136,29197,2,0,B|366:130|406:166|406:166|438:128|514:135,1,197.99999395752,2|0,0:0|0:0,0:0:0:0:
485,232,29996,2,0,L|476:338,1,98.9999969787599,2|0,0:0|0:0,0:0:0:0:
385,369,30529,1,10,1:0:0:0:
299,319,30796,6,0,B|246:290|196:308|208:323|157:345|108:324,1,197.99999395752,10|2,0:0|0:0,0:0:0:0:
27,267,31595,2,0,P|35:158|37:62,1,197.99999395752,10|10,0:0|0:0,0:0:0:0:
121,17,32394,2,0,L|223:26,1,98.9999969787599,2|0,0:0|0:0,0:0:0:0:
295,89,32927,1,0,0:0:0:0:
380,39,33194,2,0,P|434:104|411:215,1,197.99999395752,2|8,0:0|0:0,0:0:0:0:
333,264,33993,6,0,L|325:377,2,98.9999969787599,10|0|0,0:0|0:0|0:0,0:0:0:0:
256,200,34792,2,0,L|249:101,2,98.9999969787599,10|8|10,0:0|0:0|0:0,0:0:0:0:
161,230,35592,2,0,P|118:220|52:234,1,98.9999969787599,2|0,0:0|0:0,0:0:0:0:
15,314,36124,1,0,0:0:0:0:
94,373,36391,2,0,P|187:366|297:365,1,197.99999395752,10|8,0:0|0:0,0:0:0:0:
373,308,37190,6,0,P|426:312|477:342,2,98.9999969787599,10|0|0,0:0|0:0|0:0,0:0:0:0:
297,244,37989,2,0,P|263:166|318:59,1,197.99999395752,10|10,0:0|0:0,0:0:0:0:
403,45,38789,2,0,P|438:80|450:129,1,98.9999969787599,2|0,0:0|0:0,0:0:0:0:
428,223,39322,1,0,0:0:0:0:
342,271,39588,2,0,B|289:242|239:260|251:275|200:297|151:276,1,197.99999395752,2|8,0:0|0:0,0:0:0:0:
53,262,40387,6,0,P|40:312|49:378,2,98.9999969787599,10|0|0,0:0|0:0|0:0,0:0:0:0:
115,184,41187,2,0,P|118:134|105:87,2,98.9999969787599,10|8|10,0:0|0:0|0:0,0:0:0:0:
187,251,41986,2,0,P|230:269|363:199,1,197.99999395752,2|8,0:0|0:0,0:0:0:0:
376,111,42785,1,0,0:0:0:0:
41,333,43851,5,2,0:0:0:0:
41,333,44117,1,2,0:0:0:0:
41,333,44384,6,0,B|58:313|56:279|56:279|118:295|171:248|157:191,1,220,4|0,3:2|3:0,0:0:0:0:
256,241,45183,1,8,0:0:0:0:
355,191,45449,2,0,P|383:264|461:278,1,165,0|0,3:0|0:0,0:0:0:0:
512,257,45982,1,0,3:0:0:0:
512,146,46249,1,8,0:0:0:0:
445,58,46515,6,0,P|384:72|312:69,1,110,0|8,3:0|0:0,0:0:0:0:
284,57,46915,1,0,0:0:0:0:
229,53,47048,2,0,P|174:54|120:67,1,110,0|8,3:0|0:0,0:0:0:0:
170,165,47581,2,0,P|116:178|61:179,1,110,0|8,3:0|0:0,0:0:0:0:
1,87,48114,1,0,3:0:0:0:
0,306,48646,6,0,B|65:320|138:304|138:304|155:348|207:361,1,220,4|0,3:2|3:0,0:0:0:0:
256,265,49446,1,8,0:0:0:0:
316,357,49712,2,0,B|357:348|374:304|374:304|422:315|459:312,1,165,0|0,3:0|0:0,0:0:0:0:
510,302,50245,1,0,3:0:0:0:
475,197,50511,1,8,0:0:0:0:
367,173,50778,6,0,P|326:186|281:252,1,110,0|8,3:0|0:0,0:0:0:0:
256,284,51177,1,8,0:0:0:0:
227,236,51311,2,0,P|195:192|145:173,1,110,0|8,3:0|0:0,0:0:0:0:
35,163,51844,2,0,P|85:143|117:99,1,110,0|0,3:0|0:0,0:0:0:0:
21,44,52376,1,2,3:2:0:0:
202,168,52909,6,0,P|178:214|173:284,2,110,4|8|0,0:2|0:0|0:0,0:0:0:0:
281,90,53709,1,8,0:0:0:0:
357,168,53975,2,0,P|333:214|328:284,2,110,0|8|0,0:0|0:0|0:0,0:0:0:0:
435,90,54774,1,8,0:0:0:0:
492,183,55041,5,0,0:0:0:0:
492,292,55307,2,0,L|517:366,2,55,8|0|0,0:0|0:0|0:0,0:0:0:0:
381,298,55840,2,0,L|364:350,1,55,8|0,0:0|0:0,0:0:0:0:
312,368,56106,2,0,P|263:342|238:286,1,110,0|8,0:0|0:0,0:0:0:0:
157,368,56639,2,0,P|108:342|84:294,1,110,8|8,0:0|0:0,0:0:0:0:
51,189,57172,6,0,L|239:208,1,165,0|0,0:0|0:0,0:0:0:0:
259,172,57705,2,0,P|279:121|269:68,1,110,0|8,0:0|0:0,0:0:0:0:
166,109,58238,2,0,L|385:133,1,220,0|0,0:0|0:0,0:0:0:0:
414,351,59304,6,0,P|462:325|486:277,1,110,0|8,0:0|0:0,0:0:0:0:
381,246,59836,2,0,P|332:271|308:319,1,110,0|8,0:0|0:0,0:0:0:0:
102,80,61169,1,0,0:0:0:0:
201,33,61435,6,0,L|330:28,1,110,4|8,0:2|0:0,0:0:0:0:
313,138,61968,2,0,L|203:142,1,110,0|8,0:0|0:0,0:0:0:0:
122,217,62501,2,0,P|106:274|117:345,2,110,0|8|0,0:0|0:0|0:0,0:0:0:0:
203,142,63300,1,8,0:0:0:0:
285,214,63566,5,0,0:0:0:0:
368,142,63833,2,0,P|406:137|440:140,2,55,8|0|0,0:0|0:0|0:0,0:0:0:0:
290,63,64366,2,0,P|252:58|218:61,1,55,8|0,0:0|0:0,0:0:0:0:
192,24,64632,2,0,L|64:30,1,110,0|8,0:0|0:0,0:0:0:0:
10,113,65165,2,0,P|1:168|12:237,1,110,0|8,0:0|0:0,0:0:0:0:
64,315,65698,6,0,B|117:280|196:298|162:335|231:356|281:334,1,220,0|0,0:0|0:0,0:0:0:0:
373,378,66497,1,8,0:0:0:0:
466,320,66764,2,0,L|454:91,1,220,0|0,0:0|0:0,0:0:0:0:
261,206,67829,6,0,L|132:215,1,110,0|8,0:0|0:0,0:0:0:0:
89,305,68362,1,0,0:0:0:0:
15,222,68629,1,8,0:0:0:0:
156,53,69161,2,0,L|270:45,1,110,8|8,0:0|0:0,0:0:0:0:
312,16,69561,2,0,L|440:34,1,110,0|8,0:0|0:0,0:0:0:0:
475,21,69961,6,0,P|490:102|479:245,1,220,4|0,3:2|0:0,0:0:0:0:
281,331,71026,2,0,P|212:302|155:309,1,110,0|8,0:0|0:0,0:0:0:0:
130,331,71426,2,0,P|143:253|115:152,1,165,0|8,0:0|0:0,0:0:0:0:
202,92,72092,6,0,L|437:80,1,220,0|0,3:0|0:0,0:0:0:0:
495,163,72891,1,8,0:0:0:0:
417,241,73158,2,0,L|287:227,1,110,0|8,0:0|0:0,0:0:0:0:
254,212,73558,2,0,P|240:293|253:374,1,165,0|8,0:0|0:0,0:0:0:0:
362,382,74224,6,0,P|388:270|380:155,1,220,0|0,3:0|0:0,0:0:0:0:
189,60,75289,1,0,3:0:0:0:
36,218,75822,2,0,L|28:291,2,55,0|0|8,0:0|0:0|0:0,0:0:0:0:
121,147,76355,6,0,P|188:149|238:171,1,110,0|8,3:0|0:0,0:0:0:0:
273,264,76888,2,0,P|324:282|379:281,1,110,0|8,3:0|0:0,0:0:0:0:
473,224,77421,2,0,L|485:105,1,110,0|8,3:0|0:0,0:0:0:0:
402,40,77954,1,0,3:0:0:0:
310,100,78220,1,8,0:0:0:0:
219,36,78487,6,0,L|207:171,1,110,4|8,3:2|0:0,0:0:0:0:
197,199,78886,1,8,0:0:0:0:
197,199,79019,2,0,P|135:169|83:181,1,110,0|8,3:0|0:0,0:0:0:0:
72,282,79552,2,0,P|134:312|186:300,1,110,0|8,3:0|0:0,0:0:0:0:
228,306,79952,1,0,0:0:0:0:
228,306,80085,2,0,L|222:366,2,55,0|8|8,3:0|0:0|0:0,0:0:0:0:
238,196,80618,5,0,3:0:0:0:
326,130,80884,2,0,P|353:126|380:130,1,55,8|0,0:0|0:0,0:0:0:0:
434,142,81151,1,0,3:0:0:0:
462,256,81417,2,0,P|422:259|389:250,1,55,8|0,0:0|0:0,0:0:0:0:
384,306,81684,2,0,P|364:350|297:376,1,110,0|8,3:0|0:0,0:0:0:0:
200,376,82217,2,0,P|150:354|126:305,1,110,0|8,3:0|0:0,0:0:0:0:
54,222,82749,6,0,P|130:196|203:231,1,165,0|8,3:0|0:0,0:0:0:0:
251,256,83282,2,0,L|264:127,1,110,0|8,3:0|0:0,0:0:0:0:
202,53,83815,2,0,B|255:18|334:36|300:73|369:94|419:72,1,220,0|0,3:0|3:0,0:0:0:0:
481,283,84881,5,0,3:0:0:0:
386,339,85147,1,8,0:0:0:0:
295,277,85414,1,0,3:0:0:0:
210,209,85680,2,0,L|85:232,1,110,8|0,0:0|3:0,0:0:0:0:
61,126,86213,2,0,L|125:115,1,55,8|8,0:0|0:0,0:0:0:0:
169,107,86479,2,0,P|188:62|255:36,1,110,0|8,3:0|0:0,0:0:0:0:
352,38,87012,6,0,L|364:173,1,110,4|8,3:2|0:0,0:0:0:0:
374,201,87412,1,0,0:0:0:0:
374,201,87545,2,0,P|436:171|488:183,1,110,0|8,3:0|0:0,0:0:0:0:
499,284,88078,2,0,P|437:314|385:302,1,110,0|8,3:0|0:0,0:0:0:0:
343,308,88478,1,0,0:0:0:0:
343,308,88611,2,0,L|348:362,2,55,0|8|8,3:0|0:0|0:0,0:0:0:0:
283,214,89144,5,0,3:0:0:0:
180,254,89410,2,0,L|173:333,1,55,8|8,0:0|0:0,0:0:0:0:
171,363,89677,1,0,3:0:0:0:
73,312,89943,2,0,L|68:257,1,55,8|0,0:0|0:0,0:0:0:0:
59,202,90209,2,0,P|103:182|129:115,1,110,0|8,3:0|0:0,0:0:0:0:
238,128,90742,2,0,P|259:177|308:201,1,110,0|8,3:0|0:0,0:0:0:0:
418,200,91275,6,0,P|466:176|467:73,1,165,0|0,3:0|0:0,0:0:0:0:
415,66,91808,2,0,B|359:89|359:89|298:66,1,110,0|8,3:0|0:0,0:0:0:0:
223,136,92341,2,0,B|323:184|323:184|310:249|371:291,1,220,0|0,3:0|3:0,0:0:0:0:
464,309,93140,5,8,0:0:0:0:
466,199,93407,1,0,3:0:0:0:
426,96,93673,1,8,0:0:0:0:
426,96,93806,2,0,L|271:36,1,165,0|8,0:0|0:0,0:0:0:0:
162,45,94472,1,0,3:0:0:0:
54,69,94739,2,0,P|49:132|70:183,1,110,8|0,0:0|3:0,0:0:0:0:
99,217,95138,2,0,L|61:265,2,55,8|8|8,0:0|0:0|0:0,0:0:0:0:
154,210,95538,6,0,B|208:176|281:190|259:211|326:229|378:196,1,220,4|0,3:2|3:0,0:0:0:0:
476,214,96337,2,0,P|466:263|472:336,1,110,8|0,3:3|3:0,0:0:0:0:
369,369,96870,1,0,3:0:0:0:
265,333,97136,6,0,B|240:278|240:278|280:114,1,220,8|0,3:3|3:0,0:0:0:0:
260,14,97935,1,8,3:3:0:0:
150,27,98202,2,0,P|86:43|53:83,1,110,0|0,3:0|3:0,0:0:0:0:
38,182,98735,6,0,P|124:204|207:245,1,165,8|0,3:3|3:0,0:0:0:0:
232,275,99268,1,0,3:0:0:0:
315,203,99534,2,0,P|320:147|308:82,1,110,8|0,3:3|3:0,0:0:0:0:
396,23,100067,1,0,3:0:0:0:
489,80,100333,6,0,P|476:177|480:259,1,165,8|8,3:3|0:0,0:0:0:0:
453,293,100866,2,0,L|381:283,1,55,8|0,0:0|3:0,0:0:0:0:
360,325,101133,2,0,L|239:340,1,110,8|8,3:3|0:1,0:0:0:0:
203,366,101532,1,8,0:1:0:0:
38,376,101932,6,0,P|22:303|78:236,1,165,8|0,3:3|3:0,0:0:0:0:
128,222,102465,1,0,3:0:0:0:
63,133,102731,2,0,L|52:15,2,110,8|0|0,3:3|3:0|3:0,0:0:0:0:
173,126,103530,6,0,B|220:105|265:120|259:134|299:150|346:138,1,165,8|0,3:3|0:0,0:0:0:0:
378,109,104063,1,0,3:0:0:0:
473,164,104330,2,0,P|487:110|479:56,2,110,8|0|0,3:3|3:0|3:0,0:0:0:0:
398,245,105129,6,0,L|177:235,1,220,4|0,3:2|3:0,0:0:0:0:
83,178,105928,2,0,P|72:124|82:70,1,110,8|0,0:0|3:0,0:0:0:0:
178,15,106461,2,0,L|257:26,1,55,8|0,0:0|0:0,0:0:0:0:
280,48,106727,1,0,3:0:0:0:
317,151,106994,1,8,0:0:0:0:
217,197,107260,6,0,P|136:218|108:348,1,220,0|0,3:0|3:0,0:0:0:0:
209,371,108059,2,0,L|281:366,1,55,8|0,3:2|0:0,0:0:0:0:
311,338,108326,2,0,L|432:351,2,110,8|8|0,3:2|3:2|3:0,0:0:0:0:
237,255,109125,1,8,3:0:0:0:
228,145,109391,6,0,B|303:150|303:150|330:192|391:216,1,165,4|8,0:2|0:0,0:0:0:0:
424,221,109924,2,0,P|386:138|440:76,1,165,0|0,0:0|2:0,0:0:0:0:
471,57,110457,1,0,0:0:0:0:
509,160,110724,1,8,0:0:0:0:
512,266,110990,2,0,P|482:306|409:322,1,110,0|8,0:0|0:0,0:0:0:0:
371,326,111390,5,0,2:0:0:0:
316,326,111523,2,0,P|264:310|230:267,1,110,0|8,0:0|0:0,0:0:0:0:
137,326,112056,2,0,P|85:310|51:267,1,110,0|8,0:0|0:0,0:0:0:0:
46,157,112589,2,0,B|118:166|148:128|148:128|208:140,1,165,0|8,0:0|0:0,0:0:0:0:
254,151,113121,2,0,P|319:120|348:71,1,110,0|8,0:0|0:0,0:0:0:0:
236,53,113654,6,0,B|164:36|164:36|117:24|82:66,1,165,0|8,0:0|0:0,0:0:0:0:
60,115,114187,2,0,P|62:179|87:229,1,110,0|8,0:0|0:0,0:0:0:0:
134,234,114587,1,0,2:0:0:0:
186,248,114720,2,0,P|206:298|206:353,1,110,0|8,0:0|0:0,0:0:0:0:
306,353,115253,2,0,P|305:298|326:247,1,110,0|8,0:0|0:0,0:0:0:0:
431,220,115786,6,0,P|452:169|452:115,1,110,0|8,0:0|0:0,0:0:0:0:
391,22,116319,1,0,0:0:0:0:
320,105,116585,1,8,0:0:0:0:
256,192,116851,1,0,0:0:0:0:
256,192,117118,2,0,B|278:244|239:258|258:315,2,110,10|2|10,0:0|0:0|0:0,0:0:0:0:
194,100,117917,6,0,B|119:105|119:105|92:147|31:171,1,165,4|8,3:2|0:0,0:0:0:0:
3,191,118450,2,0,P|50:219|61:287,1,110,0|8,0:0|0:0,0:0:0:0:
64,325,118850,1,0,2:0:0:0:
38,373,118983,2,0,P|85:347|137:360,1,110,0|8,0:0|0:0,0:0:0:0:
190,264,119516,2,0,P|218:197|216:140,1,110,0|8,0:0|0:0,0:0:0:0:
256,119,119915,5,0,2:0:0:0:
292,160,120049,2,0,P|297:214|322:264,1,110,0|8,0:0|0:0,0:0:0:0:
431,264,120581,2,0,P|455:214|460:160,1,110,0|8,0:0|0:0,0:0:0:0:
454,49,121114,2,0,P|400:23|291:65,1,165,0|0,0:0|2:0,0:0:0:0:
276,98,121647,2,0,L|157:43,1,110,0|8,0:0|0:0,0:0:0:0:
128,24,122047,5,8,0:0:0:0:
75,9,122180,2,0,P|99:79|60:175,1,165,0|8,0:0|0:0,0:0:0:0:
27,196,122713,1,0,0:0:0:0:
144,312,123113,1,0,2:0:0:0:
179,270,123246,2,0,P|255:244|332:269,1,165,0|8,0:0|2:3,0:0:0:0:
368,312,123779,1,0,0:0:0:0:
443,232,124045,6,0,L|460:159,2,55,8|0|0,0:0|2:0|0:0,0:0:0:0:
365,153,124578,2,0,L|348:80,2,55,8|8|0,0:0|0:0|0:0,0:0:0:0:
256,173,125111,1,8,0:0:0:0:
147,153,125377,1,0,0:0:0:0:
130,261,125644,2,0,B|236:292|236:292|255:325|255:325|292:339|292:339|300:367|300:367|356:382,1,275,8|8,0:0|0:0,0:0:0:0:
410,378,126443,6,0,P|467:317|428:260,1,165,4|0,0:2|0:0,0:0:0:0:
373,257,126975,1,8,0:0:0:0:
296,177,127242,2,0,P|341:138|403:146,2,110,8|8|8,0:0|0:0|0:0,0:0:0:0:
227,263,128041,2,0,P|250:198|194:112,1,165,0|0,0:0|0:0,0:0:0:0:
155,96,128574,1,8,0:0:0:0:
142,205,128840,2,0,P|89:192|53:144,2,110,0|0|8,0:0|0:0|0:0,0:0:0:0:
227,263,129640,6,0,B|270:200|245:150|208:118|208:118|271:126|315:90,1,275,4|0,0:2|0:0,0:0:0:0:
365,72,130439,1,8,0:0:0:0:
464,118,130705,2,0,P|525:63|427:5,1,220,0|0,0:0|0:0,0:0:0:0:
365,72,131505,1,8,0:0:0:0:
257,49,131771,2,0,P|250:109|235:181,1,110,0|8,0:0|0:0,0:0:0:0:
130,147,132304,2,0,P|138:201|151:254,1,110,8|8,0:0|0:0,0:0:0:0:
256,289,132837,5,8,0:3:0:0:
461,46,142428,6,0,P|404:57|342:44,1,110,0|2,3:0|3:0,0:0:0:0:
263,112,142961,2,0,P|206:101|144:114,1,110,0|2,0:0|0:0,0:0:0:0:
68,176,143494,2,0,L|62:295,2,110,0|2|0,3:0|3:0|3:0,0:0:0:0:
155,109,144293,1,8,0:1:0:0:
250,164,144560,5,0,3:0:0:0:
210,266,144826,2,0,L|205:328,2,55,0|2|0,3:0|0:0|0:0,0:0:0:0:
315,297,145359,1,2,0:0:0:0:
355,195,145625,2,0,L|475:187,1,110,0|2,3:0|3:0,0:0:0:0:
494,81,146158,2,0,L|490:21,1,55,0|0,3:0|0:0,0:0:0:0:
436,12,146425,1,8,0:1:0:0:
337,61,146691,6,0,B|283:29|224:60|239:87|165:112|123:79,1,220,4|0,3:2|0:0,0:0:0:0:
35,27,147490,1,8,0:0:0:0:
10,134,147757,2,0,P|19:236|3:354,1,220,0|0,3:0|0:0,0:0:0:0:
113,363,148556,1,8,0:0:0:0:
215,323,148822,6,0,L|343:330,1,110,0|8,3:0|3:2,0:0:0:0:
407,255,149355,1,0,3:0:0:0:
351,159,149622,2,0,L|223:166,1,110,8|2,3:2|3:2,0:0:0:0:
146,221,150155,1,0,3:0:0:0:
146,221,150288,2,0,P|70:217|34:181,1,110,2|8,0:0|0:0,0:0:0:0:
23,147,150687,1,10,0:0:0:0:
55,41,150954,6,0,P|123:29|211:71,2,165,0|0|10,3:0|0:0|3:0,0:0:0:0:
23,147,152020,2,0,L|29:266,1,110,0|2,3:0|3:0,0:0:0:0:
34,311,152419,1,0,0:0:0:0:
34,311,152552,1,0,3:0:0:0:
123,375,152819,1,10,0:1:0:0:
213,312,153085,6,0,P|278:316|341:300,1,110,0|2,3:0|3:0,0:0:0:0:
349,200,153618,2,0,L|343:83,1,110,0|2,0:0|0:0,0:0:0:0:
342,34,154018,1,0,0:0:0:0:
342,34,154151,1,0,3:0:0:0:
447,3,154417,1,2,3:0:0:0:
503,97,154684,2,0,L|500:169,1,55,0|0,3:0|0:0,0:0:0:0:
496,206,154950,1,10,3:1:0:0:
480,315,155217,6,0,P|380:281|263:325,1,220,4|0,3:2|0:0,0:0:0:0:
184,377,156016,1,8,3:0:0:0:
76,353,156282,2,0,B|46:316|46:316|75:136,1,220,0|0,3:0|0:0,0:0:0:0:
38,40,157082,1,8,0:0:0:0:
147,29,157348,6,0,L|272:18,1,110,0|8,3:0|3:2,0:0:0:0:
353,71,157881,1,0,3:0:0:0:
277,150,158147,1,8,3:1:0:0:
355,227,158414,2,0,L|349:354,1,110,0|8,3:0|3:2,0:0:0:0:
457,359,158947,1,0,3:0:0:0:
484,252,159213,1,8,3:1:0:0:
434,154,159480,6,0,P|347:172|271:146,1,165,4|0,3:2|3:0,0:0:0:0:
233,114,160012,1,0,3:0:0:0:
268,9,160279,2,0,P|300:52|372:71,2,110,8|0|0,3:0|3:0|3:0,0:0:0:0:
157,12,161078,2,0,B|146:117|110:165|110:165|50:138,1,220,8|0,3:0|3:0,0:0:0:0:
9,240,161877,1,8,3:1:0:0:
62,336,162144,2,0,L|171:293,1,110,0|0,3:0|3:0,0:0:0:0:
232,208,162677,6,0,P|319:226|395:200,1,165,0|0,3:0|3:0,0:0:0:0:
433,168,163210,1,0,3:0:0:0:
391,65,163476,2,0,P|359:108|287:127,2,110,8|0|0,3:0|3:0|3:0,0:0:0:0:
291,18,164275,2,0,B|208:48|200:138|200:138|137:118,1,220,8|8,3:0|0:1,0:0:0:0:
43,73,165075,1,0,3:0:0:0:
26,181,165341,2,0,L|146:223,1,110,8|0,3:1|3:0,0:0:0:0:
165,321,165874,6,0,P|234:279|317:289,1,165,4|0,3:2|3:0,0:0:0:0:
359,321,166407,1,0,3:0:0:0:
429,236,166673,2,0,B|401:193|352:185|352:185|325:105,1,165,8|0,3:3|0:0,0:0:0:0:
311,67,167206,1,0,3:0:0:0:
200,67,167472,2,0,B|156:186|156:186|131:187|121:197,1,165,0|0,3:0|0:0,0:0:0:0:
86,238,168005,1,0,3:0:0:0:
56,344,168272,1,8,3:0:0:0:
159,381,168538,6,0,L|204:253,1,110,8|0,3:0|3:0,0:0:0:0:
286,214,169071,2,0,P|216:172|134:182,1,165,4|8,3:2|0:3,0:0:0:0:
92,214,169604,1,8,3:3:0:0:
57,109,169870,2,0,P|125:78|185:72,1,110,0|0,3:0|0:0,0:0:0:0:
269,78,170403,1,8,3:0:0:0:
359,141,170670,5,8,3:0:0:0:
343,249,170936,2,0,P|352:306|410:332,2,110,0|0|0,0:0|3:0|3:0,0:0:0:0:
256,181,171735,1,2,0:0:0:0:
256,181,172002,1,2,0:0:0:0:
169,249,172268,2,0,P|160:306|102:332,1,110,8|8,3:1|3:1,0:0:0:0:
59,238,172801,6,0,B|25:184|39:111|60:133|78:66|45:14,1,220,4|0,3:2|3:0,0:0:0:0:
161,18,173600,2,0,P|171:67|158:137,1,110,8|0,0:0|3:0,0:0:0:0:
190,232,174133,1,0,3:0:0:0:
283,290,174399,6,0,P|291:235|281:182,1,110,0|0,3:0|3:0,0:0:0:0:
254,133,174799,2,0,P|313:102|333:44,1,110,0|0,3:0|0:0,0:0:0:0:
345,12,175198,2,0,P|372:58|422:80,2,110,8|0|0,3:2|3:0|3:0,0:0:0:0:
239,44,175998,6,0,B|185:78|112:64|134:43|67:25|15:58,1,220,0|0,3:0|3:0,0:0:0:0:
23,161,176797,2,0,P|78:148|141:176,1,110,8|0,0:2|0:2,0:0:0:0:
63,254,177330,1,0,3:2:0:0:
154,315,177596,2,0,B|209:314|225:268|225:268|281:299|295:244|361:272,1,220,0|0,3:2|3:0,0:0:0:0:
460,310,178396,2,0,L|480:185,2,110,8|0|0,3:2|3:0|3:0,0:0:0:0:
350,268,179195,6,0,L|341:94,1,165,4|0,3:2|0:0,0:0:0:0:
330,49,179728,1,0,0:0:0:0:
232,114,179994,2,0,L|223:223,2,110,8|0|0,3:0|3:0|3:0,0:0:0:0:
166,25,180793,6,0,P|129:98|49:151,1,165,8|0,3:0|0:0,0:0:0:0:
12,168,181326,1,8,3:0:0:0:
64,264,181593,2,0,P|78:318|70:372,2,110,0|8|0,3:0|0:1|3:0,0:0:0:0:
12,168,182392,6,0,P|111:173|209:93,1,220,0|0,0:0|0:0,0:0:0:0:
256,6,183191,1,8,0:0:0:0:
309,102,183457,2,0,P|355:151|395:171,1,110,0|8,0:0|0:0,0:0:0:0:
501,187,183990,1,0,0:0:0:0:
456,288,184257,1,8,0:0:0:0:
347,302,184523,6,0,L|222:318,1,110,0|8,3:0|0:0,0:0:0:0:
128,329,185056,1,0,0:0:0:0:
92,225,185322,2,0,L|166:216,1,55,8|0,3:0|0:0,0:0:0:0:
200,204,185589,2,0,P|244:155|248:97,1,110,0|8,0:0|0:3,0:0:0:0:
260,3,186122,1,0,3:0:0:0:
260,3,186388,1,8,3:3:0:0:
359,50,186654,6,0,B|432:48|432:48|448:102|503:113,1,165,4|0,3:2|2:0,0:0:0:0:
508,163,187187,2,0,L|502:274,1,110,0|8,0:0|0:0,0:0:0:0:
424,350,187720,1,0,0:0:0:0:
318,318,187987,1,8,0:0:0:0:
310,208,188253,2,0,P|317:117|301:33,1,165,0|0,2:0|2:0,0:0:0:0:
255,18,188786,6,0,L|143:29,1,110,0|8,0:0|0:0,0:0:0:0:
37,8,189319,1,0,0:0:0:0:
66,113,189585,1,8,0:0:0:0:
15,211,189852,2,0,P|8:260|18:323,1,110,0|8,0:0|0:0,0:0:0:0:
54,359,190251,1,0,2:0:0:0:
107,345,190384,2,0,L|227:338,1,110,0|8,0:0|0:0,0:0:0:0:
302,269,190917,6,0,B|372:275|372:275|394:330|448:337,1,165,0|0,0:0|2:0,0:0:0:0:
493,323,191450,2,0,L|498:209,1,110,0|8,0:0|0:0,0:0:0:0:
469,165,191850,1,0,2:0:0:0:
418,144,191983,2,0,P|363:155|303:139,1,110,0|8,0:0|0:0,0:0:0:0:
201,140,192516,2,0,P|147:151|94:139,1,110,0|8,2:0|0:0,0:0:0:0:
98,29,193049,6,0,P|151:17|204:29,1,110,0|8,0:0|0:0,0:0:0:0:
255,50,193448,1,0,2:0:0:0:
292,90,193582,2,0,L|289:214,1,110,0|8,0:0|0:0,0:0:0:0:
203,268,194114,1,0,0:0:0:0:
278,348,194381,1,2,0:0:0:0:
372,291,194647,2,0,L|502:300,1,110,2|2,0:0|2:3,0:0:0:0:
486,188,195180,6,0,P|498:124|481:22,1,165,4|0,0:2|2:0,0:0:0:0:
430,6,195713,2,0,P|379:14|305:0,1,110,0|8,0:0|0:0,0:0:0:0:
223,57,196246,1,0,0:0:0:0:
304,130,196512,1,8,0:0:0:0:
205,180,196779,2,0,L|87:171,1,110,0|8,2:0|0:0,0:0:0:0:
9,240,197312,5,0,0:0:0:0:
33,347,197578,1,8,0:0:0:0:
142,341,197844,2,0,L|259:335,1,110,0|8,0:0|0:0,0:0:0:0:
292,232,198377,2,0,P|279:162|297:62,1,165,0|0,0:0|0:0,0:0:0:0:
335,34,198910,2,0,L|455:27,1,110,0|8,0:0|0:0,0:0:0:0:
492,55,199310,1,0,0:0:0:0:
496,109,199443,6,0,L|488:232,1,110,0|8,0:0|0:0,0:0:0:0:
412,298,199976,2,0,P|339:326|261:287,1,165,0|0,0:0|2:0,0:0:0:0:
231,246,200509,2,0,P|241:189|234:131,1,110,0|8,0:0|0:0,0:0:0:0:
205,91,200908,1,0,0:0:0:0:
156,64,201042,2,0,L|44:69,1,110,0|8,2:0|0:0,0:0:0:0:
7,175,201574,6,0,L|14:300,1,110,0|8,0:0|0:0,0:0:0:0:
19,339,201974,1,0,0:0:0:0:
67,364,202107,2,0,P|132:368|177:348,1,110,0|8,0:0|0:0,0:0:0:0:
255,278,202640,2,0,L|260:159,1,110,0|8,0:0|0:0,0:0:0:0:
184,87,203173,2,0,L|115:82,2,55,0|0|0,0:0|0:0|2:0,0:0:0:0:
268,16,203706,6,0,P|365:15|423:60,1,165,4|0,0:2|0:0,0:0:0:0:
441,102,204238,1,0,0:0:0:0:
388,199,204505,2,0,L|392:319,2,110,8|0|0,0:0|0:0|0:0,0:0:0:0:
280,225,205304,6,0,B|224:186|157:207|189:232|125:263|53:218,1,220,0|0,0:0|0:0,0:0:0:0:
22,129,206103,1,8,0:0:0:0:
91,43,206370,1,0,0:0:0:0:
197,69,206636,1,0,0:0:0:0:
213,177,206903,6,0,B|197:289|197:289|217:309|236:337,1,165,4|0,0:2|0:0,0:0:0:0:
264,371,207435,1,0,0:0:0:0:
374,376,207702,1,8,0:0:0:0:
476,336,207968,2,0,P|485:262|473:223,1,110,0|8,0:0|0:0,0:0:0:0:
467,118,208501,2,0,L|351:128,1,110,0|8,0:0|0:0,0:0:0:0:
245,133,209034,6,0,L|125:124,1,110
43,63,209567,1,0,0:0:0:0:
135,3,209833,1,8,0:0:0:0:
237,43,210100,2,0,L|357:34,1,110,0|0,0:0|0:0,0:0:0:0:
443,87,210633,2,0,P|450:147|441:202,1,110
393,294,211165,5,4,3:2:0:0:
286,266,211431,1,4,3:0:0:0:
78,192,211964,1,4,3:0:0:0:
185,164,212230,1,4,3:0:0:0:
397,108,212763,1,4,3:0:0:0:
290,80,213030,1,4,3:0:0:0:
97,186,213562,2,0,P|178:157|261:190,1,165,4|0,3:2|3:0,0:0:0:0:
291,217,214095,1,0,3:0:0:0:
372,291,214362,5,4,3:2:0:0:
404,186,214628,1,4,3:0:0:0:
255,25,215161,1,4,3:0:0:0:
255,134,215427,1,4,3:0:0:0:
140,291,215960,1,4,3:0:0:0:
108,186,216227,1,4,3:0:0:0:
256,25,216760,2,0,L|256:193,1,165,4|0,3:0|0:0,0:0:0:0:
256,245,217292,1,4,3:2:0:0:
306,342,217559,6,0,P|357:290|365:246,1,110,4|0,3:2|3:0,0:0:0:0:
256,245,218092,1,8,0:0:0:0:
206,342,218358,2,0,P|155:290|147:246,1,110,4|4,3:0|3:0,0:0:0:0:
177,149,218891,1,8,0:0:0:0:
256,73,219157,5,4,3:0:0:0:
335,149,219424,2,0,P|357:120|365:93,1,55,4|8,3:0|0:0,0:0:0:0:
361,47,219690,1,8,0:0:0:0:
256,73,219957,1,4,3:0:0:0:
151,47,220223,1,0,0:0:0:0:
178,153,220490,1,4,3:2:0:0:
194,261,220756,5,8,3:1:0:0:
144,358,221022,1,8,3:1:0:0:
364,356,221555,1,8,3:1:0:0:
314,259,221822,1,8,3:1:0:0:
364,28,222355,5,8,3:1:0:0:
314,125,222621,1,4,3:0:0:0:
204,125,222887,1,4,3:0:0:0:
148,28,223154,1,4,3:0:0:0:
256,28,223420,1,4,3:0:0:0:
364,28,223687,1,4,3:0:0:0:
414,125,223953,6,0,L|414:240,1,110,4|0,3:2|3:0,0:0:0:0:
332,308,224486,2,0,L|263:304,1,55,8|0,3:0|0:0,0:0:0:0:
242,347,224752,1,4,3:0:0:0:
133,368,225019,1,0,3:0:0:0:
31,326,225285,1,8,3:0:0:0:
8,217,225552,6,0,P|20:136|8:91,1,110,4|0,3:0|3:0,0:0:0:0:
15,54,225951,1,8,0:3:0:0:
117,14,226218,1,0,0:0:0:0:
117,14,226351,2,0,P|183:40|279:21,1,165,4|0,3:0|0:0,0:0:0:0:
324,3,226884,2,0,L|390:8,1,55,8|0,3:3|0:0,0:0:0:0:
432,18,227150,5,4,3:2:0:0:
506,98,227417,1,0,3:0:0:0:
506,98,227550,2,0,P|495:162|505:220,1,110,8|0,0:3|0:0,0:0:0:0:
464,248,227950,2,0,P|474:309|461:371,2,110,4|0|8,3:0|3:0|3:0,0:0:0:0:
368,193,228749,6,0,P|313:182|246:198,1,110,4|0,3:0|3:0,0:0:0:0:
217,226,229149,2,0,L|214:337,1,110,8|0,0:3|0:0,0:0:0:0:
260,365,229548,1,12,3:0:0:0:
368,347,229815,1,0,3:0:0:0:
442,266,230081,2,0,L|446:197,1,55,8|0,3:0|0:0,0:0:0:0:
481,169,230347,6,0,P|490:86|480:42,1,110,4|0,3:2|3:0,0:0:0:0:
448,19,230747,1,8,0:3:0:0:
341,48,231014,1,0,0:0:0:0:
341,48,231147,2,0,L|228:42,1,110,4|0,3:0|3:0,0:0:0:0:
144,110,231680,1,8,0:3:0:0:
213,194,231946,6,0,P|217:257|206:307,1,110,4|0,3:0|3:0,0:0:0:0:
175,347,232346,2,0,L|60:336,1,110,8|0,0:3|0:0,0:0:0:0:
15,359,232745,2,0,P|39:269|23:133,1,220,4|8,3:0|3:0,0:0:0:0:
48,35,233545,6,0,B|107:8|163:32|150:56|211:80|266:45,1,220,4|0,3:0|3:0,0:0:0:0:
348,111,234344,1,8,3:0:0:0:
262,179,234610,1,0,0:0:0:0:
155,149,234877,1,0,3:0:0:0:
56,196,235143,6,0,P|39:249|45:306,1,110,4|0,3:0|0:0,0:0:0:0:
136,362,235676,1,0,3:0:0:0:
240,327,235942,2,0,L|363:335,2,110,12|0|0,3:3|0:0|3:0,0:0:0:0:
155,255,236742,6,0,P|138:153|165:38,1,220,4|0,3:0|3:0,0:0:0:0:
273,38,237541,2,0,P|298:144|281:252,1,220,12|0,3:0|3:0,0:0:0:0:
345,342,238340,6,0,L|462:344,1,110,12|0,3:0|0:0,0:0:0:0:
497,242,238873,1,0,3:0:0:0:
438,148,239140,2,0,P|451:79|438:27,1,110,12|0,3:0|3:0,0:0:0:0:
338,8,239672,1,0,3:0:0:0:
238,55,239939,6,0,P|228:153|242:222,1,165,4|0,3:2|0:0,0:0:0:0:
273,262,240472,1,0,0:0:0:0:
195,339,240738,1,0,3:0:0:0:
89,307,241005,2,0,L|91:246,1,55,8|4,3:0|3:0,0:0:0:0:
44,222,241271,1,4,3:0:0:0:
64,113,241538,6,0,P|166:144|285:109,1,220,4|0,3:2|3:0,0:0:0:0:
368,60,242337,2,0,P|425:48|491:66,2,110,8|0|0,0:3|0:0|3:0,0:0:0:0:
420,157,243136,2,0,P|448:263|417:367,1,220,0|0,3:0|3:0,0:0:0:0:
307,366,243935,2,0,P|287:313|289:258,1,110,8|0,0:3|0:0,0:0:0:0:
313,153,244468,1,0,3:0:0:0:
369,58,244735,6,0,P|263:30|159:61,1,220,0|0,3:0|3:0,0:0:0:0:
112,160,245534,2,0,P|55:172|-11:154,2,110,8|0|0,0:3|0:0|3:0,0:0:0:0:
221,149,246333,2,0,P|190:251|225:370,1,220,0|0,3:0|3:0,0:0:0:0:
328,358,247133,2,0,P|348:305|346:250,1,110,8|8,0:3|0:3,0:0:0:0:
322,145,247665,1,0,3:0:0:0:
259,54,247932,5,4,3:2:0:0:
259,54,248465,1,0,3:0:0:0:
205,150,248731,2,0,B|157:186|85:187|110:128|33:130|-8:166,1,220,8|0,0:3|3:0,0:0:0:0:
52,257,249530,1,4,3:2:0:0:
52,257,250063,1,0,3:0:0:0:
139,323,250330,2,0,B|173:353|250:355|225:296|297:297|345:333,1,220,8|0,0:3|3:0,0:0:0:0:
453,315,251129,6,0,P|448:204|357:217,1,220,0|0,3:0|3:0,0:0:0:0:
326,106,251928,2,0,P|256:35|188:106,1,220,8|0,0:3|3:0,0:0:0:0:
148,210,252728,2,0,P|49:216|59:315,1,220,0|0,3:0|3:0,0:0:0:0:
168,323,253527,1,8,0:3:0:0:
253,254,253793,1,8,0:3:0:0:
240,144,254060,1,0,3:0:0:0:
320,69,254326,6,0,P|425:58|506:140,1,220,4|0,3:2|3:0,0:0:0:0:
451,229,255125,2,0,L|334:232,1,110,8|0,0:3|0:0,0:0:0:0:
335,341,255658,1,0,3:0:0:0:
224,334,255925,2,0,P|119:345|38:263,1,220,0|0,3:0|3:0,0:0:0:0:
93,174,256724,2,0,L|210:171,1,110,8|0,0:3|0:0,0:0:0:0:
278,90,257257,1,0,3:0:0:0:
197,15,257523,6,0,B|124:5|124:5|96:79|12:84,1,220,4|0,3:2|3:0,0:0:0:0:
34,192,258323,2,0,P|26:263|148:322,1,220,8|0,0:3|3:0,0:0:0:0:
242,276,259122,2,0,L|245:156,1,110,0|0,3:0|0:0,0:0:0:0:
161,93,259655,1,0,3:0:0:0:
248,27,259921,2,0,B|303:3|369:26|342:53|406:76|459:47,1,220,8|0,0:3|3:0,0:0:0:0:
496,151,260720,6,0,P|462:237|490:362,1,220,4|0,3:2|3:0,0:0:0:0:
377,355,261520,1,8,0:3:0:0:
278,306,261786,1,0,0:0:0:0:
271,195,262053,1,0,3:0:0:0:
349,118,262319,2,0,P|332:17|223:4,1,220,0|0,3:0|3:0,0:0:0:0:
158,84,263118,2,0,L|32:71,1,110,8|0,0:3|0:0,0:0:0:0:
17,178,263651,1,0,3:0:0:0:
30,287,263918,6,0,P|99:316|198:289,1,165,0|8,3:0|0:3,0:0:0:0:
229,266,264450,1,0,3:0:0:0:
329,310,264717,2,0,P|341:256|323:186,2,110,8|0|0,0:3|3:0|3:0,0:0:0:0:
427,359,265516,1,2,0:0:0:0:
256,192,265649,12,2,267647,0:0:0:0:
256,192,284166,12,0,285631,0:0:0:0:
106,113,286297,6,0,P|192:163|194:233,1,165,4|0,0:2|2:0,0:0:0:0:
197,275,286829,2,0,P|256:323|314:274,1,165,2|0,0:0|2:0,0:0:0:0:
315,220,287362,1,2,0:0:0:0:
364,120,287629,1,8,0:0:0:0:
471,143,287895,2,0,P|465:86|436:40,1,110,2|8,2:3|0:0,0:0:0:0:
384,28,288295,5,0,2:0:0:0:
329,36,288428,2,0,L|212:42,1,110,2|8,0:0|0:0,0:0:0:0:
153,129,288961,2,0,L|262:123,1,110,2|8,0:0|0:0,0:0:0:0:
336,206,289494,2,0,B|152:215,1,165,2|0,0:0|2:0,0:0:0:0:
116,220,290027,2,0,P|80:261|29:280,1,110,2|8,0:0|0:0,0:0:0:0:
32,170,290559,6,0,B|54:121|102:121|102:121|176:119,1,165,6|0,0:2|2:0,0:0:0:0:
211,75,291092,2,0,B|237:75|256:100|256:100|271:80|302:71,1,110,2|8,0:0|0:0,0:0:0:0:
357,65,291492,1,0,2:0:0:0:
395,103,291625,2,0,L|523:99,1,110,2|8,0:0|0:0,0:0:0:0:
492,208,292158,2,0,L|382:211,1,110,2|8,2:0|0:0,0:0:0:0:
268,215,292691,6,0,P|286:275|336:314,1,110,2|8,0:0|0:0,0:0:0:0:
430,298,293224,1,2,0:0:0:0:
492,208,293490,1,8,0:0:0:0:
435,113,293757,1,2,0:0:0:0:
324,118,294023,2,0,B|308:76|347:62|325:10,2,110,10|2|10,0:0|0:0|0:0,0:0:0:0:
375,215,294822,6,0,P|354:281|274:259,1,165,6|0,0:2|2:0,0:0:0:0:
238,221,295355,2,0,B|199:220|165:257|165:257|152:212|99:200,1,165,2|0,0:0|2:0,0:0:0:0:
54,203,295888,1,6,0:2:0:0:
44,93,296154,1,8,0:0:0:0:
113,8,296421,2,0,P|187:28|233:62,1,110,2|8,0:0|0:0,0:0:0:0:
256,81,296820,5,0,2:0:0:0:
297,45,296954,2,0,P|345:19|399:8,1,110,6|8,0:2|0:0,0:0:0:0:
468,93,297487,1,2,0:0:0:0:
458,203,297753,1,8,0:0:0:0:
392,290,298019,2,0,P|320:312|292:242,1,165,6|0,0:2|2:0,0:0:0:0:
314,192,298552,1,2,0:0:0:0:
380,104,298819,1,8,0:0:0:0:
312,17,299085,6,8,P|257:68|202:18,1,165,6|0,0:2|2:0,0:0:0:0:
149,1,299618,1,2,0:0:0:0:
105,102,299884,1,8,0:0:0:0:
191,170,300151,2,0,P|211:220|130:278,1,165,6|0,0:2|2:0,0:0:0:0:
80,269,300684,1,2,0:0:0:0:
22,175,300950,1,8,0:0:0:0:
105,102,301217,6,0,P|157:68|234:70,1,110,6|8,0:2|0:0,0:0:0:0:
292,128,301749,1,6,0:2:0:0:
264,234,302016,1,8,0:0:0:0:
362,281,302282,2,0,P|389:233|394:163,1,110,6|0,0:2|0:0,0:0:0:0:
501,210,302815,2,0,P|474:162|467:108,1,110,2|8,0:0|0:0,0:0:0:0:
368,58,303348,6,0,B|325:51|292:89|292:89|261:50|224:56,1,165,6|0,0:2|0:0,0:0:0:0:
173,75,303880,1,2,2:0:0:0:
81,135,304147,2,0,P|44:89|40:28,2,110,8|2|0,0:0|0:0|0:0,0:0:0:0:
181,179,304946,2,0,B|262:150|261:209|347:173,1,165,2|0,0:0|0:0,0:0:0:0:
390,149,305479,1,2,0:0:0:0:
464,230,305745,2,0,P|486:286|479:344,2,110,8|2|0,0:0|0:0|0:0,0:0:0:0:
374,295,306545,6,0,B|324:278|273:295|257:336|257:336|240:295|189:278|139:295,1,275,6|0,0:2|0:0,0:0:0:0:
89,318,307344,1,8,0:0:0:0:
37,220,307610,2,0,P|170:170|282:195,1,220,2|2,0:0|2:0,0:0:0:0:
351,209,308410,1,8,0:0:0:0:
447,155,308676,2,0,P|413:126|335:101,1,110,2|0,0:0|0:0,0:0:0:0:
351,209,309209,2,0,P|385:238|463:263,1,110,2|0,0:0|0:0,0:0:0:0:
447,155,309742,5,2,0:0:0:0:
352,102,310008,1,0,0:0:0:0:
256,157,310275,1,2,0:0:0:0:
160,102,310541,1,0,0:0:0:0:
65,155,310808,6,0,P|86:230|176:255,1,165,4|0,3:2|0:0,0:0:0:0:
215,244,311340,1,0,3:0:0:0:
325,239,311607,2,0,P|308:313|272:358,2,110,10|0|0,0:3|0:0|3:0,0:0:0:0:
401,159,312406,2,0,P|463:171|533:155,2,110,0|0|0,3:0|0:0|3:0,0:0:0:0:
298,118,313205,1,8,0:3:0:0:
377,42,313472,1,2,0:0:0:0:
485,57,313738,1,2,3:0:0:0:
508,164,314005,6,0,P|503:251|465:331,1,165,0|0,3:0|0:0,0:0:0:0:
424,293,314538,1,0,3:0:0:0:
315,274,314804,2,0,P|332:348|368:393,2,110,10|0|0,0:3|0:0|3:0,0:0:0:0:
223,212,315603,2,0,P|161:224|91:208,2,110,0|2|2,3:0|0:0|3:0,0:0:0:0:
311,146,316403,1,8,0:3:0:0:
218,86,316669,1,2,3:0:0:0:
108,89,316935,1,2,3:0:0:0:
27,164,317202,6,0,P|20:241|48:339,1,165,0|0,3:0|0:0,0:0:0:0:
82,361,317735,1,0,3:0:0:0:
172,298,318001,2,0,P|152:245|155:185,2,110,10|0|0,0:3|0:0|3:0,0:0:0:0:
276,263,318800,2,0,P|256:210|259:150,2,110,4|0|0,3:2|3:0|3:0,0:0:0:0:
380,227,319600,1,8,0:3:0:0:
479,274,319866,1,2,0:0:0:0:
506,167,320133,1,2,3:0:0:0:
482,59,320399,6,0,P|405:66|307:38,1,165,0|8,3:0|0:3,0:0:0:0:
275,13,320932,1,0,3:0:0:0:
185,76,321198,2,0,P|133:56|79:57,2,110,10|0|0,0:3|0:0|3:0,0:0:0:0:
110,157,321998,2,0,P|61:182|27:224,2,110,2|8|0,3:0|0:3|3:0,0:0:0:0:
209,203,322797,1,8,3:3:0:0:
194,312,323063,1,8,0:3:0:0:
86,333,323330,1,0,3:0:0:0:
4,259,323596,6,0,L|12:76,1,165,4|0,3:2|0:0,0:0:0:0:
48,53,324129,1,0,3:0:0:0:
152,87,324395,2,0,L|271:81,1,110,10|0,0:3|0:0,0:0:0:0:
353,20,324928,1,0,3:0:0:0:
449,72,325195,2,0,P|461:133|455:195,2,110,0|0|0,3:0|0:0|3:0,0:0:0:0:
353,20,325994,1,8,0:3:0:0:
261,81,326260,1,2,0:0:0:0:
286,188,326527,1,2,3:0:0:0:
218,274,326793,6,0,L|42:264,1,165,0|0,3:0|0:0,0:0:0:0:
9,297,327326,1,0,3:0:0:0:
85,376,327593,1,10,0:3:0:0:
193,360,327859,2,0,L|326:366,1,110,0|0,0:0|3:0,0:0:0:0:
406,338,328392,2,0,P|414:276|404:218,1,110,0|2,3:0|0:0,0:0:0:0:
494,161,328925,1,2,3:0:0:0:
396,110,329191,2,0,P|389:55|397:1,2,110,8|2|2,0:3|0:0|3:0,0:0:0:0:
308,177,329990,6,0,P|230:192|145:164,1,165,0|0,3:0|0:0,0:0:0:0:
106,132,330523,1,0,3:0:0:0:
181,52,330790,2,0,P|244:43|307:60,2,110,10|0|0,0:3|0:0|3:0,0:0:0:0:
106,132,331589,2,0,L|100:244,1,110,0|0,3:0|0:0,0:0:0:0:
7,301,332122,1,0,3:0:0:0:
101,356,332388,1,8,0:3:0:0:
195,299,332655,2,0,L|314:297,1,110,2|2,0:0|3:0,0:0:0:0:
396,358,333188,6,0,P|477:338|495:258,1,165,0|0,3:0|0:0,0:0:0:0:
475,216,333720,1,0,3:0:0:0:
378,162,333987,2,0,L|385:50,2,110,10|2|2,0:3|3:0|3:0,0:0:0:0:
274,199,334786,1,2,3:0:0:0:
