osu file format v14

[General]
AudioFilename: yukizakura - Natsukage~Ano Hikoukigumo wo Koeta, Sono Saki e~.mp3
AudioLeadIn: 0
PreviewTime: 118584
Countdown: 0
SampleSet: Soft
StackLeniency: 0.5
Mode: 0
LetterboxInBreaks: 0
WidescreenStoryboard: 1

[Editor]
DistanceSpacing: 1.2
BeatDivisor: 4
GridSize: 4
TimelineZoom: 1.1

[Metadata]
Title:Natsukage ~Ano Hikoukigumo wo Koeta, Sono Saki e~
TitleUnicode:夏影 ~あの飛行機雲を超えた、その先へ~
Artist:yukizakurasou
ArtistUnicode:雪桜草
Creator:Garden
Version:Recollections of Summer
Source:AIR
Tags:Narcissu Karen collaboration yuki maeda jun Nostalgia Mirage of Key
BeatmapID:1417243
BeatmapSetID:664684

[Difficulty]
HPDrainRate:6
CircleSize:4
OverallDifficulty:7
ApproachRate:8
SliderMultiplier:2
SliderTickRate:1

[Events]
//Background and Video events
0,0,"natsukage.jpg",0,0
//Break Periods
//Storyboard Layer 0 (Background)
//Storyboard Layer 1 (Fail)
//Storyboard Layer 2 (Pass)
//Storyboard Layer 3 (Foreground)
Sprite,Foreground,Centre,"Narcissu.png",558,339 C,0,29865,,255,128,255 F,0,29865,30654,0,0.6 M,0,29865,30852,558,339,559,340 F,0,30654,30852,0.6,1 F,2,30852,31444,1,0.8 F,0,55128,55918,0.8,0
Sprite,Foreground,Centre,"Narcissu.png",460,338 F,0,29865,30654,0,0.6 M,0,29865,30852,560,338,560,340 F,0,30654,30852,0.6,1 F,2,30852,31444,1,0.8 F,0,55128,55918,0.8,0
Sprite,Foreground,Centre,"Garden.png",158,139 C,0,55128,,255,255,128 F,0,55128,55918,0,0.6 M,0,55128,56115,158,139,159,140 F,0,55918,56115,0.6,1 F,2,56115,56707,1,0.8 F,0,86707,87496,0.8,0
Sprite,Foreground,Centre,"Garden.png",160,138 F,0,55128,55918,0,0.6 M,0,55128,56115,160,138,160,140 F,0,55918,56115,0.6,1 F,2,56115,56707,1,0.8 F,0,86707,87496,0.8,0
Sprite,Foreground,Centre,"Narcissu.png",458,139 C,0,86707,,255,128,255 F,0,86707,87496,0,0.6 M,0,86707,87694,458,139,459,140 F,0,87496,87694,0.6,1 F,2,87694,88286,1,0.8 F,0,118286,119075,0.8,0
Sprite,Foreground,Centre,"Narcissu.png",460,138 F,0,86707,87496,0,0.6 M,0,86707,87694,460,138,460,140 F,0,87496,87694,0.6,1 F,2,87694,88286,1,0.8 F,0,118286,119075,0.8,0
Sprite,Foreground,Centre,"Garden.png",158,389 C,0,118286,,255,255,128 F,0,118286,119075,0,0.6 M,0,118286,119273,158,389,159,390 F,0,119075,119273,0.6,1 F,2,119273,119865,1,0.8 F,0,143549,144339,0.8,0
Sprite,Foreground,Centre,"Garden.png",160,388 F,0,118286,119075,0,0.6 M,0,118286,119273,160,388,160,390 F,0,119075,119273,0.6,1 F,2,119273,119865,1,0.8 F,0,143549,144339,0.8,0
Sprite,Foreground,Centre,"Narcissu.png",258,139 C,0,143549,,255,128,255 F,0,143549,144339,0,0.6 M,0,143549,144536,258,139,259,140 F,0,144339,144536,0.6,1 F,2,144536,145128,1,0.8 F,0,168812,169602,0.8,0
Sprite,Foreground,Centre,"Narcissu.png",260,138 F,0,143549,144339,0,0.6 M,0,143549,144536,260,138,260,140 F,0,144339,144536,0.6,1 F,2,144536,145128,1,0.8 F,0,168812,169602,0.8,0
Sprite,Foreground,Centre,"Garden.png",358,339 C,0,168812,,255,255,128 F,0,168812,169602,0,0.6 M,0,168812,169799,358,339,359,340 F,0,169602,169799,0.6,1 F,2,169799,170391,1,0.8 F,0,194075,194865,0.8,0
Sprite,Foreground,Centre,"Garden.png",360,338 F,0,168812,169602,0,0.6 M,0,168812,169799,360,338,360,340 F,0,169602,169799,0.6,1 F,2,169799,170391,1,0.8 F,0,194075,194865,0.8,0
Sprite,Foreground,Centre,"Narcissu.png",388,139 C,0,194075,,255,128,255 F,0,194075,194865,0,0.6 M,0,194075,195062,388,139,389,140 F,0,194865,195062,0.6,1 F,2,195062,195654,1,0.8 F,0,219339,220128,0.8,0
Sprite,Foreground,Centre,"Narcissu.png",390,138 F,0,194075,194865,0,0.6 M,0,194075,195062,390,138,390,140 F,0,194865,195062,0.6,1 F,2,195062,195654,1,0.8 F,0,219339,220128,0.8,0
Sprite,Foreground,Centre,"Garden.png",458,369 C,0,219339,,255,255,128 F,0,219339,220128,0,0.6 M,0,219339,220325,458,369,459,370 F,0,220128,220325,0.6,1 F,2,220325,220918,1,0.8 F,0,250918,251707,0.8,0
Sprite,Foreground,Centre,"Garden.png",460,368 F,0,219339,220128,0,0.6 M,0,219339,220325,460,368,460,370 F,0,220128,220325,0.6,1 F,2,220325,220918,1,0.8 F,0,250918,251707,0.8,0
Sprite,Foreground,Centre,"Karen.png",158,339 C,0,250918,,255,0,0 F,0,250918,251707,0,0.6 M,0,250918,251904,158,339,159,340 F,0,251707,251904,0.6,1 F,2,251904,252496,1,0.8 F,0,276970,277168,0.8,1 F,2,277168,277760,1,0.8 V,2,303545,303657,1,1,1.1,1.1 F,0,303545,303769,0.8,1 V,0,303657,303800,1.1,1.1,5,0.025 F,0,303769,304104,1,0
Sprite,Foreground,Centre,"Karen.png",160,338 F,0,250918,251707,0,0.6 M,0,250918,251904,160,338,160,340 F,0,251707,251904,0.6,1 F,2,251904,252496,1,0.8 F,0,276970,277168,0.8,1 F,2,277168,277760,1,0.8 V,2,303545,303657,1,1,1.1,1.1 F,0,303545,303769,0.8,1 V,0,303657,303800,1.1,1.1,5,0.025 F,0,303769,304104,1,0
Sprite,Foreground,Centre,"Garden.png",158,139 C,0,305448,,255,255,128 F,0,305448,306365,0,0.6 M,0,305448,306576,158,139,159,140 F,0,306365,306576,0.6,1 F,2,306576,307210,1,0.8 F,0,332562,333407,0.8,0
Sprite,Foreground,Centre,"Garden.png",160,138 F,0,305448,306365,0,0.6 M,0,305448,306576,160,138,160,140 F,0,306365,306576,0.6,1 F,2,306576,307210,1,0.8 F,0,332562,333407,0.8,0
Sprite,Foreground,Centre,"Narcissu.png",558,339 C,0,332562,,255,128,255 F,0,332562,333407,0,0.6 M,0,332562,333618,558,339,559,340 F,0,333407,333618,0.6,1 F,2,333618,334252,1,0.8 F,0,356224,357069,0.8,0
Sprite,Foreground,Centre,"Narcissu.png",560,338 F,0,332562,333407,0,0.6 M,0,332562,333618,560,338,560,340 F,0,333407,333618,0.6,1 F,2,333618,334252,1,0.8 F,0,356224,357069,0.8,0
//Storyboard Sound Samples
Sample,56018,0,"drum-hitfinish5.wav",40
Sample,169702,0,"drum-hitfinish5.wav",40

[TimingPoints]
27597,789.473684210526,4,2,1,60,1,0
27597,-71.4285714285714,4,2,1,60,0,0
86807,-50,4,2,1,60,0,0
87202,-58.8235294117647,4,2,1,60,0,0
87597,-66.6666666666667,4,2,1,60,0,0
116018,-100,4,2,1,60,0,0
117991,-66.6666666666667,4,2,1,60,0,0
118386,-133.333333333333,4,2,1,60,0,0
118583,-133.333333333333,4,2,1,20,0,0
119175,-58.8235294117647,4,1,2,80,0,1
119373,-58.8235294117647,4,1,1,80,0,1
119965,-58.8235294117647,4,1,6,80,0,1
120162,-58.8235294117647,4,1,2,80,0,1
120360,-58.8235294117647,4,1,3,80,0,1
120754,-58.8235294117647,4,1,4,80,0,1
120952,-58.8235294117647,4,1,1,80,0,1
121544,-58.8235294117647,4,1,66,80,0,1
122136,-58.8235294117647,4,1,3,80,0,1
122333,-58.8235294117647,4,1,3,80,0,1
122728,-58.8235294117647,4,1,1,80,0,1
123123,-58.8235294117647,4,1,4,80,0,1
123320,-58.8235294117647,4,1,1,80,0,1
123715,-58.8235294117647,4,1,2,80,0,1
123912,-58.8235294117647,4,1,3,80,0,1
124110,-58.8235294117647,4,1,1,80,0,1
124702,-58.8235294117647,4,1,4,80,0,1
124899,-58.8235294117647,4,1,1,80,0,1
125491,-58.8235294117647,4,1,2,80,0,1
125886,-58.8235294117647,4,1,1,80,0,1
126281,-58.8235294117647,4,1,6,80,0,1
126478,-58.8235294117647,4,1,2,80,0,1
126675,-58.8235294117647,4,1,3,80,0,1
127070,-58.8235294117647,4,1,4,80,0,1
127268,-58.8235294117647,4,1,1,80,0,1
127860,-58.8235294117647,4,1,66,80,0,1
128254,-58.8235294117647,4,1,1,80,0,1
128452,-58.8235294117647,4,1,3,80,0,1
128649,-58.8235294117647,4,1,3,80,0,1
129044,-58.8235294117647,4,1,1,80,0,1
129439,-58.8235294117647,4,1,4,80,0,1
129636,-58.8235294117647,4,1,3,80,0,1
129833,-58.8235294117647,4,1,1,80,0,1
130228,-58.8235294117647,4,1,4,80,0,1
130425,-58.8235294117647,4,1,1,80,0,1
131018,-58.8235294117647,4,1,4,80,0,1
131215,-58.8235294117647,4,1,3,80,0,1
131412,-58.8235294117647,4,1,1,80,0,1
131807,-58.8235294117647,4,1,2,80,0,1
132202,-58.8235294117647,4,1,1,80,0,1
132596,-58.8235294117647,4,1,2,80,0,1
132794,-58.8235294117647,4,1,6,80,0,1
132991,-58.8235294117647,4,1,7,80,0,1
133386,-58.8235294117647,4,1,6,80,0,1
134175,-58.8235294117647,4,1,4,80,0,1
134373,-58.8235294117647,4,1,1,80,0,1
134965,-58.8235294117647,4,1,2,80,0,1
135360,-58.8235294117647,4,1,1,80,0,1
135754,-58.8235294117647,4,1,2,80,0,1
135952,-58.8235294117647,4,1,6,80,0,1
136149,-58.8235294117647,4,1,7,80,0,1
136346,-58.8235294117647,4,1,1,80,0,1
136544,-58.8235294117647,4,1,6,80,0,1
136939,-58.8235294117647,4,1,1,80,0,1
137333,-58.8235294117647,4,1,4,80,0,1
137531,-58.8235294117647,4,1,3,80,0,1
138123,-66.6666666666667,4,1,3,80,0,1
138912,-58.8235294117647,4,1,3,80,0,1
139110,-58.8235294117647,4,1,2,80,0,1
139702,-66.6666666666667,4,1,11,80,0,1
140491,-58.8235294117647,4,1,11,80,0,1
140689,-58.8235294117647,4,1,2,80,0,1
141281,-52.6315789473684,4,1,7,80,0,1
141478,-52.6315789473684,4,1,1,80,0,1
142070,-58.8235294117647,4,1,1,80,0,1
142662,-58.8235294117647,4,1,3,80,0,1
142860,-58.8235294117647,4,1,6,80,0,1
143057,-58.8235294117647,4,1,7,80,0,1
143254,-58.8235294117647,4,1,1,80,0,1
143649,-58.8235294117647,4,1,6,80,0,1
143846,-58.8235294117647,4,1,7,80,0,1
144439,-58.8235294117647,4,1,2,80,0,1
144833,-58.8235294117647,4,1,1,80,0,1
145228,-58.8235294117647,4,1,6,80,0,1
145425,-58.8235294117647,4,1,2,80,0,1
145623,-58.8235294117647,4,1,3,80,0,1
146018,-58.8235294117647,4,1,4,80,0,1
146215,-58.8235294117647,4,1,1,80,0,1
146807,-58.8235294117647,4,1,66,80,0,1
147202,-58.8235294117647,4,1,3,80,0,1
147991,-58.8235294117647,4,1,1,80,0,1
148386,-58.8235294117647,4,1,4,80,0,1
148978,-58.8235294117647,4,1,2,80,0,1
149175,-58.8235294117647,4,1,3,80,0,1
149965,-58.8235294117647,4,1,4,80,0,1
150754,-58.8235294117647,4,1,2,80,0,1
151544,-58.8235294117647,4,1,6,80,0,1
151741,-58.8235294117647,4,1,2,80,0,1
151939,-58.8235294117647,4,1,3,80,0,1
152333,-58.8235294117647,4,1,4,80,0,1
152531,-58.8235294117647,4,1,1,80,0,1
153123,-58.8235294117647,4,1,66,80,0,1
153715,-58.8235294117647,4,1,3,80,0,1
154307,-58.8235294117647,4,1,1,80,0,1
154702,-58.8235294117647,4,1,4,80,0,1
154899,-58.8235294117647,4,1,3,80,0,1
155491,-58.8235294117647,4,1,4,80,0,1
156281,-58.8235294117647,4,1,4,80,0,1
156478,-58.8235294117647,4,1,3,80,0,1
157070,-58.8235294117647,4,1,2,80,0,1
158057,-58.8235294117647,4,1,6,80,0,1
158254,-58.8235294117647,4,1,7,80,0,1
158649,-58.8235294117647,4,1,6,80,0,1
159439,-58.8235294117647,4,1,4,80,0,1
160228,-58.8235294117647,4,1,2,80,0,1
161215,-58.8235294117647,4,1,6,80,0,1
161412,-58.8235294117647,4,1,7,80,0,1
161807,-58.8235294117647,4,1,6,80,0,1
162596,-58.8235294117647,4,1,4,80,0,1
162794,-58.8235294117647,4,1,3,80,0,1
163386,-66.6666666666667,4,1,3,80,0,1
164175,-58.8235294117647,4,1,3,80,0,1
164373,-58.8235294117647,4,1,2,80,0,1
164965,-66.6666666666667,4,1,11,80,0,1
165754,-58.8235294117647,4,1,7,80,0,1
165952,-58.8235294117647,4,1,11,80,0,1
166544,-52.6315789473684,4,1,7,80,0,1
166741,-52.6315789473684,4,1,1,80,0,1
167333,-58.8235294117647,4,1,1,80,0,1
167925,-58.8235294117647,4,1,6,80,0,1
168123,-58.8235294117647,4,1,7,80,0,1
169702,-71.4285714285714,4,2,1,60,0,0
194965,-66.6666666666667,4,2,1,60,0,0
220228,-62.5,4,2,1,60,0,0
248649,-100,4,2,1,60,0,0
250623,-62.5,4,2,1,60,0,0
251018,-133.333333333333,4,2,1,60,0,0
251215,-133.333333333333,4,2,1,20,0,0
251807,-58.8235294117647,4,1,2,80,0,1
252202,-58.8235294117647,4,1,1,80,0,1
252596,-58.8235294117647,4,1,6,80,0,1
252794,-58.8235294117647,4,1,2,80,0,1
252991,-58.8235294117647,4,1,3,80,0,1
253386,-58.8235294117647,4,1,4,80,0,1
254175,-58.8235294117647,4,1,66,80,0,1
254373,-58.8235294117647,4,1,3,80,0,1
255360,-58.8235294117647,4,1,1,80,0,1
255754,-58.8235294117647,4,1,4,80,0,1
256346,-58.8235294117647,4,1,2,80,0,1
256544,-58.8235294117647,4,1,3,80,0,1
257333,-58.8235294117647,4,1,4,80,0,1
258123,-58.8235294117647,4,1,2,80,0,1
258912,-58.8235294117647,4,1,6,80,0,1
259110,-58.8235294117647,4,1,2,80,0,1
259307,-58.8235294117647,4,1,3,80,0,1
259702,-58.8235294117647,4,1,4,80,0,1
260491,-58.8235294117647,4,1,66,80,0,1
261083,-58.8235294117647,4,1,3,80,0,1
262070,-58.8235294117647,4,1,4,80,0,1
262268,-58.8235294117647,4,1,3,80,0,1
262860,-58.8235294117647,4,1,4,80,0,1
263846,-58.8235294117647,4,1,3,80,0,1
264439,-58.8235294117647,4,1,2,80,0,1
265425,-58.8235294117647,4,1,6,80,0,1
265623,-58.8235294117647,4,1,7,80,0,1
266018,-58.8235294117647,4,1,6,80,0,1
266807,-58.8235294117647,4,1,4,80,0,1
267004,-58.8235294117647,4,1,3,80,0,1
267596,-58.8235294117647,4,1,2,80,0,1
268583,-58.8235294117647,4,1,6,80,0,1
268781,-58.8235294117647,4,1,7,80,0,1
269175,-58.8235294117647,4,1,6,80,0,1
269965,-58.8235294117647,4,1,4,80,0,1
270162,-58.8235294117647,4,1,3,80,0,1
270754,-66.6666666666667,4,1,3,80,0,1
271544,-58.8235294117647,4,1,3,80,0,1
271741,-58.8235294117647,4,1,2,80,0,1
272333,-66.6666666666667,4,1,11,80,0,1
273123,-58.8235294117647,4,1,11,80,0,1
273320,-58.8235294117647,4,1,2,80,0,1
273912,-50,4,1,7,80,0,1
274110,-50,4,1,1,80,0,1
274702,-58.8235294117647,4,1,1,80,0,1
275294,-58.8235294117647,4,1,3,80,0,1
275491,-58.8235294117647,4,1,6,80,0,1
275689,-58.8235294117647,4,1,7,80,0,1
276281,-58.8235294117647,4,1,6,80,0,1
276478,-58.8235294117647,4,1,7,80,0,1
277070,-58.8235294117647,4,1,2,80,0,1
277465,-58.8235294117647,4,1,1,80,0,1
277860,-58.8235294117647,4,1,6,80,0,1
278057,-58.8235294117647,4,1,2,80,0,1
278254,-58.8235294117647,4,1,3,80,0,1
278649,-58.8235294117647,4,1,4,80,0,1
279439,-58.8235294117647,4,1,66,80,0,1
280031,-58.8235294117647,4,1,3,80,0,1
281018,-58.8235294117647,4,1,4,80,0,1
281610,-58.8235294117647,4,1,2,80,0,1
281807,-58.8235294117647,4,1,3,80,0,1
282596,-58.8235294117647,4,1,4,80,0,1
283386,-58.8235294117647,4,1,2,80,0,1
284175,-58.8235294117647,4,1,6,80,0,1
284373,-58.8235294117647,4,1,2,80,0,1
284570,-58.8235294117647,4,1,3,80,0,1
284965,-58.8235294117647,4,1,4,80,0,1
285754,-58.8235294117647,4,1,66,80,0,1
286346,-58.8235294117647,4,1,3,80,0,1
287333,-58.8235294117647,4,1,4,80,0,1
287531,-58.8235294117647,4,1,3,80,0,1
288123,-58.8235294117647,4,1,4,80,0,1
289110,-58.8235294117647,4,1,3,80,0,1
289702,-58.8235294117647,4,1,2,80,0,1
290689,-58.8235294117647,4,1,6,80,0,1
290886,-58.8235294117647,4,1,7,80,0,1
291281,-58.8235294117647,4,1,6,80,0,1
292070,-58.8235294117647,4,1,4,80,0,1
292268,-58.8235294117647,4,1,3,80,0,1
292860,-58.8235294117647,4,1,2,80,0,1
293846,-58.8235294117647,4,1,6,80,0,1
294044,-58.8235294117647,4,1,7,80,0,1
294439,-58.8235294117647,4,1,6,80,0,1
295228,-58.8235294117647,4,1,4,80,0,1
295425,-58.8235294117647,4,1,3,80,0,1
296018,800,4,1,3,80,1,1
296018,-66.6666666666667,4,1,3,80,0,1
296818,810.810810810811,4,1,3,80,1,1
296818,-62.5,4,1,3,80,0,1
297020,-62.5,4,1,2,80,0,1
297628,833.333333333333,4,1,11,80,1,1
297628,-66.6666666666667,4,1,11,80,0,1
298461,857.142857142857,4,1,7,80,1,1
298461,-58.8235294117647,4,1,7,80,0,1
298675,-58.8235294117647,4,1,11,80,0,1
298889,-58.8235294117647,4,1,6,80,0,1
299318,-58.8235294117647,4,1,7,80,0,1
300175,895.522388059701,4,1,1,80,1,1
300846,-100,4,1,6,80,0,1
301070,-100,4,1,7,60,0,0
301182,-100,4,2,1,60,0,0
306465,845.070422535211,4,2,1,40,1,0
333507,-125,4,2,1,30,0,0
340267,-142.857142857143,4,2,1,30,0,0
347028,-166.666666666667,4,2,1,30,0,0
353788,-200,4,2,1,30,0,0
357169,-200,4,2,1,20,0,0

[Colours]
Combo1 : 192,192,192
Combo2 : 0,128,255
Combo3 : 0,255,128
Combo4 : 128,128,255
Combo5 : 255,128,255

[HitObjects]
64,108,30754,6,0,P|112:140|192:132,1,139.999995727539,2|0,0:3|0:0,0:0:0:0:
248,72,31347,1,0,0:0:0:0:
328,96,31544,2,0,L|337:165,1,69.9999978637696,2|2,0:0|0:0,0:0:0:0:
404,64,31939,2,0,L|428:156,1,69.9999978637696,0|0,0:0|0:0,0:0:0:0:
472,292,32333,5,8,0:3:0:0:
472,292,32531,1,0,0:0:0:0:
352,252,32728,1,0,0:0:0:0:
352,252,32925,1,0,0:0:0:0:
504,176,33123,2,0,L|416:168,1,69.9999978637696,2|2,0:0|0:0,0:0:0:0:
248,264,33518,2,0,L|336:256,1,69.9999978637696,0|0,0:0|0:0,0:0:0:0:
327,25,33912,6,0,P|315:93|336:160,1,139.999995727539,2|0,0:3|0:0,0:0:0:0:
434,169,34504,1,0,0:0:0:0:
317,257,34702,2,0,L|248:264,1,69.9999978637696,2|2,0:0|0:0,0:0:0:0:
277,355,35096,2,0,L|208:352,1,69.9999978637696,0|0,0:0|0:0,0:0:0:0:
136,212,35491,5,8,0:3:0:0:
53,228,35689,1,0,0:0:0:0:
11,155,35886,1,0,0:0:0:0:
67,92,36083,1,0,0:0:0:0:
143,127,36281,2,0,P|180:116|220:88,1,69.9999978637696,2|2,0:0|0:0,0:0:0:0:
53,228,36675,2,0,P|29:258|13:304,1,69.9999978637696,2|2,0:0|0:0,0:0:0:0:
267,176,37070,22,0,P|299:114|288:47,1,139.999995727539,2|0,0:3|0:0,0:0:0:0:
188,208,37662,1,0,0:0:0:0:
251,259,37860,2,0,P|286:257|319:245,1,69.9999978637696,2|2,0:0|0:0,0:0:0:0:
108,236,38254,2,0,L|100:324,1,69.9999978637696,0|0,0:0|0:0,0:0:0:0:
20,160,38649,6,0,P|84:124|176:148,1,139.999995727539,8|0,0:3|0:0,0:0:0:0:
220,92,39241,1,0,0:0:0:0:
296,128,39439,2,0,P|332:132|392:112,2,69.9999978637696,2|2|0,0:0|0:0|0:0,0:0:0:0:
220,92,40031,1,0,0:0:0:0:
412,60,40228,6,0,L|408:224,1,139.999995727539,2|0,0:3|0:0,0:0:0:0:
404,284,40820,1,0,0:0:0:0:
512,216,41018,2,0,L|506:146,1,69.9999978637696,2|2,0:0|0:0,0:0:0:0:
308,168,41412,2,0,L|300:248,1,69.9999978637696,0|0,0:0|0:0,0:0:0:0:
492,320,41807,6,0,P|434:299|370:315,1,104.999996795654,8|0,0:3|0:0,0:0:0:0:
364,324,42202,2,0,P|328:340|272:340,1,69.9999978637696,0|0,0:0|0:0,0:0:0:0:
72,240,42596,1,2,0:0:0:0:
64,324,42794,1,2,0:0:0:0:
192,304,42991,1,2,0:0:0:0:
184,220,43188,1,2,0:0:0:0:
32,140,43386,22,0,P|120:140|168:108,1,139.999995727539,2|0,0:3|0:0,0:0:0:0:
180,32,43978,1,0,0:0:0:0:
244,88,44175,2,0,L|324:84,1,69.9999978637696,2|2,0:0|0:0,0:0:0:0:
445,30,44570,2,0,L|376:28,1,69.9999978637696,0|0,0:0|0:0,0:0:0:0:
312,176,44964,5,8,0:3:0:0:
448,128,45162,1,0,0:0:0:0:
312,176,45359,1,0,0:0:0:0:
448,128,45556,1,0,0:0:0:0:
396,196,45754,2,0,P|404:240|428:276,1,69.9999978637696,2|2,0:0|0:0,0:0:0:0:
364,108,46149,2,0,P|356:64|332:28,1,69.9999978637696,0|0,0:0|0:0,0:0:0:0:
280,256,46544,6,0,P|212:284|128:268,1,139.999995727539,2|0,0:3|0:0,0:0:0:0:
72,312,47135,1,0,0:0:0:0:
112,200,47333,2,0,L|115:119,1,69.9999978637696,2|2,0:0|0:0,0:0:0:0:
0,188,47727,2,0,L|4:264,1,69.9999978637696,0|0,0:0|0:0,0:0:0:0:
204,196,48122,5,8,0:3:0:0:
273,316,48320,1,0,0:0:0:0:
287,180,48517,1,0,0:0:0:0:
196,281,48714,1,0,0:0:0:0:
329,253,48912,2,0,L|416:256,1,69.9999978637696,2|2,0:0|0:0,0:0:0:0:
496,52,49307,2,0,L|409:55,1,69.9999978637696,2|2,0:0|0:0,0:0:0:0:
287,180,49702,22,0,P|293:111|260:50,1,139.999995727539,2|0,0:3|0:0,0:0:0:0:
176,48,50294,1,0,0:0:0:0:
92,44,50491,2,0,L|84:116,1,69.9999978637696,2|2,0:0|0:0,0:0:0:0:
0,188,50886,2,0,L|8:284,1,69.9999978637696,0|0,0:0|0:0,0:0:0:0:
156,292,51281,6,0,B|260:284|260:284|300:304,1,139.999995727539,8|0,0:3|0:0,0:0:0:0:
400,240,51873,1,2,0:0:0:0:
400,240,51971,1,2,0:0:0:0:
400,240,52071,2,0,P|364:236|324:216,1,69.9999978637696,2|2,0:0|0:0,0:0:0:0:
336,24,52465,1,2,0:0:0:0:
392,148,52663,1,2,0:0:0:0:
272,120,52860,6,0,P|220:176|216:248,1,139.999995727539,2|0,0:3|0:0,0:0:0:0:
291,299,53452,1,0,0:0:0:0:
113,244,53650,2,0,L|44:248,1,69.9999978637696,2|2,0:0|0:0,0:0:0:0:
202,116,54044,2,0,L|275:120,1,69.9999978637696,0|0,0:0|0:0,0:0:0:0:
480,200,54439,6,0,P|408:192|336:240,1,139.999995727539,8|8,0:3|0:0,0:0:0:0:
304,356,55031,1,8,0:0:0:0:
204,208,55228,1,0,3:0:0:0:
352,256,55425,1,0,3:0:0:0:
184,320,55623,1,8,0:0:0:0:
184,320,56018,22,0,L|36:311,1,139.999995727539,4|0,3:0|0:0,0:0:0:0:
5,189,56610,1,0,0:0:0:0:
152,228,56807,1,8,0:0:0:0:
152,228,57202,6,0,L|158:158,1,69.9999978637696,0|0,0:0|3:0,0:0:0:0:
84,102,57596,2,0,P|158:113|219:84,1,139.999995727539,0|0,3:0|0:0,0:0:0:0:
311,135,58189,1,0,0:0:0:0:
401,52,58386,1,8,0:0:0:0:
401,52,58781,6,0,L|412:125,1,69.9999978637696
500,268,59175,2,0,L|509:110,1,139.999995727539,0|0,3:0|0:0,0:0:0:0:
411,234,59768,2,0,P|376:244|329:243,1,69.9999978637696,0|8,0:0|0:0,0:0:0:0:
283,122,60162,1,0,0:0:0:0:
223,265,60360,2,0,L|212:169,1,69.9999978637696,0|0,0:0|0:0,0:0:0:0:
164,89,60754,5,0,3:0:0:0:
21,122,60952,2,0,B|65:134|65:134|163:108,1,139.999995727539,8|0,0:0|3:0,0:0:0:0:
118,216,61544,2,0,L|129:313,1,69.9999978637696,8|0,0:0|0:0,0:0:0:0:
292,274,61939,2,0,P|252:266|201:265,1,69.9999978637696,0|8,0:0|0:0,0:0:0:0:
75,381,62333,22,0,L|224:366,1,139.999995727539,4|0,3:0|0:0,0:0:0:0:
316,384,62925,1,0,0:0:0:0:
418,292,63123,2,0,P|425:257|422:208,1,69.9999978637696,8|0,0:0|0:0,0:0:0:0:
292,143,63518,2,0,P|290:178|296:213,1,69.9999978637696,0|0,0:0|3:0,0:0:0:0:
458,131,63912,1,0,3:0:0:0:
458,131,64307,5,0,0:0:0:0:
375,65,64504,2,0,L|292:55,1,69.9999978637696,0|8,0:0|0:0,0:0:0:0:
69,179,65096,5,0,0:0:0:0:
69,179,65294,1,0,0:0:0:0:
157,132,65491,2,0,P|242:129|299:164,1,139.999995727539,0|0,3:0|0:0,0:0:0:0:
255,318,66083,2,0,P|249:284|250:249,1,69.9999978637696,0|8,0:0|0:0,0:0:0:0:
449,193,66478,2,0,L|380:202,1,69.9999978637696,0|0,0:0|0:0,0:0:0:0:
288,154,66873,1,0,0:0:0:0:
232,70,67070,6,0,P|226:48|224:-4,1,69.9999978637696,0|8,3:0|0:0,0:0:0:0:
171,164,67465,2,0,P|148:144|128:110,1,69.9999978637696,0|0,0:0|3:0,0:0:0:0:
250,249,67860,1,8,0:0:0:0:
250,249,68254,22,0,P|263:285|266:328,1,69.9999978637696,0|8,0:0|0:0,0:0:0:0:
157,379,68649,2,0,L|5:366,1,139.999995727539,4|0,3:0|0:0,0:0:0:0:
41,176,69241,1,0,0:0:0:0:
110,285,69439,1,8,0:0:0:0:
110,285,69833,6,0,L|188:275,1,69.9999978637696,0|0,0:0|3:0,0:0:0:0:
393,289,70228,2,0,P|342:322|255:310,2,139.999995727539,0|0|8,3:0|0:0|0:0,0:0:0:0:
473,97,71412,6,0,L|486:168,1,69.9999978637696
376,75,71807,2,0,P|306:65|244:98,1,139.999995727539,0|0,3:0|0:0,0:0:0:0:
272,259,72399,2,0,P|281:227|282:178,1,69.9999978637696,0|8,0:0|0:0,0:0:0:0:
141,111,72794,1,0,0:0:0:0:
184,206,72991,1,2,0:0:0:0:
184,206,73189,1,0,0:0:0:0:
83,304,73386,2,0,P|82:269|89:234,2,69.9999978637696,0|8|0,3:0|0:0|0:0,0:0:0:0:
341,263,74175,5,4,0:3:0:0:
341,263,74373,2,0,L|272:259,1,69.9999978637696,0|0,0:0|0:0,0:0:0:0:
423,312,74768,1,8,0:0:0:0:
483,206,74965,2,0,L|490:52,1,139.999995727539,4|0,3:0|0:0,0:0:0:0:
306,20,75557,1,0,0:0:0:0:
396,114,75754,1,8,0:0:0:0:
396,114,76149,21,0,0:0:0:0:
489,66,76346,1,0,3:0:0:0:
399,218,76544,2,0,L|251:205,1,139.999995727539,0|0,3:0|0:0,0:0:0:0:
183,132,77136,2,0,P|177:93|184:46,1,69.9999978637696,0|8,0:0|0:0,0:0:0:0:
38,280,77728,6,0,P|41:326|51:353,1,69.9999978637696
145,295,78123,2,0,P|216:286|290:326,1,139.999995727539,0|0,3:0|0:0,0:0:0:0:
314,156,78715,1,0,0:0:0:0:
418,234,78912,2,0,L|348:241,1,69.9999978637696,8|0,0:0|0:0,0:0:0:0:
162,125,79307,2,0,L|244:116,1,69.9999978637696,0|0,0:0|0:0,0:0:0:0:
334,50,79702,5,0,3:0:0:0:
334,50,79899,1,8,0:0:0:0:
427,156,80096,2,0,P|466:154|499:140,1,69.9999978637696,0|0,3:0|3:0,0:0:0:0:
314,156,80491,2,0,L|323:321,1,139.999995727539,8|0,0:0|3:0,0:0:0:0:
412,349,81083,1,0,3:0:0:0:
264,368,81281,6,0,P|332:338|415:348,1,139.999995727539,4|0,0:3|0:0,0:0:0:0:
177,313,81873,2,0,P|143:314|105:307,1,69.9999978637696,0|8,0:0|0:0,0:0:0:0:
318,159,82465,21,0,0:0:0:0:
318,159,82662,1,0,3:0:0:0:
247,87,82860,2,0,P|217:149|233:216,1,139.999995727539,0|0,3:0|0:0,0:0:0:0:
392,221,83452,2,0,L|471:211,1,69.9999978637696,0|8,0:0|0:0,0:0:0:0:
181,316,84044,5,0,0:0:0:0:
181,316,84241,1,0,0:0:0:0:
109,254,84439,2,0,L|101:103,1,139.999995727539,2|0,0:3|0:0,0:0:0:0:
212,10,85031,2,0,P|213:44|207:79,1,69.9999978637696,0|8,0:0|0:0,0:0:0:0:
8,294,85623,5,0,0:0:0:0:
8,294,85820,1,0,0:0:0:0:
181,316,86018,1,0,3:0:0:0:
67,374,86215,1,8,0:0:0:0:
269,267,86412,2,0,L|317:271,2,46.6666652425131,2|2|2,0:0|0:0|0:0,0:0:0:0:
378,341,86807,6,0,B|429:276|381:198,1,150,2|0,0:0|0:0,0:0:0:0:
357,181,87202,2,0,L|256:169,1,85.0000016212464,2|2,0:0|0:0,0:0:0:0:
96,154,87596,21,4,0:0:0:0:
104,242,87793,1,2,0:0:0:0:
88,66,87990,1,2,0:0:0:0:
272,170,88385,5,10,0:0:0:0:
96,154,88582,1,2,0:0:0:0:
184,162,88780,1,2,0:0:0:0:
328,48,89175,5,2,0:0:0:0:
240,56,89372,1,2,0:0:0:0:
396,116,89569,1,2,0:0:0:0:
488,124,89767,1,2,0:0:0:0:
332,180,89965,1,10,0:0:0:0:
428,336,90360,5,2,0:0:0:0:
428,336,90556,1,2,0:0:0:0:
460,252,90754,2,0,P|392:252|340:344,1,150.000005722046,2|0,0:0|3:0,0:0:0:0:
428,336,91346,1,2,0:0:0:0:
256,284,91543,1,10,0:0:0:0:
488,112,91938,1,2,0:0:0:0:
288,120,92332,21,2,0:0:0:0:
332,196,92530,1,8,0:0:0:0:
364,76,92727,1,0,3:0:0:0:
212,164,92925,1,0,3:0:0:0:
244,43,93122,1,8,0:0:0:0:
0,176,93518,6,0,L|74:172,1,75.0000028610231,2|2,0:0|0:0,0:0:0:0:
288,120,93911,1,2,0:0:0:0:
192,208,94109,1,2,0:0:0:0:
208,60,94306,1,2,0:0:0:0:
176,76,94701,5,10,0:0:0:0:
192,208,94898,1,2,0:0:0:0:
260,128,95096,1,2,0:0:0:0:
66,263,95490,5,2,0:0:0:0:
74,171,95689,1,2,0:0:0:0:
180,256,95886,2,0,P|256:264|328:228,1,150.000005722046,2|10,0:0|0:0,0:0:0:0:
408,72,96675,21,2,0:0:0:0:
408,72,96872,1,2,0:0:0:0:
328,28,97070,2,0,P|328:116|396:164,1,150.000005722046,2|0,0:0|3:0,0:0:0:0:
460,148,97661,1,2,0:0:0:0:
320,236,97860,1,10,0:0:0:0:
232,36,98253,1,2,0:0:0:0:
40,184,98648,5,2,0:0:0:0:
128,164,98846,1,8,0:0:0:0:
144,76,99043,1,0,3:0:0:0:
40,184,99240,1,0,3:0:0:0:
196,220,99438,1,8,0:0:0:0:
416,60,99833,6,0,P|376:56|340:68,1,75.0000028610231,2|2,0:0|0:0,0:0:0:0:
372,236,100227,1,4,0:0:0:0:
384,148,100425,1,2,0:0:0:0:
360,324,100622,1,2,0:0:0:0:
372,236,101018,5,10,0:0:0:0:
196,220,101215,1,2,0:0:0:0:
284,228,101413,1,2,0:0:0:0:
116,268,101806,21,2,0:0:0:0:
168,132,102003,1,2,0:0:0:0:
116,268,102201,1,2,0:0:0:0:
168,132,102398,1,2,0:0:0:0:
20,171,102596,6,0,P|54:185|91:183,1,75.0000028610231,10|0,0:0|0:0,0:0:0:0:
256,144,102991,1,2,0:0:0:0:
256,144,103188,1,2,0:0:0:0:
168,132,103386,6,0,L|180:312,1,150.000005722046,2|0,0:0|3:0,0:0:0:0:
256,328,103977,1,2,0:0:0:0:
344,160,104175,1,10,0:0:0:0:
504,320,104569,1,2,0:0:0:0:
364,280,104964,5,2,0:0:0:0:
472,128,105161,1,8,0:0:0:0:
376,252,105359,1,0,3:0:0:0:
492,228,105556,1,0,3:0:0:0:
324,160,105753,1,8,0:0:0:0:
56,272,106149,22,0,P|88:284|152:280,1,75.0000028610231,2|2,0:0|0:0,0:0:0:0:
236,152,106543,1,2,0:0:0:0:
148,144,106741,1,2,0:0:0:0:
160,256,106938,1,2,0:0:0:0:
248,248,107135,1,2,0:0:0:0:
144,108,107332,1,8,0:0:0:0:
412,44,107728,6,0,P|412:88|388:140,1,75.0000028610231,2|2,0:0|0:0,0:0:0:0:
320,152,108122,1,2,0:0:0:0:
512,148,108320,2,0,P|462:196|362:224,1,150.000005722046,2|2,0:0|0:0,0:0:0:0:
320,152,108911,1,8,0:0:0:0:
95,88,109307,5,2,0:0:0:0:
160,152,109504,1,2,0:0:0:0:
72,174,109702,1,2,0:0:0:0:
181,65,109899,1,2,0:0:0:0:
72,174,110096,2,0,P|68:260|104:336,2,150.000005722046,2|8|2,0:0|0:0|0:0,0:0:0:0:
160,152,111083,1,2,0:0:0:0:
363,189,111281,6,0,P|391:162|407:102,1,75.0000028610231,2|0,0:0|0:0,0:0:0:0:
219,219,111675,2,0,P|212:255|220:292,1,75.0000028610231,2|0,0:0|0:0,0:0:0:0:
318,111,112070,2,0,P|301:75|249:41,1,75.0000028610231,10|0,0:0|0:0,0:0:0:0:
302,255,112465,2,0,P|336:273|398:270,1,75.0000028610231,2|0,0:0|0:0,0:0:0:0:
232,132,112860,21,2,0:3:0:0:
219,291,113058,1,2,0:0:0:0:
128,112,113255,2,0,B|120:32,1,75.0000028610231,4|0,0:3|0:0,0:0:0:0:
219,291,113650,2,0,B|210:373,1,75.0000028610231,8|2,0:0|0:0,0:0:0:0:
92,228,114044,2,0,B|17:235,1,75.0000028610231,4|0,0:3|0:0,0:0:0:0:
302,255,114439,5,2,0:3:0:0:
148,140,114637,1,2,0:0:0:0:
347,175,114834,2,0,P|374:202|391:235,1,75.0000028610231,4|2,0:3|0:0,0:0:0:0:
208,256,115228,2,0,P|217:219|237:188,1,75.0000028610231,8|0,0:0|0:0,0:0:0:0:
348,336,115623,2,0,P|312:346|274:343,1,75.0000028610231,4|0,0:3|0:0,0:0:0:0:
391,235,116018,6,0,P|424:148|403:23,2,200,6|0|0,0:0|0:0|0:0,0:0:0:0:
184,32,118090,6,0,L|224:24,2,37.5000014305115
184,32,118386,6,0,B|177:161,1,112.500004291535,2|0,1:0|0:0,0:0:0:0:
13,247,119175,6,0,P|105:223|181:262,1,170.000003242493,6|0,0:0|0:0,0:0:0:0:
376,304,119768,2,0,L|474:288,1,85.0000016212464,0|10,0:0|0:0,0:0:0:0:
278,360,120162,2,0,P|269:330|274:260,1,85.0000016212464,2|2,0:0|0:0,0:0:0:0:
317,169,120557,1,0,0:0:0:0:
485,89,120754,6,0,L|375:79,1,85.0000016212464,2|0,3:1|0:0,0:0:0:0:
197,119,121149,1,0,0:0:0:0:
333,177,121346,1,0,0:0:0:0:
212,16,121544,1,10,0:0:0:0:
339,194,121939,5,0,0:0:0:0:
186,130,122136,1,2,0:0:0:0:
392,94,122333,6,0,L|376:277,1,170.000003242493,6|0,0:3|0:0,0:0:0:0:
196,118,122925,2,0,P|240:107|280:105,1,85.0000016212464,0|10,0:0|0:0,0:0:0:0:
460,271,123320,2,0,P|417:272|370:260,1,85.0000016212464,0|0,0:0|0:0,0:0:0:0:
259,207,123715,1,2,0:0:0:0:
182,374,123912,22,0,L|174:282,1,85.0000016212464,2|0,3:1|0:0,0:0:0:0:
97,164,124307,2,0,L|114:75,1,85.0000016212464,0|0,0:0|0:0,0:0:0:0:
259,207,124702,5,10,0:0:0:0:
64,283,124899,1,0,0:0:0:0:
275,209,125096,1,0,0:0:0:0:
99,185,125294,1,0,0:0:0:0:
344,293,125491,6,0,P|374:219|346:125,1,170.000003242493,6|0,0:3|0:0,0:0:0:0:
265,339,126083,2,0,P|293:370|336:385,1,85.0000016212464,0|10,0:0|0:0,0:0:0:0:
275,209,126478,1,2,0:0:0:0:
165,267,126675,2,0,L|66:264,1,85.0000016212464,2|0,0:0|0:0,0:0:0:0:
269,343,127070,5,2,3:1:0:0:
269,343,127268,1,0,0:0:0:0:
175,148,127465,1,0,0:0:0:0:
175,148,127860,2,0,P|268:129|309:44,1,170.000003242493,10|0,0:0|0:0,0:0:0:0:
207,50,128452,1,2,0:0:0:0:
343,188,128649,22,0,P|436:181|512:179,1,170.000003242493,6|0,0:3|0:0,0:0:0:0:
299,278,129241,2,0,P|256:280|200:274,1,85.0000016212464,0|10,0:0|0:0,0:0:0:0:
403,284,129636,2,0,P|405:333|401:376,1,85.0000016212464,2|0,0:0|0:0,0:0:0:0:
214,276,130031,1,0,0:0:0:0:
343,188,130228,5,2,3:1:0:0:
343,188,130425,1,0,3:0:0:0:
230,165,130623,1,0,3:0:0:0:
230,165,130820,1,0,3:0:0:0:
392,77,131018,5,10,0:0:0:0:
438,249,131215,1,2,3:1:0:0:
198,275,131412,1,0,3:0:0:0:
343,188,131610,1,0,3:0:0:0:
258,355,131807,6,0,P|156:366|98:308,1,170.000003242493,6|0,0:1|0:0,0:0:0:0:
100,133,132399,1,0,0:0:0:0:
0,241,132596,2,0,L|105:228,1,85.0000016212464,10|2,0:0|0:0,0:0:0:0:
197,90,132991,1,2,0:0:0:0:
197,90,133386,22,0,L|376:101,1,170.000003242493,2|0,3:1|0:0,0:0:0:0:
495,249,133978,1,0,0:0:0:0:
339,199,134175,1,10,0:0:0:0:
328,212,134570,5,0,0:0:0:0:
504,265,134768,1,0,0:0:0:0:
297,327,134965,6,0,L|100:315,1,170.000003242493,6|0,0:3|0:0,0:0:0:0:
197,151,135557,2,0,P|204:192|187:251,1,85.0000016212464,0|10,0:0|0:0,0:0:0:0:
46,373,135952,2,0,P|31:329|38:279,1,85.0000016212464,2|2,0:0|0:0,0:0:0:0:
103,188,136346,1,0,0:0:0:0:
297,327,136544,6,0,L|105:314,1,170.000003242493,2|0,3:1|0:0,0:0:0:0:
333,237,137136,1,0,0:0:0:0:
209,362,137333,1,10,0:0:0:0:
429,274,137531,2,0,L|436:92,1,170.000003242493,2|0,0:0|0:0,0:0:0:0:
279,48,138123,6,0,P|251:62|339:109,1,225.000008583069,6|0,0:3|0:0,0:0:0:0:
380,22,138912,5,6,0:1:0:0:
222,161,139110,2,0,L|214:356,1,170.000003242493,2|0,0:0|0:0,0:0:0:0:
34,300,139702,54,0,P|46:205|118:261,1,225.000008583069,6|0,0:3|0:0,0:0:0:0:
111,360,140491,21,6,0:1:0:0:
248,239,140689,2,0,L|417:219,1,170.000003242493,2|0,0:0|0:0,0:0:0:0:
416,219,141281,6,0,L|306:205,1,94.9999974632264,6|0,0:0|0:0,0:0:0:0:
137,178,141675,1,0,0:0:0:0:
137,178,142070,5,8,0:0:0:0:
209,35,142268,2,0,P|223:75|221:129,1,85.0000016212464,0|8,3:0|0:0,0:0:0:0:
44,234,142662,1,10,0:0:0:0:
118,93,142860,1,2,3:1:0:0:
288,208,143057,1,2,3:1:0:0:
302,218,143452,1,0,3:0:0:0:
148,224,143649,5,10,0:0:0:0:
280,104,143846,1,10,0:0:0:0:
144,252,144044,1,0,3:0:0:0:
280,80,144241,1,10,0:0:0:0:
256,308,144439,6,0,P|344:300|392:228,1,170.000003242493,6|0,0:0|0:0,0:0:0:0:
484,56,145032,2,0,P|484:100|500:140,1,85.0000016212464,0|10,0:0|0:0,0:0:0:0:
396,136,145426,2,0,P|356:124|304:128,1,85.0000016212464,2|2,0:0|0:0,0:0:0:0:
228,180,145821,1,0,0:0:0:0:
88,44,146018,6,0,L|96:136,1,85.0000016212464,2|0,3:1|0:0,0:0:0:0:
228,180,146413,1,0,0:0:0:0:
16,240,146610,1,0,0:0:0:0:
192,300,146808,1,10,0:0:0:0:
232,212,147203,5,0,0:0:0:0:
28,264,147400,1,2,0:0:0:0:
48,168,147597,6,0,P|124:164|192:104,1,170.000003242493,6|0,0:3|0:0,0:0:0:0:
408,179,148189,2,0,L|323:171,1,85.0000016212464,0|10,0:0|0:0,0:0:0:0:
184,324,148584,2,0,L|276:317,1,85.0000016212464,0|0,0:0|0:0,0:0:0:0:
448,300,148979,1,2,0:0:0:0:
268,317,149175,22,0,P|252:281|252:233,1,85.0000016212464,2|0,3:1|0:0,0:0:0:0:
424,97,149570,2,0,P|423:139|407:178,1,85.0000016212464,2|0,0:2|0:0,0:0:0:0:
168,152,149966,5,10,0:0:0:0:
348,256,150163,1,0,0:0:0:0:
160,332,150360,1,0,0:0:0:0:
336,228,150557,1,0,0:0:0:0:
112,240,150755,6,0,P|67:170|85:89,1,170.000003242493,6|0,0:3|0:0,0:0:0:0:
284,52,151347,2,0,L|276:136,1,85.0000016212464,0|10,0:0|0:0,0:0:0:0:
384,32,151742,1,2,0:0:0:0:
488,164,151939,2,0,L|464:264,1,85.0000016212464,2|0,0:0|0:0,0:0:0:0:
436,344,152334,5,2,3:1:0:0:
436,344,152532,1,0,0:0:0:0:
264,236,152729,1,0,0:0:0:0:
264,236,153124,2,0,P|183:248|133:315,1,170.000003242493,10|0,0:0|0:0,0:0:0:0:
340,308,153716,1,2,0:0:0:0:
428,260,153912,22,0,L|420:88,1,170.000003242493,6|0,0:3|0:0,0:0:0:0:
280,28,154505,2,0,L|272:132,1,85.0000016212464,0|10,0:0|0:0,0:0:0:0:
87,116,154900,2,0,L|172:116,1,85.0000016212464,2|0,0:0|0:0,0:0:0:0:
273,112,155295,1,0,0:0:0:0:
112,204,155492,5,2,3:1:0:0:
112,204,155689,1,0,3:0:0:0:
176,24,155887,1,0,3:0:0:0:
176,24,156084,1,0,3:0:0:0:
264,192,156282,5,10,0:0:0:0:
356,88,156479,1,2,3:1:0:0:
180,136,156676,1,0,3:0:0:0:
340,244,156874,1,0,3:0:0:0:
452,60,157071,6,0,L|444:240,1,170.000003242493,6|0,0:1|0:0,0:0:0:0:
336,280,157663,1,0,0:0:0:0:
173,179,157860,2,0,P|215:179|256:192,1,85.0000016212464,10|2,0:0|0:0,0:0:0:0:
92,256,158255,1,2,0:0:0:0:
92,256,158650,22,0,B|56:220|56:220|48:88,1,170.000003242493,2|0,3:1|0:0,0:0:0:0:
192,12,159242,1,0,0:0:0:0:
173,179,159439,1,10,0:0:0:0:
212,24,159834,5,0,0:0:0:0:
152,164,160032,1,0,0:0:0:0:
312,68,160229,6,0,L|481:62,1,170.000003242493,6|0,0:3|0:0,0:0:0:0:
395,287,160821,2,0,P|359:267|333:233,1,85.0000016212464,0|10,0:0|0:0,0:0:0:0:
422,187,161215,2,0,P|402:151|396:109,1,85.0000016212464,0|10,0:0|0:0,0:0:0:0:
512,240,161610,1,0,0:0:0:0:
396,288,161807,6,0,P|304:256|208:288,1,170.000003242493,2|0,3:1|0:0,0:0:0:0:
232,168,162400,1,0,0:0:0:0:
24,264,162597,1,10,0:0:0:0:
88,184,162795,2,0,P|68:96|12:40,1,170.000003242493,2|0,0:0|0:0,0:0:0:0:
204,88,163387,6,0,B|252:76|252:76|284:96|284:96|364:108|420:44,1,225.000008583069,6|0,0:3|0:0,0:0:0:0:
320,4,164176,21,6,0:1:0:0:
500,100,164374,2,0,L|492:295,1,170.000003242493,2|0,0:0|0:0,0:0:0:0:
360,200,164965,38,0,B|312:188|312:188|280:208|280:208|208:172|128:228,1,225.000008583069,6|0,0:3|0:0,0:0:0:0:
216,320,165754,37,6,0:1:0:0:
32,280,165953,2,0,L|44:108,1,170.000003242493,2|0,0:0|0:0,0:0:0:0:
35,15,166545,6,0,L|44:121,1,94.9999974632264,6|0,0:0|0:0,0:0:0:0:
212,144,166939,1,0,0:0:0:0:
212,144,167334,5,8,0:0:0:0:
352,68,167531,1,0,3:0:0:0:
228,44,167728,1,8,0:0:0:0:
368,168,167925,1,10,0:0:0:0:
472,24,168123,1,6,3:1:0:0:
256,192,168221,12,2,169702,0:0:0:0:
256,192,170096,5,0,0:0:0:0:
119,58,170491,5,2,0:0:0:0:
119,58,170689,1,2,0:0:0:0:
77,142,170886,2,0,P|72:180|76:226,1,69.9999978637696,0|0,0:0|0:0,0:0:0:0:
202,100,171281,2,0,P|276:89|366:85,1,139.999995727539,8|0,0:3|0:0,0:0:0:0:
173,234,172070,5,2,0:0:0:0:
173,234,172268,1,2,0:0:0:0:
111,306,172465,2,0,P|76:308|37:315,1,69.9999978637696,0|0,0:0|0:0,0:0:0:0:
263,384,172860,2,0,P|267:314|267:233,1,139.999995727539,2|0,0:3|0:0,0:0:0:0:
177,38,173649,5,2,0:0:0:0:
177,38,173846,1,2,0:0:0:0:
265,69,174044,2,0,P|304:63|350:58,1,69.9999978637696,0|0,0:0|0:0,0:0:0:0:
490,161,174439,2,0,P|425:154|328:152,1,139.999995727539,8|0,0:3|0:0,0:0:0:0:
174,345,175228,21,2,0:0:0:0:
174,345,175425,1,2,0:0:0:0:
265,314,175623,2,0,P|267:271|268:232,1,69.9999978637696
84,220,176018,2,0,P|86:255|89:290,1,69.9999978637696,2|0,0:3|0:0,0:0:0:0:
154,151,176412,1,0,0:0:0:0:
373,289,176807,5,2,0:0:0:0:
373,289,177004,1,2,0:0:0:0:
439,220,177202,2,0,P|443:182|443:137,1,69.9999978637696,0|0,0:0|0:0,0:0:0:0:
272,131,177596,2,0,P|309:127|354:120,1,69.9999978637696,8|0,0:3|0:0,0:0:0:0:
490,52,177991,2,0,P|457:46|399:39,1,69.9999978637696,0|0,0:0|0:0,0:0:0:0:
276,135,178386,5,2,0:0:0:0:
276,135,178583,1,2,0:0:0:0:
192,79,178781,2,0,P|187:46|184:10,1,69.9999978637696,0|0,0:0|0:0,0:0:0:0:
378,133,179175,2,0,P|374:210|369:287,1,139.999995727539,2|0,0:3|0:0,0:0:0:0:
121,375,179965,5,2,0:0:0:0:
121,375,180162,1,2,0:0:0:0:
188,303,180360,2,0,P|221:298|273:296,1,69.9999978637696,0|0,0:0|0:0,0:0:0:0:
115,232,180754,2,0,P|77:229|35:230,1,69.9999978637696,8|0,0:3|0:0,0:0:0:0:
176,153,181149,1,0,0:0:0:0:
31,23,181544,21,2,0:0:0:0:
31,23,181741,1,2,0:0:0:0:
122,48,181939,2,0,P|164:39|210:39,1,69.9999978637696
317,110,182333,2,0,P|319:71|324:29,1,69.9999978637696,2|0,0:3|0:0,0:0:0:0:
214,138,182728,2,0,P|219:182|222:235,1,69.9999978637696,0|0,0:0|0:0,0:0:0:0:
134,358,183123,5,2,0:0:0:0:
134,358,183320,1,2,0:0:0:0:
218,308,183518,2,0,P|253:301|301:298,1,69.9999978637696,0|0,0:0|0:0,0:0:0:0:
470,238,183912,2,0,P|396:228|329:216,1,139.999995727539,8|0,0:3|0:0,0:0:0:0:
163,35,184702,5,2,0:0:0:0:
163,35,184899,1,2,0:0:0:0:
243,94,185096,1,0,0:0:0:0:
243,94,185491,2,0,L|232:258,1,139.999995727539,2|0,0:3|0:0,0:0:0:0:
0,149,186281,5,2,0:0:0:0:
0,149,186478,1,2,0:0:0:0:
75,199,186675,2,0,P|115:194|164:192,1,69.9999978637696,0|0,0:0|0:0,0:0:0:0:
317,199,187070,2,0,P|314:240|306:291,1,69.9999978637696,8|0,0:3|0:0,0:0:0:0:
231,150,187465,2,0,P|226:115|222:59,1,69.9999978637696,0|0,0:0|0:0,0:0:0:0:
359,19,187860,21,2,0:0:0:0:
359,19,188057,1,2,0:0:0:0:
394,107,188254,2,0,P|359:106|323:108,1,69.9999978637696
177,202,188649,2,0,P|247:198|317:199,1,139.999995727539,2|0,0:3|0:0,0:0:0:0:
487,350,189439,5,2,0:0:0:0:
487,350,189636,1,2,0:0:0:0:
414,285,189833,2,0,P|410:252|409:204,1,69.9999978637696,0|0,0:0|0:0,0:0:0:0:
421,75,190228,2,0,L|507:67,1,69.9999978637696,8|0,0:3|0:0,0:0:0:0:
345,142,190623,2,0,L|260:139,1,69.9999978637696
124,78,191018,5,2,0:0:0:0:
124,78,191215,1,2,0:0:0:0:
180,155,191412,2,0,P|183:194|186:240,1,69.9999978637696
34,160,191807,2,0,P|36:87|41:-3,1,139.999995727539,2|0,0:3|0:0,0:0:0:0:
148,331,192596,5,2,0:0:0:0:
148,331,192794,1,2,0:0:0:0:
185,224,192991,1,0,0:0:0:0:
318,310,193189,1,0,0:0:0:0:
270,147,193386,1,12,0:3:0:0:
270,147,193781,21,8,0:0:0:0:
206,67,193978,1,8,0:0:0:0:
189,228,194175,1,0,3:0:0:0:
189,228,194373,1,0,3:0:0:0:
380,152,194570,2,0,L|292:148,1,69.9999978637696,8|0,0:0|0:0,0:0:0:0:
91,105,194965,6,0,P|163:97|220:144,1,150.000005722046,6|0,0:0|0:0,0:0:0:0:
140,184,195558,1,0,0:0:0:0:
56,216,195755,2,0,L|48:308,1,75.0000028610231,2|2,0:0|0:0,0:0:0:0:
208,244,196150,2,0,L|292:240,1,75.0000028610231,0|0,0:0|0:0,0:0:0:0:
432,296,196544,5,8,0:0:0:0:
344,312,196742,1,0,0:0:0:0:
452,204,196939,1,0,0:0:0:0:
432,296,197136,1,0,0:0:0:0:
282,240,197334,2,0,P|270:205|266:164,1,75.0000028610231,2|2,0:0|0:0,0:0:0:0:
396,116,197729,2,0,P|408:76|408:32,1,75.0000028610231,0|0,0:0|0:0,0:0:0:0:
204,44,198123,6,0,P|236:60|280:64,1,75.0000028610231,2|0,0:3|0:0,0:0:0:0:
409,42,198518,1,0,0:0:0:0:
409,42,198715,1,0,0:0:0:0:
456,192,198913,2,0,P|420:208|372:208,1,75.0000028610231,2|2,0:0|0:0,0:0:0:0:
266,167,199307,1,0,0:0:0:0:
266,167,199504,1,0,0:0:0:0:
324,280,199702,22,0,L|328:376,1,75.0000028610231,8|0,0:0|0:0,0:0:0:0:
396,116,200096,2,0,L|400:40,1,75.0000028610231,0|0,0:0|0:0,0:0:0:0:
266,167,200491,1,2,0:0:0:0:
176,160,200689,1,2,0:0:0:0:
92,124,200886,1,2,0:0:0:0:
32,56,201083,1,2,0:0:0:0:
24,280,201281,6,0,P|84:248|184:268,1,150.000005722046,2|0,0:3|0:0,0:0:0:0:
228,316,201873,1,0,0:0:0:0:
383,266,202071,2,0,P|349:280|312:280,1,75.0000028610231,2|2,0:0|0:0,0:0:0:0:
472,260,202465,2,0,P|467:296|447:328,1,75.0000028610231,0|0,0:0|0:0,0:0:0:0:
332,189,202860,6,0,L|336:36,1,150.000005722046,8|0,0:0|0:0,0:0:0:0:
428,68,203452,1,0,0:0:0:0:
240,80,203650,2,0,L|232:180,2,75.0000028610231,2|2|0,0:0|0:0|0:0,0:0:0:0:
336,40,204242,1,0,0:0:0:0:
152,36,204439,6,0,B|120:68|120:68|100:184,1,150.000005722046,2|0,0:3|0:0,0:0:0:0:
84,260,205031,1,0,0:0:0:0:
232,273,205229,2,0,P|206:246|171:231,1,75.0000028610231,2|2,0:0|0:0,0:0:0:0:
187,382,205623,2,0,P|178:345|156:316,1,75.0000028610231,0|0,0:0|0:0,0:0:0:0:
284,356,206018,22,0,P|344:372|416:344,1,112.500004291535,8|0,0:0|0:0,0:0:0:0:
420,336,206413,2,0,L|430:247,1,75.0000028610231,0|0,0:0|0:0,0:0:0:0:
408,72,206807,1,2,0:0:0:0:
320,64,207005,1,2,0:0:0:0:
288,196,207202,1,2,0:0:0:0:
376,188,207399,1,2,0:0:0:0:
232,56,207597,6,0,P|152:68|96:144,1,150.000005722046,2|0,0:3|0:0,0:0:0:0:
88,274,208189,1,0,0:0:0:0:
173,242,208386,2,0,L|180:168,1,75.0000028610231,2|2,0:0|0:0,0:0:0:0:
248,336,208781,2,0,L|340:328,1,75.0000028610231,0|0,0:0|0:0,0:0:0:0:
498,300,209175,5,8,0:0:0:0:
475,213,209373,1,0,0:0:0:0:
388,237,209570,1,0,0:0:0:0:
412,324,209768,1,0,0:0:0:0:
475,213,209965,2,0,P|477:168|468:112,1,75.0000028610231,2|2,0:0|0:0,0:0:0:0:
304,12,210360,2,0,P|300:49|303:86,1,75.0000028610231,0|0,0:0|0:0,0:0:0:0:
508,40,210754,6,0,P|468:36|412:56,1,75.0000028610231,2|0,0:3|0:0,0:0:0:0:
372,176,211149,1,0,0:0:0:0:
372,176,211346,1,0,0:0:0:0:
229,82,211544,2,0,P|269:78|325:98,1,75.0000028610231,2|2,0:0|0:0,0:0:0:0:
372,176,211938,1,0,0:0:0:0:
372,176,212135,1,0,0:0:0:0:
319,334,212333,22,0,L|308:260,1,75.0000028610231,8|0,0:0|0:0,0:0:0:0:
400,0,212727,2,0,L|389:78,1,75.0000028610231,0|0,0:0|0:0,0:0:0:0:
268,128,213122,1,2,0:0:0:0:
186,89,213320,1,2,0:0:0:0:
96,88,213517,1,2,0:0:0:0:
8,112,213714,1,2,0:0:0:0:
56,323,213913,6,0,P|72:250|72:176,1,150.000005722046,2|0,0:3|0:0,0:0:0:0:
8,112,214505,1,0,0:0:0:0:
153,139,214702,2,0,L|228:136,1,75.0000028610231,2|2,0:0|0:0,0:0:0:0:
196,264,215097,2,0,L|116:260,1,75.0000028610231,0|0,0:0|0:0,0:0:0:0:
92,56,215492,6,0,B|268:44,1,150.000005722046,8|0,0:0|0:0,0:0:0:0:
362,105,216084,1,2,0:0:0:0:
362,105,216182,1,2,0:0:0:0:
362,105,216282,2,0,P|339:76|332:39,1,75.0000028610231,2|2,0:0|0:0,0:0:0:0:
452,116,216676,1,2,0:0:0:0:
444,204,216874,1,2,0:0:0:0:
356,196,217071,6,0,L|192:204,1,150.000005722046,2|0,0:3|0:0,0:0:0:0:
35,208,217661,1,0,0:0:0:0:
120,172,217860,2,0,P|128:135|128:98,1,75.0000028610231,2|2,0:0|0:0,0:0:0:0:
63,294,218254,2,0,P|63:331|72:368,1,75.0000028610231,0|0,0:0|0:0,0:0:0:0:
380,316,218649,21,4,0:3:0:0:
184,240,218846,1,8,0:1:0:0:
272,184,219044,2,0,L|276:132,2,50.0000019073487,0|0|0,3:0|3:0|3:0,0:0:0:0:
380,316,219439,2,0,L|372:228,1,75.0000028610231,2|2,0:0|0:0,0:0:0:0:
476,60,219833,2,0,L|468:144,1,75.0000028610231,10|2,0:0|0:0,0:0:0:0:
272,184,220228,5,4,0:0:0:0:
374,72,220425,1,2,0:0:0:0:
260,196,220623,2,0,P|217:193|171:193,1,80,2|0,0:0|0:0,0:0:0:0:
373,241,221018,5,10,0:0:0:0:
265,106,221215,1,2,0:0:0:0:
383,254,221412,2,0,P|425:248|464:245,1,80,2|0,0:0|0:0,0:0:0:0:
322,364,221807,5,2,0:0:0:0:
221,291,222004,1,2,0:0:0:0:
221,291,222202,1,2,0:0:0:0:
116,376,222399,1,2,0:0:0:0:
44,241,222596,2,0,P|37:196|29:108,1,120,10|0,0:0|0:0,0:0:0:0:
34,96,222991,2,0,P|80:101|123:99,1,80,2|2,0:0|0:0,0:0:0:0:
302,147,223386,22,0,P|217:148|149:211,1,160,2|0,0:0|3:0,0:0:0:0:
258,249,223978,1,2,0:0:0:0:
402,186,224175,2,0,P|407:133|409:88,1,80,10|0,0:0|0:0,0:0:0:0:
251,263,224570,2,0,P|253:313|261:359,1,80,2|0,0:0|0:0,0:0:0:0:
457,384,224965,21,2,0:0:0:0:
364,304,225162,1,8,0:0:0:0:
402,186,225360,1,0,3:0:0:0:
402,186,225754,2,0,P|405:116|405:49,1,120,8|0,0:0|0:0,0:0:0:0:
403,40,226149,2,0,P|447:32|497:17,1,80,2|2,0:0|0:0,0:0:0:0:
308,103,226544,5,2,0:0:0:0:
236,10,226741,1,2,0:0:0:0:
192,154,226939,1,2,0:0:0:0:
402,186,227333,21,10,0:0:0:0:
189,171,227531,1,2,0:0:0:0:
305,90,227728,1,2,0:0:0:0:
238,320,228123,5,2,0:0:0:0:
187,189,228320,1,2,0:0:0:0:
99,303,228518,1,2,0:0:0:0:
247,332,228715,1,2,0:0:0:0:
187,205,228912,1,10,0:0:0:0:
188,219,229307,5,2,0:0:0:0:
255,344,229504,1,2,0:0:0:0:
86,296,229702,2,0,P|71:229|76:132,1,160,2|0,0:0|3:0,0:0:0:0:
236,0,230294,1,2,0:0:0:0:
180,103,230491,6,0,L|282:91,1,80,10|0,0:0|0:0,0:0:0:0:
424,111,230886,2,0,P|433:71|430:18,1,80,2|0,0:0|0:0,0:0:0:0:
309,190,231281,2,0,P|307:238|321:289,1,80,2|8,0:0|0:0,0:0:0:0:
504,212,231675,1,0,3:0:0:0:
512,199,232070,22,0,L|429:211,1,80,8|2,0:0|0:0,0:0:0:0:
262,367,232465,1,0,0:0:0:0:
405,304,232662,1,2,0:0:0:0:
210,222,232860,5,4,0:0:0:0:
352,148,233057,1,2,0:0:0:0:
196,229,233254,2,0,P|162:227|117:226,1,80,2|0,0:0|0:0,0:0:0:0:
311,307,233649,5,10,0:0:0:0:
169,381,233846,1,2,0:0:0:0:
325,300,234043,2,0,P|358:301|404:303,1,80,2|0,0:0|0:0,0:0:0:0:
512,225,234439,5,2,0:0:0:0:
370,162,234636,1,2,0:0:0:0:
370,162,234833,1,2,0:0:0:0:
512,98,235031,1,2,0:0:0:0:
334,36,235228,2,0,P|339:94|344:173,1,120,10|0,0:0|0:0,0:0:0:0:
370,162,235623,2,0,P|363:210|360:260,1,80,2|2,0:0|0:0,0:0:0:0:
512,331,236018,22,0,P|440:315|353:354,1,160,2|0,0:0|3:0,0:0:0:0:
165,268,236610,1,2,0:0:0:0:
70,384,236807,2,0,L|164:366,1,80,10|0,0:0|0:0,0:0:0:0:
263,230,237202,2,0,P|265:190|260:147,1,80,2|0,0:0|0:0,0:0:0:0:
74,76,237596,5,2,0:0:0:0:
151,165,237794,1,8,0:0:0:0:
298,42,237991,2,0,B|340:14|340:14|395:45|462:22,1,160,0|8,3:0|0:0,0:0:0:0:
263,230,238781,5,2,0:0:0:0:
367,188,238978,1,2,0:0:0:0:
450,262,239175,2,0,P|463:292|468:340,1,80,2|2,0:0|0:0,0:0:0:0:
263,230,239570,1,2,0:0:0:0:
367,188,239768,2,0,P|377:148|374:98,1,80,2|8,0:0|0:0,0:0:0:0:
97,95,240360,5,2,0:0:0:0:
97,95,240557,1,2,0:0:0:0:
194,145,240754,2,0,L|278:137,1,80,2|2,0:0|0:0,0:0:0:0:
149,244,241149,1,2,0:0:0:0:
367,188,241346,2,0,P|379:139|375:100,1,80,2|8,0:0|0:0,0:0:0:0:
240,309,241939,21,2,0:0:0:0:
149,244,242136,1,2,0:0:0:0:
53,305,242333,2,0,P|54:356|61:397,1,80,2|2,0:0|0:0,0:0:0:0:
163,235,242728,2,0,P|157:175|155:66,1,160,2|8,0:0|0:0,0:0:0:0:
453,42,243518,5,2,0:0:0:0:
453,42,243715,1,2,0:0:0:0:
296,179,243912,1,2,0:0:0:0:
455,163,244110,1,0,0:0:0:0:
234,271,244307,6,0,P|185:269|139:257,1,80,2|0,0:0|0:0,0:0:0:0:
381,267,244702,2,0,P|361:311|327:355,1,80,10|0,0:0|0:0,0:0:0:0:
432,86,245096,2,0,P|449:136|456:172,1,80,2|0,0:0|0:0,0:0:0:0:
188,61,245491,5,2,0:3:0:0:
321,110,245689,1,2,0:0:0:0:
108,148,245886,2,0,B|68:155|68:155|19:191,1,80,4|0,0:3|0:0,0:0:0:0:
233,270,246281,2,0,B|226:230|226:230|205:196,1,80,8|2,0:0|0:0,0:0:0:0:
85,384,246675,2,0,B|124:372|124:372|156:348,1,80,4|0,0:3|0:0,0:0:0:0:
307,180,247070,21,2,0:3:0:0:
297,384,247268,1,2,0:0:0:0:
452,203,247465,2,0,L|463:123,1,80,4|2,0:3|0:0,0:0:0:0:
229,178,247860,2,0,P|267:186|307:181,1,80,8|0,0:0|0:0,0:0:0:0:
511,39,248254,2,0,P|473:30|433:33,1,80,4|0,0:3|0:0,0:0:0:0:
273,90,248649,6,0,B|395:77|351:141|464:124,2,200,6|0|0,0:0|0:0|0:0,0:0:0:0:
35,127,250722,22,0,L|31:167,2,40
35,127,251018,6,0,L|147:115,1,112.500004291535,2|0,1:0|0:0,0:0:0:0:
344,44,251807,6,0,B|273:33|223:72|232:152|232:152,1,170.000003242493,6|0,0:0|0:0,0:0:0:0:
231,139,252399,1,0,0:0:0:0:
370,275,252596,1,10,0:0:0:0:
421,178,252794,1,2,0:0:0:0:
276,235,252991,1,2,0:0:0:0:
320,62,253189,1,0,0:0:0:0:
501,137,253386,6,0,L|333:160,1,170.000003242493,2|0,3:1|0:0,0:0:0:0:
422,235,253978,1,0,0:0:0:0:
447,50,254175,1,10,0:0:0:0:
429,246,254570,5,0,0:0:0:0:
414,128,254768,1,2,0:0:0:0:
179,187,254965,6,0,B|259:194|357:193|357:193,1,170.000003242493,6|0,0:3|0:0,0:0:0:0:
348,193,255557,1,0,0:0:0:0:
223,99,255754,2,0,B|266:106|314:104|314:104,1,85.0000016212464,10|0,0:0|0:0,0:0:0:0:
405,12,256149,1,0,0:0:0:0:
326,90,256346,1,2,0:0:0:0:
448,107,256544,22,0,B|434:192|430:285|430:285,1,170.000003242493,2|0,3:1|0:0,0:0:0:0:
430,276,257136,1,0,0:0:0:0:
475,199,257333,1,10,0:0:0:0:
354,236,257530,1,0,0:0:0:0:
389,358,257727,1,0,0:0:0:0:
511,322,257925,1,0,0:0:0:0:
430,276,258123,6,0,B|341:269|254:268|254:268,1,170.000003242493,6|0,0:3|0:0,0:0:0:0:
260,268,258715,1,0,0:0:0:0:
347,190,258912,1,10,0:0:0:0:
249,368,259110,1,2,0:0:0:0:
173,254,259307,1,2,0:0:0:0:
346,308,259504,1,0,0:0:0:0:
280,71,259702,6,0,B|280:151|266:250|266:250,1,170.000003242493,2|0,3:1|0:0,0:0:0:0:
0,34,260491,2,0,B|0:114|14:213|14:213,1,170.000003242493,10|0,0:0|0:0,0:0:0:0:
12,203,261083,1,2,0:0:0:0:
150,306,261281,6,0,L|50:298,1,85.0000016212464,6|0,0:3|0:0,0:0:0:0:
98,141,261675,1,0,0:0:0:0:
187,211,261873,1,0,0:0:0:0:
297,95,262070,1,10,0:0:0:0:
98,258,262268,1,2,0:0:0:0:
263,283,262465,1,0,0:0:0:0:
157,65,262662,1,0,0:0:0:0:
202,153,262860,5,2,3:1:0:0:
201,169,263057,1,0,3:0:0:0:
199,185,263254,1,0,3:0:0:0:
197,202,263452,1,0,3:0:0:0:
86,242,263649,5,10,0:0:0:0:
304,179,263846,1,2,3:1:0:0:
151,303,264044,1,0,3:0:0:0:
294,271,264241,1,0,3:0:0:0:
211,221,264439,6,0,L|394:219,1,170.000003242493,6|0,0:1|0:0,0:0:0:0:
380,219,265031,1,0,0:0:0:0:
473,149,265228,1,10,0:0:0:0:
394,317,265425,1,2,0:0:0:0:
372,80,265623,1,2,0:0:0:0:
372,80,266018,6,0,B|316:47|252:51|201:98|201:98,1,170.000003242493,2|0,3:1|0:0,0:0:0:0:
211,89,266610,1,0,0:0:0:0:
300,184,266807,2,0,B|253:193|215:228|215:228,1,85.0000016212464,10|2,0:0|0:0,0:0:0:0:
147,167,267202,1,0,0:0:0:0:
147,167,267399,1,0,0:0:0:0:
20,322,267596,6,0,B|102:302|198:302|198:302,1,170.000003242493,6|0,0:3|0:0,0:0:0:0:
188,302,268189,1,0,0:0:0:0:
44,199,268386,1,10,0:0:0:0:
280,263,268583,1,2,0:0:0:0:
111,367,268781,1,2,0:0:0:0:
111,367,269175,22,0,B|77:312|95:241|153:198|153:198,1,170.000003242493,2|0,3:1|0:0,0:0:0:0:
138,211,269768,1,0,0:0:0:0:
222,87,269965,2,0,L|236:172,1,85.0000016212464,10|2,0:0|0:0,0:0:0:0:
212,285,270360,1,0,0:0:0:0:
212,285,270557,1,0,0:0:0:0:
333,199,270754,54,0,B|228:188|99:192|99:192,1,225.000008583069,6|0,0:3|0:0,0:0:0:0:
58,313,271544,21,6,0:1:0:0:
212,285,271741,1,2,0:0:0:0:
145,363,271939,1,0,0:0:0:0:
299,335,272136,1,0,0:0:0:0:
108,191,272333,38,0,B|99:192|228:188|334:200|334:200,1,225.000008583069,6|0,0:3|0:0,0:0:0:0:
421,44,273123,37,6,0:1:0:0:
478,131,273320,2,0,L|301:110,1,170.000003242493,2|0,0:0|0:0,0:0:0:0:
182,65,273912,21,6,0:0:0:0:
190,83,274110,1,0,0:0:0:0:
195,102,274307,1,0,0:0:0:0:
196,121,274504,1,0,0:0:0:0:
137,212,274702,53,8,0:0:0:0:
90,118,274899,1,0,3:0:0:0:
147,229,275096,1,8,0:0:0:0:
266,186,275294,1,10,0:0:0:0:
54,212,275491,21,2,3:1:0:0:
266,277,275689,1,2,3:1:0:0:
79,308,275886,1,0,3:0:0:0:
188,336,276083,1,0,3:0:0:0:
120,136,276281,5,10,0:0:0:0:
93,320,276478,1,10,0:0:0:0:
276,352,276675,1,0,3:0:0:0:
303,168,276872,1,10,0:0:0:0:
242,79,277070,6,0,L|255:264,1,170.000003242493,6|0,0:0|0:0,0:0:0:0:
253,248,277662,1,0,0:0:0:0:
398,195,277860,1,10,0:0:0:0:
339,64,278057,1,2,0:0:0:0:
164,191,278254,1,2,0:0:0:0:
288,154,278452,1,0,0:0:0:0:
224,28,278649,6,0,B|138:17|46:19|46:19,1,170.000003242493,2|0,3:1|0:0,0:0:0:0:
109,263,279241,1,0,0:0:0:0:
151,101,279439,1,10,0:0:0:0:
95,253,279833,21,0,0:0:0:0:
63,155,280031,1,2,0:0:0:0:
211,197,280228,6,0,B|297:187|394:180|394:180,1,170.000003242493,6|0,0:3|0:0,0:0:0:0:
380,181,280820,1,0,0:0:0:0:
314,19,281018,2,0,L|304:120,1,85.0000016212464,10|0,0:0|0:0,0:0:0:0:
368,273,281412,1,0,0:0:0:0:
291,115,281610,1,2,0:0:0:0:
441,193,281807,6,0,L|349:182,1,85.0000016212464,2|0,3:1|0:0,0:0:0:0:
286,315,282202,1,0,0:0:0:0:
286,315,282596,1,10,0:0:0:0:
407,278,282793,1,0,0:0:0:0:
372,156,282990,1,0,0:0:0:0:
250,192,283188,1,0,0:0:0:0:
331,238,283386,6,0,B|236:228|146:226|146:226,1,170.000003242493,6|0,0:3|0:0,0:0:0:0:
161,226,283978,1,0,0:0:0:0:
54,136,284175,1,10,0:0:0:0:
145,324,284373,1,2,0:0:0:0:
46,233,284570,1,2,0:0:0:0:
150,345,284768,1,0,0:0:0:0:
210,140,284965,22,0,B|284:121|342:184|303:248|303:248,1,170.000003242493,2|0,3:1|0:0,0:0:0:0:
28,353,285754,2,0,L|12:160,1,170.000003242493,10|0,0:0|0:0,0:0:0:0:
13,183,286346,1,2,0:0:0:0:
80,48,286544,2,0,B|124:39|164:68|164:68,1,85.0000016212464,6|0,0:3|0:0,0:0:0:0:
185,191,286939,1,0,0:0:0:0:
175,292,287136,1,0,0:0:0:0:
102,140,287333,5,10,0:0:0:0:
269,255,287531,1,2,0:0:0:0:
92,239,287728,1,0,0:0:0:0:
305,124,287925,1,0,0:0:0:0:
197,181,288123,37,2,3:1:0:0:
194,164,288320,1,0,3:0:0:0:
191,147,288518,1,0,3:0:0:0:
188,130,288715,1,0,3:0:0:0:
86,71,288912,37,10,0:0:0:0:
290,89,289110,1,2,3:1:0:0:
114,191,289307,1,0,3:0:0:0:
270,182,289504,1,0,3:0:0:0:
188,130,289702,6,0,B|191:217|206:301|206:301,1,170.000003242493,6|0,0:1|0:0,0:0:0:0:
205,298,290294,1,0,0:0:0:0:
363,224,290491,1,10,0:0:0:0:
291,361,290689,1,2,0:0:0:0:
270,182,290886,1,2,0:0:0:0:
270,182,291281,22,0,B|361:160|446:193|446:193,1,170.000003242493,2|0,3:1|0:0,0:0:0:0:
437,190,291873,1,0,0:0:0:0:
399,87,292070,2,0,B|354:73|305:84|305:84,1,85.0000016212464,10|2,0:0|0:0,0:0:0:0:
222,125,292465,1,0,0:0:0:0:
222,125,292662,1,0,0:0:0:0:
63,32,292860,6,0,B|145:14|242:30|242:30,1,170.000003242493,6|0,0:3|0:0,0:0:0:0:
232,28,293452,1,0,0:0:0:0:
203,211,293649,1,10,0:0:0:0:
308,97,293846,1,2,0:0:0:0:
215,226,294044,1,2,0:0:0:0:
216,228,294439,6,0,B|279:271|254:373|181:370|181:370,1,170.000003242493,2|0,3:1|0:0,0:0:0:0:
199,366,295031,1,0,0:0:0:0:
25,227,295228,2,0,L|137:244,1,85.0000016212464,10|2,0:0|0:0,0:0:0:0:
159,148,295623,1,0,0:0:0:0:
159,148,295820,1,0,0:0:0:0:
332,322,296018,22,0,B|314:210|320:97|320:97,1,225.000008583069,6|0,0:3|0:0,0:0:0:0:
230,211,296818,53,6,0:1:0:0:
403,166,297020,1,2,0:0:0:0:
208,124,297223,1,0,0:0:0:0:
435,256,297426,1,0,0:0:0:0:
320,97,297628,6,0,B|314:210|332:323|332:323,1,225.000008583069,6|0,0:3|0:0,0:0:0:0:
212,354,298461,5,6,0:1:0:0:
122,305,298675,1,2,0:0:0:0:
105,204,298889,1,2,0:0:0:0:
160,118,299103,1,0,0:0:0:0:
314,191,299318,6,0,L|413:184,1,85.0000016212464,2|0,3:1|0:0,0:0:0:0:
381,84,299746,2,0,L|474:98,1,85.0000016212464,0|0,3:0|0:0,0:0:0:0:
470,278,300175,37,8,0:0:0:0:
470,278,300398,1,0,0:0:0:0:
470,278,300622,1,0,3:0:0:0:
470,278,300846,1,2,0:0:0:0:
463,374,301070,53,6,0:0:0:0:
256,192,301182,12,8,302861,0:3:0:0:
71,314,306465,22,0,B|103:291|133:285|178:295,1,100,2|0,0:0|0:0,0:0:0:0:
312,333,307310,2,0,P|319:305|320:278,1,50
296,202,307732,1,0,0:0:0:0:
296,202,308155,6,0,L|406:193,1,100,2|0,0:0|0:0,0:0:0:0:
200,263,309000,2,0,P|183:216|188:166,1,100,2|0,0:0|0:0,0:0:0:0:
254,112,309634,1,0,0:0:0:0:
254,112,309845,6,0,P|304:129|366:118,1,100,2|0,0:0|0:0,0:0:0:0:
192,21,310690,2,0,P|136:22|92:51,1,100
47,112,311324,1,0,0:0:0:0:
47,112,311535,6,0,L|56:221,1,100,2|0,0:0|0:0,0:0:0:0:
220,312,312380,2,0,L|228:210,1,100,2|0,0:0|0:0,0:0:0:0:
27,299,313225,22,0,P|95:294|123:274,1,100,2|0,0:0|0:0,0:0:0:0:
275,224,314070,2,0,P|246:218|214:205,1,50
145,156,314493,1,0,0:0:0:0:
145,156,314915,6,0,L|37:152,1,100,2|0,0:0|0:0,0:0:0:0:
226,211,315760,2,0,P|241:154|230:107,1,100,2|0,0:0|0:0,0:0:0:0:
73,66,316394,1,0,0:0:0:0:
73,66,316605,6,0,L|185:49,1,100,2|0,0:0|0:0,0:0:0:0:
393,63,317450,1,0,0:0:0:0:
330,121,317662,2,0,P|280:127|224:110,1,100
171,50,318295,6,0,P|123:45|66:61,1,100,2|0,0:0|0:0,0:0:0:0:
195,197,319141,1,2,0:0:0:0:
283,166,319352,2,0,L|278:285,1,100
102,325,319986,22,0,P|150:304|206:306,1,100,2|0,0:0|0:0,0:0:0:0:
377,341,320831,2,0,L|308:348,2,50
496,191,321676,6,0,P|479:236|483:308,1,100,2|0,0:0|0:0,0:0:0:0:
282,249,322521,1,2,0:0:0:0:
282,249,322732,2,0,L|400:237,1,100
464,184,323366,6,0,P|477:128|468:82,1,100,2|0,0:0|0:0,0:0:0:0:
313,126,324211,2,0,L|373:134,2,50
122,185,325056,6,0,L|239:172,1,100,2|0,0:0|0:0,0:0:0:0:
289,9,325901,1,2,0:0:0:0:
228,77,326112,2,0,P|214:124|234:199,1,100
288,239,326746,22,0,L|401:229,1,100,2|0,0:0|0:0,0:0:0:0:
216,303,327591,1,0,0:0:0:0:
216,303,327803,2,0,L|109:299,1,100
35,278,328436,6,0,P|20:237|27:173,1,100,2|0,0:0|0:0,0:0:0:0:
173,63,329281,2,0,L|169:130,2,50,2|0|0,0:0|0:0|0:0,0:0:0:0:
130,213,330126,22,0,L|244:202,2,100,2|0|0,0:0|0:0|0:0,0:0:0:0:
323,138,331394,2,0,P|333:162|341:201,1,50
300,270,331817,5,2,0:0:0:0:
440,128,333507,6,0,P|360:136|292:68,1,160,2|0,0:0|0:0,0:0:0:0:
72,104,335197,2,0,P|152:96|220:164,1,160,2|0,0:0|0:0,0:0:0:0:
112,344,336887,6,0,P|112:264|124:184,1,160,2|0,0:0|0:0,0:0:0:0:
444,188,338577,2,0,P|448:236|428:288,1,80,2|0,0:0|0:0,0:0:0:0:
356,220,339422,2,0,P|335:263|292:298,1,80,2|0,0:0|0:0,0:0:0:0:
260,208,340267,6,0,P|208:172|120:188,1,139.999995727539,2|0,0:0|0:0,0:0:0:0:
32,36,341957,2,0,P|84:72|172:56,1,139.999995727539,2|0,0:0|0:0,0:0:0:0:
400,32,343647,6,0,L|392:192,1,139.999995727539,2|0,0:0|0:0,0:0:0:0:
256,288,345337,2,0,P|246:254|224:227,1,69.9999978637696,2|0,0:0|0:0,0:0:0:0:
172,296,346183,2,0,P|138:287|103:292,1,69.9999978637696,2|0,0:0|0:0,0:0:0:0:
32,340,347028,21,2,0:0:0:0:
104,88,348718,1,2,0:0:0:0:
348,304,350408,1,2,0:0:0:0:
400,112,352098,1,2,0:0:0:0:
124,104,353788,6,0,P|160:156|292:180,1,200,2|2,0:0|0:0,0:0:0:0:
400,112,357169,1,2,0:3:0:0:
