osu file format v14

[General]
AudioFilename: AmusingReflectionRag.ogg
AudioLeadIn: 0
PreviewTime: 112822
Countdown: 0
SampleSet: Normal
StackLeniency: 0.7
Mode: 1
LetterboxInBreaks: 0
WidescreenStoryboard: 0

[Editor]
DistanceSpacing: 2.4
BeatDivisor: 4
GridSize: 4
TimelineZoom: 1.72

[Metadata]
Title:Amusing Reflection Rag.
TitleUnicode:Amusing Reflection Rag.
Artist:yukitani
ArtistUnicode:yukitani
Creator:Reficul
Version:Oni
Source:
Tags:Midnaait Electronic Instrumental FA Featured Artist osu! Polka Ragtime Core 竹山風 ねこみりん Nekomirin nekomimi style Scott Joplin THE BMS OF FIGHTERS ULTIMATE 大血戦 -BOFU2015- C88
BeatmapID:2982534
BeatmapSetID:1436446

[Difficulty]
HPDrainRate:5
CircleSize:5
OverallDifficulty:5.6
ApproachRate:5
SliderMultiplier:1.4
SliderTickRate:1

[Events]
//Background and Video events
0,0,"aaaaaa.jpg",0,50
//Break Periods
//Storyboard Layer 0 (Background)
//Storyboard Layer 1 (Fail)
//Storyboard Layer 2 (Pass)
//Storyboard Layer 3 (Foreground)
//Storyboard Layer 4 (Overlay)
//Storyboard Sound Samples

[TimingPoints]
944,379.746835443038,4,1,0,80,1,0
76133,363.636363636364,4,1,0,80,1,8
76133,-104.430379755097,4,1,0,80,0,0
76860,363.636363636364,4,1,0,80,1,0
112860,346.820809248555,4,1,0,80,1,1
135056,-100,4,1,0,80,0,0
179276,-100,4,1,0,50,0,0
189849,-100,4,1,0,70,0,0
190547,-100,4,1,0,80,0,1
201299,-100,4,1,0,80,0,0

[HitObjects]
127,186,944,5,8,0:0:0:0:
128,166,1133,1,0,0:0:0:0:
127,186,1228,1,0,0:0:0:0:
127,186,1323,1,8,0:0:0:0:
129,170,1703,1,0,0:0:0:0:
130,170,1893,1,0,0:0:0:0:
130,170,1988,1,0,0:0:0:0:
131,170,2083,1,8,0:0:0:0:
141,164,2462,1,8,0:0:0:0:
141,164,2652,1,0,0:0:0:0:
143,165,2747,1,0,0:0:0:0:
148,165,2842,1,8,0:0:0:0:
143,165,2937,1,8,0:0:0:0:
148,165,3032,1,0,0:0:0:0:
145,163,3222,1,8,0:0:0:0:
162,187,3317,1,8,0:0:0:0:
162,187,3412,1,0,0:0:0:0:
163,175,3507,1,0,0:0:0:0:
141,164,3602,1,8,0:0:0:0:
148,165,3981,1,4,0:0:0:0:
160,160,4171,1,8,0:0:0:0:
161,161,4361,1,0,0:0:0:0:
161,161,4456,1,8,0:0:0:0:
159,159,4646,1,8,0:0:0:0:
159,159,4741,1,0,0:0:0:0:
157,163,5026,1,8,0:0:0:0:
160,160,5216,1,8,0:0:0:0:
160,161,5311,1,8,0:0:0:0:
158,164,5500,1,0,0:0:0:0:
158,165,5690,1,8,0:0:0:0:
157,163,5880,1,0,0:0:0:0:
157,163,5975,1,0,0:0:0:0:
162,166,6070,1,8,0:0:0:0:
166,166,6165,1,8,0:0:0:0:
171,166,6260,1,0,0:0:0:0:
200,168,6640,1,0,0:0:0:0:
171,166,6735,1,8,0:0:0:0:
165,157,6830,1,8,0:0:0:0:
198,159,7019,1,0,0:0:0:0:
198,158,7209,1,8,0:0:0:0:
199,158,7399,1,0,0:0:0:0:
200,158,7494,1,8,0:0:0:0:
200,158,7684,1,8,0:0:0:0:
200,160,7779,1,0,0:0:0:0:
204,159,8064,1,8,0:0:0:0:
204,159,8254,1,8,0:0:0:0:
204,160,8349,1,8,0:0:0:0:
188,140,8538,1,0,0:0:0:0:
188,140,8728,1,8,0:0:0:0:
188,140,8823,1,0,0:0:0:0:
194,139,8918,1,0,0:0:0:0:
194,139,9108,1,8,0:0:0:0:
195,139,9298,1,0,0:0:0:0:
188,140,9583,1,8,0:0:0:0:
188,140,9773,1,8,0:0:0:0:
194,130,10057,1,0,0:0:0:0:
203,150,10247,1,8,0:0:0:0:
206,154,10437,1,0,0:0:0:0:
177,137,10532,1,8,0:0:0:0:
184,129,10722,1,8,0:0:0:0:
184,129,10817,1,0,0:0:0:0:
185,128,11102,1,8,0:0:0:0:
185,128,11292,1,8,0:0:0:0:
185,128,11387,1,8,0:0:0:0:
240,139,11576,1,0,0:0:0:0:
204,130,11766,1,8,0:0:0:0:
204,130,11861,1,8,0:0:0:0:
204,131,11956,1,0,0:0:0:0:
225,140,12051,1,0,0:0:0:0:
225,140,12146,1,8,0:0:0:0:
225,140,12336,1,0,0:0:0:0:
248,141,12716,1,8,0:0:0:0:
228,120,13095,1,0,0:0:0:0:
228,120,13285,1,0,0:0:0:0:
229,119,13475,1,12,0:0:0:0:
228,120,13855,1,0,0:0:0:0:
228,120,14045,1,0,0:0:0:0:
228,120,14235,1,12,0:0:0:0:
261,121,14614,1,0,0:0:0:0:
276,125,14709,1,8,0:0:0:0:
261,121,14804,1,8,0:0:0:0:
261,121,14899,1,8,0:0:0:0:
276,125,14994,1,0,0:0:0:0:
276,125,15184,1,8,0:0:0:0:
276,125,15374,1,0,0:0:0:0:
276,125,15564,1,0,0:0:0:0:
277,125,15754,1,12,0:0:0:0:
287,126,16133,1,0,0:0:0:0:
182,93,16323,1,8,0:0:0:0:
182,93,16513,1,0,0:0:0:0:
182,93,16608,1,8,0:0:0:0:
182,93,16798,1,8,0:0:0:0:
182,93,16893,1,8,0:0:0:0:
188,94,16988,1,0,0:0:0:0:
199,90,17178,1,8,0:0:0:0:
199,90,17368,1,8,0:0:0:0:
199,90,17462,1,8,0:0:0:0:
205,90,17652,1,0,0:0:0:0:
210,89,17842,1,8,0:0:0:0:
211,90,17937,1,8,0:0:0:0:
211,90,18032,1,0,0:0:0:0:
223,87,18127,1,0,0:0:0:0:
236,88,18222,1,8,0:0:0:0:
226,87,18412,1,0,0:0:0:0:
235,88,18792,1,0,0:0:0:0:
235,88,18887,1,8,0:0:0:0:
197,107,18981,1,8,0:0:0:0:
217,100,19076,1,8,0:0:0:0:
241,88,19171,1,0,0:0:0:0:
247,85,19361,1,8,0:0:0:0:
253,84,19551,1,0,0:0:0:0:
256,83,19646,1,8,0:0:0:0:
265,85,19836,1,8,0:0:0:0:
265,85,19931,1,8,0:0:0:0:
265,85,20026,1,0,0:0:0:0:
265,85,20216,1,8,0:0:0:0:
266,85,20406,1,8,0:0:0:0:
269,85,20500,1,8,0:0:0:0:
270,86,20690,1,0,0:0:0:0:
291,78,20785,1,0,0:0:0:0:
290,78,20880,1,8,0:0:0:0:
298,75,20975,1,0,0:0:0:0:
298,75,21070,1,8,0:0:0:0:
138,113,21260,1,8,0:0:0:0:
207,73,21450,1,0,0:0:0:0:
211,69,21735,1,8,0:0:0:0:
218,68,21925,1,8,0:0:0:0:
169,79,22209,1,0,0:0:0:0:
176,74,22399,1,8,0:0:0:0:
192,69,22589,1,0,0:0:0:0:
199,68,22684,1,8,0:0:0:0:
200,68,22874,1,8,0:0:0:0:
207,67,22969,1,8,0:0:0:0:
209,67,23064,1,0,0:0:0:0:
231,60,23254,1,8,0:0:0:0:
253,54,23444,1,8,0:0:0:0:
253,54,23538,1,8,0:0:0:0:
285,56,23728,1,0,0:0:0:0:
297,61,23823,1,0,0:0:0:0:
291,59,23918,1,8,0:0:0:0:
297,61,24108,1,8,0:0:0:0:
316,53,24203,1,8,0:0:0:0:
320,52,24298,1,8,0:0:0:0:
322,52,24393,1,8,0:0:0:0:
325,53,24488,1,0,0:0:0:0:
359,39,24868,1,8,0:0:0:0:
305,78,25247,1,0,0:0:0:0:
305,78,25342,1,0,0:0:0:0:
243,103,25437,1,0,0:0:0:0:
305,78,25627,1,12,0:0:0:0:
221,103,26007,1,0,0:0:0:0:
221,103,26102,1,0,0:0:0:0:
228,101,26197,1,0,0:0:0:0:
230,101,26387,1,12,0:0:0:0:
205,100,26766,1,0,0:0:0:0:
205,100,26861,1,8,0:0:0:0:
212,97,26956,1,8,0:0:0:0:
218,95,27051,1,8,0:0:0:0:
220,95,27146,1,0,0:0:0:0:
220,95,27336,1,8,0:0:0:0:
220,96,27526,1,0,0:0:0:0:
220,96,27716,1,0,0:0:0:0:
220,96,27906,1,12,0:0:0:0:
220,95,28285,1,4,0:0:0:0:
220,96,28665,1,8,0:0:0:0:
204,100,28855,1,0,0:0:0:0:
220,96,28950,1,8,0:0:0:0:
220,95,29045,1,0,0:0:0:0:
160,75,29235,1,0,0:0:0:0:
160,75,29425,1,8,0:0:0:0:
171,74,29519,1,0,0:0:0:0:
172,74,29614,1,8,0:0:0:0:
179,75,29804,1,0,0:0:0:0:
180,76,30184,1,8,0:0:0:0:
182,76,30374,1,0,0:0:0:0:
182,76,30469,1,8,0:0:0:0:
172,74,30564,1,0,0:0:0:0:
150,131,30754,1,0,0:0:0:0:
150,131,30944,1,8,0:0:0:0:
161,145,31038,1,8,0:0:0:0:
150,131,31133,1,8,0:0:0:0:
161,145,31323,1,0,0:0:0:0:
161,145,31703,1,8,0:0:0:0:
161,147,31893,1,8,0:0:0:0:
162,147,31988,1,8,0:0:0:0:
162,147,32083,1,0,0:0:0:0:
163,148,32178,1,0,0:0:0:0:
161,145,32273,1,8,0:0:0:0:
154,147,32462,1,8,0:0:0:0:
154,147,32652,1,0,0:0:0:0:
153,147,32842,1,8,0:0:0:0:
153,147,33032,1,8,0:0:0:0:
154,147,33412,1,8,0:0:0:0:
154,147,33602,1,0,0:0:0:0:
153,147,33981,1,8,0:0:0:0:
154,147,34361,1,0,0:0:0:0:
144,134,34741,1,8,0:0:0:0:
150,142,34931,1,0,0:0:0:0:
153,147,35026,1,8,0:0:0:0:
156,142,35121,1,0,0:0:0:0:
156,142,35311,1,0,0:0:0:0:
157,142,35500,1,8,0:0:0:0:
157,143,35595,1,0,0:0:0:0:
161,143,35690,1,8,0:0:0:0:
161,143,35880,1,0,0:0:0:0:
146,135,36260,1,8,0:0:0:0:
163,144,36450,1,8,0:0:0:0:
164,146,36545,1,8,0:0:0:0:
165,146,36640,1,0,0:0:0:0:
165,147,36830,1,0,0:0:0:0:
165,147,37019,1,8,0:0:0:0:
171,148,37114,1,8,0:0:0:0:
173,149,37209,1,8,0:0:0:0:
177,149,37399,1,0,0:0:0:0:
146,135,37779,1,8,0:0:0:0:
190,151,37969,1,0,0:0:0:0:
191,151,38064,1,8,0:0:0:0:
198,157,38159,1,0,0:0:0:0:
199,158,38349,1,0,0:0:0:0:
199,158,38538,1,8,0:0:0:0:
199,158,38633,1,8,0:0:0:0:
198,157,38728,1,8,0:0:0:0:
199,157,38823,1,8,0:0:0:0:
198,157,38918,1,0,0:0:0:0:
198,157,39108,1,8,0:0:0:0:
199,158,39203,1,8,0:0:0:0:
199,158,39298,1,8,0:0:0:0:
199,158,39488,1,8,0:0:0:0:
198,157,39678,1,0,0:0:0:0:
198,157,40057,1,12,0:0:0:0:
220,95,40437,1,0,0:0:0:0:
184,119,40817,1,8,0:0:0:0:
204,100,41007,1,0,0:0:0:0:
220,96,41102,1,8,0:0:0:0:
220,95,41197,1,0,0:0:0:0:
160,75,41387,1,8,0:0:0:0:
160,75,41576,1,8,0:0:0:0:
171,74,41671,1,8,0:0:0:0:
172,74,41766,1,8,0:0:0:0:
179,75,41956,1,0,0:0:0:0:
186,103,42241,1,0,0:0:0:0:
180,76,42336,1,8,0:0:0:0:
182,76,42526,1,8,0:0:0:0:
182,76,42621,1,8,0:0:0:0:
172,74,42716,1,0,0:0:0:0:
150,131,42906,1,0,0:0:0:0:
150,131,43095,1,8,0:0:0:0:
161,145,43190,1,8,0:0:0:0:
150,131,43285,1,8,0:0:0:0:
161,145,43475,1,0,0:0:0:0:
161,145,43855,1,8,0:0:0:0:
161,147,44045,1,0,0:0:0:0:
162,147,44140,1,0,0:0:0:0:
162,147,44235,1,0,0:0:0:0:
161,146,44330,1,0,0:0:0:0:
161,145,44425,1,8,0:0:0:0:
154,147,44804,1,0,0:0:0:0:
153,147,44994,1,8,0:0:0:0:
153,147,45184,1,8,0:0:0:0:
179,147,45279,1,8,0:0:0:0:
167,146,45374,1,0,0:0:0:0:
154,147,45564,1,8,0:0:0:0:
154,147,45754,1,0,0:0:0:0:
153,147,46133,1,8,0:0:0:0:
154,147,46513,1,0,0:0:0:0:
144,134,46893,1,8,0:0:0:0:
150,142,47083,1,8,0:0:0:0:
153,147,47178,1,8,0:0:0:0:
156,142,47273,1,0,0:0:0:0:
156,142,47462,1,0,0:0:0:0:
157,142,47652,1,8,0:0:0:0:
157,143,47747,1,0,0:0:0:0:
161,143,47842,1,8,0:0:0:0:
161,143,48032,1,0,0:0:0:0:
151,136,48317,1,0,0:0:0:0:
146,135,48412,1,8,0:0:0:0:
163,144,48602,1,0,0:0:0:0:
164,146,48697,1,8,0:0:0:0:
165,146,48792,1,0,0:0:0:0:
165,147,48981,1,0,0:0:0:0:
165,147,49171,1,8,0:0:0:0:
171,148,49266,1,8,0:0:0:0:
173,149,49361,1,8,0:0:0:0:
177,149,49551,1,0,0:0:0:0:
146,135,49931,1,8,0:0:0:0:
190,151,50121,1,0,0:0:0:0:
191,151,50216,1,8,0:0:0:0:
198,157,50311,1,0,0:0:0:0:
199,158,50500,1,0,0:0:0:0:
199,158,50690,1,8,0:0:0:0:
199,158,50785,1,8,0:0:0:0:
198,157,50880,1,0,0:0:0:0:
199,157,50975,1,0,0:0:0:0:
198,157,51070,1,0,0:0:0:0:
198,157,51260,1,8,0:0:0:0:
199,158,51355,1,8,0:0:0:0:
199,158,51450,1,8,0:0:0:0:
199,158,51640,1,8,0:0:0:0:
198,157,51830,1,0,0:0:0:0:
199,157,51925,1,0,0:0:0:0:
179,149,52019,1,0,0:0:0:0:
154,164,52114,1,0,0:0:0:0:
198,157,52209,1,8,0:0:0:0:
172,155,52589,1,12,0:0:0:0:
173,155,52969,1,4,0:0:0:0:
172,155,53349,1,12,0:0:0:0:
172,155,53538,1,4,0:0:0:0:
173,155,53728,1,12,0:0:0:0:
165,132,54108,1,0,0:0:0:0:
165,131,54203,1,8,0:0:0:0:
165,131,54298,1,8,0:0:0:0:
165,131,54393,1,8,0:0:0:0:
165,131,54488,1,0,0:0:0:0:
165,132,54678,1,0,0:0:0:0:
165,132,54773,1,0,0:0:0:0:
165,132,54868,1,8,0:0:0:0:
168,136,55247,1,8,0:0:0:0:
168,136,55342,1,0,0:0:0:0:
168,136,55437,1,0,0:0:0:0:
172,155,55627,1,12,0:0:0:0:
173,155,56007,1,4,0:0:0:0:
172,155,56387,1,12,0:0:0:0:
172,155,56576,1,4,0:0:0:0:
173,155,56766,1,12,0:0:0:0:
175,141,57146,1,8,0:0:0:0:
175,140,57241,1,0,0:0:0:0:
176,139,57336,1,0,0:0:0:0:
182,138,57431,1,0,0:0:0:0:
176,138,57526,1,8,0:0:0:0:
176,138,57716,1,8,0:0:0:0:
182,138,57906,1,0,0:0:0:0:
179,138,58000,1,8,0:0:0:0:
175,141,58095,1,8,0:0:0:0:
175,140,58190,1,8,0:0:0:0:
175,140,58285,1,0,0:0:0:0:
182,138,58475,1,0,0:0:0:0:
172,155,58665,1,12,0:0:0:0:
173,155,59045,1,4,0:0:0:0:
172,155,59425,1,12,0:0:0:0:
172,155,59614,1,4,0:0:0:0:
173,155,59804,1,12,0:0:0:0:
162,138,60184,1,0,0:0:0:0:
162,138,60279,1,8,0:0:0:0:
162,138,60374,1,8,0:0:0:0:
162,138,60469,1,8,0:0:0:0:
162,138,60564,1,0,0:0:0:0:
162,138,60754,1,0,0:0:0:0:
162,138,60849,1,0,0:0:0:0:
162,138,60944,1,8,0:0:0:0:
162,138,61323,1,0,0:0:0:0:
162,138,61418,1,0,0:0:0:0:
162,138,61513,1,8,0:0:0:0:
176,144,61703,1,0,0:0:0:0:
177,151,61798,1,8,0:0:0:0:
176,144,61893,1,8,0:0:0:0:
176,143,61988,1,8,0:0:0:0:
177,143,62083,1,0,0:0:0:0:
180,143,62273,1,0,0:0:0:0:
180,143,62368,1,0,0:0:0:0:
200,144,62462,1,8,0:0:0:0:
199,143,62842,1,8,0:0:0:0:
196,137,63222,1,8,0:0:0:0:
196,137,63412,1,0,0:0:0:0:
196,137,63507,1,8,0:0:0:0:
196,138,63602,1,0,0:0:0:0:
199,143,63792,1,8,0:0:0:0:
196,137,63981,1,0,0:0:0:0:
196,137,64171,1,0,0:0:0:0:
196,137,64361,1,12,0:0:0:0:
172,155,64741,1,12,0:0:0:0:
173,155,65121,1,4,0:0:0:0:
172,155,65500,1,12,0:0:0:0:
172,155,65690,1,4,0:0:0:0:
173,155,65880,1,12,0:0:0:0:
165,132,66260,1,0,0:0:0:0:
165,131,66355,1,8,0:0:0:0:
165,131,66450,1,8,0:0:0:0:
165,131,66545,1,8,0:0:0:0:
165,131,66640,1,0,0:0:0:0:
165,132,66830,1,0,0:0:0:0:
165,132,66925,1,0,0:0:0:0:
165,132,67019,1,8,0:0:0:0:
168,136,67399,1,8,0:0:0:0:
168,136,67494,1,0,0:0:0:0:
168,136,67589,1,0,0:0:0:0:
172,155,67779,1,12,0:0:0:0:
173,155,68159,1,4,0:0:0:0:
172,155,68538,1,12,0:0:0:0:
172,155,68728,1,4,0:0:0:0:
173,155,68918,1,12,0:0:0:0:
175,141,69298,1,8,0:0:0:0:
175,140,69393,1,0,0:0:0:0:
176,139,69488,1,0,0:0:0:0:
182,138,69583,1,0,0:0:0:0:
176,138,69678,1,8,0:0:0:0:
176,138,69868,1,8,0:0:0:0:
182,138,70057,1,0,0:0:0:0:
179,138,70152,1,8,0:0:0:0:
175,141,70247,1,8,0:0:0:0:
175,140,70342,1,8,0:0:0:0:
175,140,70437,1,0,0:0:0:0:
182,138,70627,1,0,0:0:0:0:
172,155,70817,1,12,0:0:0:0:
173,155,71197,1,4,0:0:0:0:
172,155,71576,1,12,0:0:0:0:
172,155,71766,1,4,0:0:0:0:
173,155,71956,1,12,0:0:0:0:
162,138,72336,1,0,0:0:0:0:
162,138,72431,1,8,0:0:0:0:
162,138,72526,1,8,0:0:0:0:
162,138,72621,1,8,0:0:0:0:
162,138,72716,1,0,0:0:0:0:
162,138,72906,1,0,0:0:0:0:
162,138,73000,1,0,0:0:0:0:
162,138,73095,1,8,0:0:0:0:
162,138,73475,1,0,0:0:0:0:
162,138,73570,1,0,0:0:0:0:
162,138,73665,1,8,0:0:0:0:
176,144,73855,1,0,0:0:0:0:
177,151,73950,1,8,0:0:0:0:
176,144,74045,1,8,0:0:0:0:
176,143,74140,1,8,0:0:0:0:
177,143,74235,1,0,0:0:0:0:
180,143,74425,1,0,0:0:0:0:
180,143,74519,1,0,0:0:0:0:
200,144,74614,1,8,0:0:0:0:
199,143,74994,1,8,0:0:0:0:
196,137,75374,1,8,0:0:0:0:
196,137,75564,1,0,0:0:0:0:
196,137,75659,1,8,0:0:0:0:
196,138,75754,1,0,0:0:0:0:
196,134,75944,1,8,0:0:0:0:
194,131,76038,1,8,0:0:0:0:
191,141,76133,1,0,0:0:0:0:
191,141,76314,1,0,0:0:0:0:
191,141,76496,1,12,0:0:0:0:
212,129,76860,1,4,0:0:0:0:
187,134,77041,1,0,0:0:0:0:
205,126,77132,1,8,0:0:0:0:
205,126,77223,1,0,0:0:0:0:
205,126,77405,1,0,0:0:0:0:
206,126,77587,1,8,0:0:0:0:
206,126,77678,1,8,0:0:0:0:
206,128,77769,1,0,0:0:0:0:
209,129,77860,1,0,0:0:0:0:
206,128,77950,1,8,0:0:0:0:
220,129,78132,1,0,0:0:0:0:
209,128,78314,1,8,0:0:0:0:
209,128,78405,1,8,0:0:0:0:
206,126,78587,1,8,0:0:0:0:
206,126,78678,1,0,0:0:0:0:
206,128,78860,1,8,0:0:0:0:
222,131,79041,1,0,0:0:0:0:
220,129,79132,1,0,0:0:0:0:
207,126,79223,1,0,0:0:0:0:
209,128,79314,1,0,0:0:0:0:
209,128,79405,1,8,0:0:0:0:
220,125,79769,1,0,0:0:0:0:
216,126,79950,1,8,0:0:0:0:
216,126,80041,1,0,0:0:0:0:
216,126,80223,1,0,0:0:0:0:
220,129,80314,1,8,0:0:0:0:
235,132,80496,1,8,0:0:0:0:
244,134,80678,1,0,0:0:0:0:
216,126,80769,1,8,0:0:0:0:
247,134,80950,1,8,0:0:0:0:
216,126,81041,1,0,0:0:0:0:
216,126,81223,1,0,0:0:0:0:
216,128,81405,1,8,0:0:0:0:
217,128,81496,1,8,0:0:0:0:
216,126,81678,1,8,0:0:0:0:
216,126,81769,1,8,0:0:0:0:
216,126,81860,1,0,0:0:0:0:
222,126,81950,1,0,0:0:0:0:
229,126,82314,1,0,0:0:0:0:
229,126,82496,1,8,0:0:0:0:
224,119,82678,1,0,0:0:0:0:
224,118,82769,1,8,0:0:0:0:
224,118,82950,1,8,0:0:0:0:
225,118,83041,1,0,0:0:0:0:
226,119,83223,1,8,0:0:0:0:
227,120,83405,1,0,0:0:0:0:
229,120,83496,1,0,0:0:0:0:
229,120,83587,1,0,0:0:0:0:
237,120,83678,1,0,0:0:0:0:
236,120,83769,1,8,0:0:0:0:
236,122,83950,1,0,0:0:0:0:
236,124,84132,1,8,0:0:0:0:
216,129,84223,1,8,0:0:0:0:
216,130,84405,1,8,0:0:0:0:
215,131,84496,1,0,0:0:0:0:
215,131,84678,1,8,0:0:0:0:
214,131,84860,1,8,0:0:0:0:
214,131,84950,1,8,0:0:0:0:
216,132,85041,1,0,0:0:0:0:
216,132,85132,1,0,0:0:0:0:
218,133,85223,1,8,0:0:0:0:
225,133,85587,1,0,0:0:0:0:
231,134,85769,1,8,0:0:0:0:
231,135,85860,1,0,0:0:0:0:
236,126,86041,1,0,0:0:0:0:
238,132,86132,1,8,0:0:0:0:
235,140,86314,1,8,0:0:0:0:
235,140,86496,1,0,0:0:0:0:
235,140,86587,1,8,0:0:0:0:
236,140,86769,1,8,0:0:0:0:
237,140,86860,1,0,0:0:0:0:
240,142,87041,1,0,0:0:0:0:
241,142,87223,1,0,0:0:0:0:
242,142,87314,1,8,0:0:0:0:
223,139,87496,1,8,0:0:0:0:
223,139,87587,1,0,0:0:0:0:
223,139,87678,1,0,0:0:0:0:
223,140,87769,1,0,0:0:0:0:
207,117,88314,1,0,0:0:0:0:
207,117,88405,1,0,0:0:0:0:
207,117,88496,1,8,0:0:0:0:
225,111,88678,1,0,0:0:0:0:
225,111,88769,1,0,0:0:0:0:
225,111,88950,1,8,0:0:0:0:
236,117,89041,1,0,0:0:0:0:
232,112,89132,1,0,0:0:0:0:
235,114,89223,1,8,0:0:0:0:
208,98,89769,1,8,0:0:0:0:
205,90,89860,1,8,0:0:0:0:
204,90,89950,1,0,0:0:0:0:
204,92,90132,1,8,0:0:0:0:
204,92,90223,1,8,0:0:0:0:
204,91,90405,1,0,0:0:0:0:
204,91,90496,1,8,0:0:0:0:
226,87,90587,1,8,0:0:0:0:
235,84,90678,1,0,0:0:0:0:
199,86,91223,1,8,0:0:0:0:
199,86,91405,1,0,0:0:0:0:
199,88,91496,1,0,0:0:0:0:
198,85,91678,1,8,0:0:0:0:
166,120,91769,1,0,0:0:0:0:
166,120,91860,1,0,0:0:0:0:
166,120,92041,1,8,0:0:0:0:
166,120,92678,1,0,0:0:0:0:
166,120,92860,1,8,0:0:0:0:
166,120,92950,1,8,0:0:0:0:
166,120,93132,1,0,0:0:0:0:
166,120,93223,1,8,0:0:0:0:
166,120,93314,1,8,0:0:0:0:
166,120,93496,1,8,0:0:0:0:
166,120,94132,1,0,0:0:0:0:
166,120,94223,1,0,0:0:0:0:
166,120,94314,1,8,0:0:0:0:
225,111,94496,1,0,0:0:0:0:
225,111,94587,1,0,0:0:0:0:
225,111,94769,1,8,0:0:0:0:
236,117,94860,1,0,0:0:0:0:
232,112,94950,1,0,0:0:0:0:
235,114,95041,1,8,0:0:0:0:
208,98,95587,1,8,0:0:0:0:
205,90,95678,1,8,0:0:0:0:
204,90,95769,1,0,0:0:0:0:
204,92,95950,1,8,0:0:0:0:
204,92,96041,1,8,0:0:0:0:
204,91,96223,1,0,0:0:0:0:
204,91,96314,1,8,0:0:0:0:
226,87,96405,1,8,0:0:0:0:
235,84,96496,1,0,0:0:0:0:
199,86,97041,1,8,0:0:0:0:
199,86,97223,1,8,0:0:0:0:
199,88,97314,1,0,0:0:0:0:
226,68,97496,1,0,0:0:0:0:
226,68,97587,1,8,0:0:0:0:
226,68,97678,1,8,0:0:0:0:
226,68,97860,1,0,0:0:0:0:
226,68,98041,1,0,0:0:0:0:
226,68,98132,1,0,0:0:0:0:
226,68,98314,1,8,0:0:0:0:
226,68,98405,1,8,0:0:0:0:
227,73,98678,1,0,0:0:0:0:
227,73,98769,1,8,0:0:0:0:
229,75,98860,1,8,0:0:0:0:
220,79,98950,1,0,0:0:0:0:
231,78,99132,1,0,0:0:0:0:
231,78,99223,1,8,0:0:0:0:
231,78,99405,1,0,0:0:0:0:
229,75,99950,1,0,0:0:0:0:
231,78,100041,1,0,0:0:0:0:
207,90,100132,1,8,0:0:0:0:
225,111,100314,1,0,0:0:0:0:
225,111,100405,1,0,0:0:0:0:
225,111,100587,1,8,0:0:0:0:
236,117,100678,1,0,0:0:0:0:
232,112,100769,1,0,0:0:0:0:
235,114,100860,1,8,0:0:0:0:
208,101,101223,1,0,0:0:0:0:
208,98,101405,1,8,0:0:0:0:
205,90,101496,1,8,0:0:0:0:
204,90,101587,1,0,0:0:0:0:
204,92,101769,1,8,0:0:0:0:
204,92,101860,1,8,0:0:0:0:
204,91,102041,1,0,0:0:0:0:
204,91,102132,1,8,0:0:0:0:
226,87,102223,1,8,0:0:0:0:
235,84,102314,1,0,0:0:0:0:
199,86,102678,1,0,0:0:0:0:
199,86,102860,1,8,0:0:0:0:
199,86,103041,1,0,0:0:0:0:
199,88,103132,1,8,0:0:0:0:
198,85,103223,1,0,0:0:0:0:
166,120,103405,1,0,0:0:0:0:
166,120,103496,1,0,0:0:0:0:
166,120,103587,1,8,0:0:0:0:
157,128,103678,1,8,0:0:0:0:
166,120,104132,1,0,0:0:0:0:
166,120,104314,1,8,0:0:0:0:
166,120,104496,1,8,0:0:0:0:
166,120,104587,1,8,0:0:0:0:
166,120,104678,1,0,0:0:0:0:
166,120,104860,1,8,0:0:0:0:
166,120,104950,1,0,0:0:0:0:
137,129,105041,1,8,0:0:0:0:
166,120,105132,1,8,0:0:0:0:
162,104,105587,1,0,0:0:0:0:
166,120,105769,1,0,0:0:0:0:
166,120,105860,1,0,0:0:0:0:
166,120,105950,1,8,0:0:0:0:
225,111,106132,1,0,0:0:0:0:
225,111,106223,1,0,0:0:0:0:
225,111,106405,1,8,0:0:0:0:
236,117,106496,1,0,0:0:0:0:
232,112,106587,1,0,0:0:0:0:
235,114,106678,1,8,0:0:0:0:
208,101,107041,1,0,0:0:0:0:
208,98,107223,1,8,0:0:0:0:
205,90,107314,1,8,0:0:0:0:
204,90,107405,1,0,0:0:0:0:
204,92,107587,1,8,0:0:0:0:
204,92,107678,1,8,0:0:0:0:
204,91,107860,1,0,0:0:0:0:
204,91,107950,1,8,0:0:0:0:
226,87,108041,1,8,0:0:0:0:
235,84,108132,1,0,0:0:0:0:
199,86,108496,1,0,0:0:0:0:
199,86,108678,1,8,0:0:0:0:
199,86,108860,1,0,0:0:0:0:
199,88,108950,1,0,0:0:0:0:
226,68,109132,1,0,0:0:0:0:
226,68,109223,1,8,0:0:0:0:
226,68,109314,1,8,0:0:0:0:
226,68,109496,1,0,0:0:0:0:
226,68,109678,1,8,0:0:0:0:
226,68,109769,1,8,0:0:0:0:
226,68,109860,1,0,0:0:0:0:
226,68,109950,1,8,0:0:0:0:
226,68,110041,1,8,0:0:0:0:
227,73,110314,1,8,0:0:0:0:
181,98,110496,1,8,0:0:0:0:
229,75,110587,1,0,0:0:0:0:
231,78,110769,1,0,0:0:0:0:
231,78,110860,1,8,0:0:0:0:
231,78,111041,1,0,0:0:0:0:
231,78,111405,1,12,0:0:0:0:
221,80,112860,1,4,0:0:0:0:
149,133,113206,1,8,0:0:0:0:
164,130,113380,1,0,0:0:0:0:
165,128,113466,1,0,0:0:0:0:
165,128,113553,1,8,0:0:0:0:
165,126,113727,1,0,0:0:0:0:
164,126,113813,1,0,0:0:0:0:
183,127,114073,1,8,0:0:0:0:
141,104,114247,1,0,0:0:0:0:
141,104,114420,1,8,0:0:0:0:
147,100,114507,1,8,0:0:0:0:
156,96,114680,1,0,0:0:0:0:
156,96,114767,1,8,0:0:0:0:
158,96,114854,1,8,0:0:0:0:
182,90,115027,1,0,0:0:0:0:
182,90,115114,1,0,0:0:0:0:
182,90,115287,1,8,0:0:0:0:
195,92,115634,1,0,0:0:0:0:
195,92,115721,1,8,0:0:0:0:
195,90,115807,1,8,0:0:0:0:
189,90,115981,1,8,0:0:0:0:
189,91,116068,1,8,0:0:0:0:
189,90,116154,1,0,0:0:0:0:
203,92,116241,1,0,0:0:0:0:
203,92,116328,1,8,0:0:0:0:
203,92,116501,1,0,0:0:0:0:
203,92,116588,1,0,0:0:0:0:
203,90,116848,1,8,0:0:0:0:
228,92,117021,1,0,0:0:0:0:
228,92,117195,1,8,0:0:0:0:
213,91,117281,1,8,0:0:0:0:
216,90,117368,1,0,0:0:0:0:
216,90,117542,1,0,0:0:0:0:
217,89,117628,1,8,0:0:0:0:
228,92,117802,1,8,0:0:0:0:
228,92,117888,1,0,0:0:0:0:
228,92,117975,1,0,0:0:0:0:
228,92,118062,1,8,0:0:0:0:
252,113,118409,1,0,0:0:0:0:
251,112,118495,1,0,0:0:0:0:
251,112,118582,1,8,0:0:0:0:
260,114,118755,1,8,0:0:0:0:
261,114,118842,1,8,0:0:0:0:
261,114,118929,1,0,0:0:0:0:
268,113,119016,1,0,0:0:0:0:
269,116,119102,1,8,0:0:0:0:
265,115,119276,1,0,0:0:0:0:
227,88,119362,1,0,0:0:0:0:
267,114,119623,1,8,0:0:0:0:
268,114,119796,1,8,0:0:0:0:
220,97,119969,1,0,0:0:0:0:
220,97,120056,1,8,0:0:0:0:
220,97,120229,1,0,0:0:0:0:
223,100,120316,1,8,0:0:0:0:
223,101,120403,1,0,0:0:0:0:
220,97,120576,1,8,0:0:0:0:
220,97,120663,1,0,0:0:0:0:
220,97,120836,1,8,0:0:0:0:
235,102,121183,1,0,0:0:0:0:
243,102,121357,1,8,0:0:0:0:
243,102,121443,1,0,0:0:0:0:
237,102,121530,1,8,0:0:0:0:
244,102,121703,1,0,0:0:0:0:
245,102,121790,1,8,0:0:0:0:
246,102,121877,1,0,0:0:0:0:
228,104,122050,1,8,0:0:0:0:
228,104,122137,1,8,0:0:0:0:
228,105,122397,1,0,0:0:0:0:
248,111,122570,1,8,0:0:0:0:
256,118,122657,1,8,0:0:0:0:
232,129,122831,1,8,0:0:0:0:
258,119,122917,1,0,0:0:0:0:
265,118,123091,1,8,0:0:0:0:
265,118,123177,1,8,0:0:0:0:
272,113,123264,1,0,0:0:0:0:
279,112,123438,1,0,0:0:0:0:
279,112,123611,1,8,0:0:0:0:
221,80,123958,1,4,0:0:0:0:
149,133,124305,1,8,0:0:0:0:
164,130,124478,1,0,0:0:0:0:
165,128,124565,1,0,0:0:0:0:
165,128,124651,1,8,0:0:0:0:
165,126,124825,1,0,0:0:0:0:
164,126,124912,1,0,0:0:0:0:
183,127,125172,1,8,0:0:0:0:
141,104,125345,1,0,0:0:0:0:
141,104,125518,1,8,0:0:0:0:
147,100,125605,1,8,0:0:0:0:
156,96,125779,1,0,0:0:0:0:
156,96,125865,1,8,0:0:0:0:
158,96,125952,1,8,0:0:0:0:
182,90,126125,1,0,0:0:0:0:
182,90,126212,1,0,0:0:0:0:
182,90,126386,1,8,0:0:0:0:
195,92,126732,1,0,0:0:0:0:
195,92,126819,1,8,0:0:0:0:
195,90,126906,1,8,0:0:0:0:
189,90,127079,1,8,0:0:0:0:
189,91,127166,1,8,0:0:0:0:
189,90,127253,1,0,0:0:0:0:
203,92,127339,1,0,0:0:0:0:
203,92,127426,1,8,0:0:0:0:
203,92,127599,1,0,0:0:0:0:
203,92,127686,1,0,0:0:0:0:
203,90,127946,1,8,0:0:0:0:
228,92,128120,1,0,0:0:0:0:
228,92,128293,1,8,0:0:0:0:
213,91,128380,1,8,0:0:0:0:
216,90,128466,1,0,0:0:0:0:
216,90,128640,1,0,0:0:0:0:
217,89,128727,1,8,0:0:0:0:
228,92,128900,1,8,0:0:0:0:
228,92,128987,1,0,0:0:0:0:
228,92,129073,1,0,0:0:0:0:
228,92,129160,1,8,0:0:0:0:
252,113,129507,1,0,0:0:0:0:
251,112,129594,1,0,0:0:0:0:
251,112,129680,1,8,0:0:0:0:
260,114,129854,1,8,0:0:0:0:
261,114,129940,1,8,0:0:0:0:
261,114,130027,1,0,0:0:0:0:
268,113,130114,1,0,0:0:0:0:
269,116,130201,1,8,0:0:0:0:
265,115,130374,1,0,0:0:0:0:
227,88,130461,1,0,0:0:0:0:
267,114,130721,1,8,0:0:0:0:
268,114,130894,1,8,0:0:0:0:
220,97,131068,1,0,0:0:0:0:
220,97,131154,1,8,0:0:0:0:
220,97,131328,1,0,0:0:0:0:
223,100,131414,1,8,0:0:0:0:
223,101,131501,1,0,0:0:0:0:
220,97,131675,1,8,0:0:0:0:
220,97,131761,1,0,0:0:0:0:
220,97,131935,1,8,0:0:0:0:
235,102,132281,1,0,0:0:0:0:
243,102,132455,1,8,0:0:0:0:
243,102,132542,1,0,0:0:0:0:
237,102,132628,1,8,0:0:0:0:
244,102,132802,1,0,0:0:0:0:
245,102,132888,1,8,0:0:0:0:
246,102,132975,1,0,0:0:0:0:
228,104,133149,1,8,0:0:0:0:
228,104,133235,1,8,0:0:0:0:
228,105,133495,1,0,0:0:0:0:
248,111,133669,1,8,0:0:0:0:
256,118,133755,1,8,0:0:0:0:
232,129,133929,1,8,0:0:0:0:
258,119,134016,1,0,0:0:0:0:
265,118,134189,1,8,0:0:0:0:
272,113,134362,1,0,0:0:0:0:
265,118,134449,1,0,0:0:0:0:
279,112,134536,1,0,0:0:0:0:
239,119,134623,1,0,0:0:0:0:
279,112,134709,1,8,0:0:0:0:
283,114,135056,1,4,0:0:0:0:
242,110,135229,1,8,0:0:0:0:
244,109,135403,1,0,0:0:0:0:
242,110,135490,1,0,0:0:0:0:
242,110,135576,1,8,0:0:0:0:
242,110,135663,1,8,0:0:0:0:
242,110,135750,1,0,0:0:0:0:
267,108,136096,1,8,0:0:0:0:
151,107,136443,1,0,0:0:0:0:
151,107,136617,1,8,0:0:0:0:
151,107,136790,1,8,0:0:0:0:
151,107,136877,1,8,0:0:0:0:
151,107,136964,1,0,0:0:0:0:
151,107,137050,1,0,0:0:0:0:
166,102,137137,1,8,0:0:0:0:
252,130,137484,1,8,0:0:0:0:
230,132,137831,1,0,0:0:0:0:
230,132,137917,1,8,0:0:0:0:
230,132,138091,1,8,0:0:0:0:
230,132,138177,1,0,0:0:0:0:
230,132,138351,1,8,0:0:0:0:
241,135,138524,1,0,0:0:0:0:
242,134,138611,1,8,0:0:0:0:
242,134,138784,1,8,0:0:0:0:
242,134,138871,1,0,0:0:0:0:
243,134,139044,1,8,0:0:0:0:
243,134,139218,1,0,0:0:0:0:
243,135,139305,1,0,0:0:0:0:
244,135,139391,1,8,0:0:0:0:
241,135,139478,1,8,0:0:0:0:
242,134,139565,1,0,0:0:0:0:
242,134,139738,1,8,0:0:0:0:
246,135,139912,1,0,0:0:0:0:
228,138,140085,1,8,0:0:0:0:
228,138,140258,1,8,0:0:0:0:
228,138,140605,1,0,0:0:0:0:
228,138,140779,1,8,0:0:0:0:
228,138,140952,1,8,0:0:0:0:
242,145,141039,1,8,0:0:0:0:
228,138,141125,1,0,0:0:0:0:
228,138,141212,1,8,0:0:0:0:
228,138,141299,1,8,0:0:0:0:
173,153,141646,1,8,0:0:0:0:
112,146,141992,1,0,0:0:0:0:
112,146,142166,1,8,0:0:0:0:
112,146,142339,1,0,0:0:0:0:
112,146,142426,1,0,0:0:0:0:
112,146,142513,1,8,0:0:0:0:
112,146,142599,1,0,0:0:0:0:
122,146,142686,1,0,0:0:0:0:
145,140,143033,1,12,0:0:0:0:
216,142,143380,1,0,0:0:0:0:
216,142,143553,1,8,0:0:0:0:
216,142,143727,1,0,0:0:0:0:
216,142,143900,1,8,0:0:0:0:
216,142,144073,1,8,0:0:0:0:
216,142,144247,1,8,0:0:0:0:
216,142,144594,1,8,0:0:0:0:
216,142,144767,1,0,0:0:0:0:
216,142,144940,1,0,0:0:0:0:
216,142,145114,1,8,0:0:0:0:
216,142,145287,1,8,0:0:0:0:
216,142,145461,1,0,0:0:0:0:
216,142,145634,1,8,0:0:0:0:
221,153,145807,1,8,0:0:0:0:
221,153,146154,1,0,0:0:0:0:
221,153,146328,1,8,0:0:0:0:
221,153,146501,1,0,0:0:0:0:
221,153,146588,1,0,0:0:0:0:
221,153,146675,1,8,0:0:0:0:
221,153,146761,1,8,0:0:0:0:
238,152,146848,1,0,0:0:0:0:
239,152,147021,1,0,0:0:0:0:
213,132,147195,1,8,0:0:0:0:
246,153,147542,1,0,0:0:0:0:
258,153,147715,1,8,0:0:0:0:
258,153,147888,1,8,0:0:0:0:
300,134,147975,1,8,0:0:0:0:
242,148,148062,1,0,0:0:0:0:
242,148,148149,1,0,0:0:0:0:
242,148,148235,1,8,0:0:0:0:
240,153,148409,1,0,0:0:0:0:
259,169,148582,1,8,0:0:0:0:
258,153,148929,1,0,0:0:0:0:
242,147,149016,1,8,0:0:0:0:
249,147,149189,1,8,0:0:0:0:
245,139,149276,1,0,0:0:0:0:
263,147,149449,1,8,0:0:0:0:
263,147,149623,1,0,0:0:0:0:
263,148,149709,1,8,0:0:0:0:
263,149,149883,1,8,0:0:0:0:
263,149,149969,1,0,0:0:0:0:
263,149,150143,1,0,0:0:0:0:
264,147,150316,1,8,0:0:0:0:
263,147,150403,1,8,0:0:0:0:
266,148,150490,1,0,0:0:0:0:
260,164,150576,1,0,0:0:0:0:
259,159,150663,1,8,0:0:0:0:
258,164,150836,1,8,0:0:0:0:
258,164,151010,1,0,0:0:0:0:
257,166,151183,1,8,0:0:0:0:
257,166,151357,1,8,0:0:0:0:
257,166,151703,1,0,0:0:0:0:
258,164,151877,1,8,0:0:0:0:
258,164,152050,1,8,0:0:0:0:
257,166,152137,1,8,0:0:0:0:
257,166,152224,1,0,0:0:0:0:
257,166,152310,1,8,0:0:0:0:
257,166,152397,1,8,0:0:0:0:
268,171,152570,1,0,0:0:0:0:
282,173,152744,1,8,0:0:0:0:
302,175,153091,1,0,0:0:0:0:
302,175,153264,1,8,0:0:0:0:
302,175,153438,1,0,0:0:0:0:
304,175,153524,1,0,0:0:0:0:
325,197,153611,1,8,0:0:0:0:
331,181,153698,1,0,0:0:0:0:
331,181,153784,1,0,0:0:0:0:
339,183,153958,1,0,0:0:0:0:
340,183,154131,1,12,0:0:0:0:
345,185,154478,1,0,0:0:0:0:
307,156,154651,1,8,0:0:0:0:
307,156,154825,1,0,0:0:0:0:
307,156,154998,1,8,0:0:0:0:
307,156,155172,1,8,0:0:0:0:
307,156,155345,1,8,0:0:0:0:
307,156,155692,1,8,0:0:0:0:
307,156,155865,1,0,0:0:0:0:
307,156,156039,1,0,0:0:0:0:
307,156,156212,1,8,0:0:0:0:
307,156,156386,1,0,0:0:0:0:
307,156,156559,1,8,0:0:0:0:
312,159,156732,1,8,0:0:0:0:
307,156,156819,1,8,0:0:0:0:
307,156,156906,1,8,0:0:0:0:
317,159,156992,1,8,0:0:0:0:
317,159,157079,1,8,0:0:0:0:
322,142,157253,1,4,0:0:0:0:
240,125,157426,1,8,0:0:0:0:
240,125,157599,1,0,0:0:0:0:
240,125,157860,1,8,0:0:0:0:
240,125,157946,1,0,0:0:0:0:
240,125,158033,1,0,0:0:0:0:
240,125,158120,1,8,0:0:0:0:
240,125,158293,1,0,0:0:0:0:
240,125,158380,1,8,0:0:0:0:
229,114,158553,1,8,0:0:0:0:
229,114,158640,1,0,0:0:0:0:
229,114,158813,1,8,0:0:0:0:
229,114,158987,1,0,0:0:0:0:
229,114,159247,1,8,0:0:0:0:
229,114,159333,1,0,0:0:0:0:
229,114,159507,1,0,0:0:0:0:
229,114,159594,1,0,0:0:0:0:
229,114,159680,1,8,0:0:0:0:
229,114,160027,1,0,0:0:0:0:
229,114,160201,1,8,0:0:0:0:
229,114,160287,1,8,0:0:0:0:
229,114,160374,1,0,0:0:0:0:
229,114,160461,1,0,0:0:0:0:
229,114,160634,1,8,0:0:0:0:
229,114,160807,1,0,0:0:0:0:
229,114,160894,1,0,0:0:0:0:
229,114,160981,1,8,0:0:0:0:
229,114,161154,1,8,0:0:0:0:
262,109,161328,1,0,0:0:0:0:
229,114,161414,1,0,0:0:0:0:
229,114,161588,1,8,0:0:0:0:
229,114,161761,1,0,0:0:0:0:
229,114,161848,1,8,0:0:0:0:
229,114,161935,1,8,0:0:0:0:
229,114,162021,1,0,0:0:0:0:
235,114,162195,1,0,0:0:0:0:
229,114,162281,1,0,0:0:0:0:
235,114,162455,1,8,0:0:0:0:
235,114,162802,1,0,0:0:0:0:
240,125,162975,1,8,0:0:0:0:
240,125,163149,1,0,0:0:0:0:
240,125,163409,1,8,0:0:0:0:
240,125,163495,1,0,0:0:0:0:
240,125,163582,1,0,0:0:0:0:
240,125,163669,1,8,0:0:0:0:
240,125,163842,1,0,0:0:0:0:
240,125,163929,1,8,0:0:0:0:
229,114,164102,1,8,0:0:0:0:
229,114,164189,1,0,0:0:0:0:
229,114,164362,1,8,0:0:0:0:
229,114,164536,1,0,0:0:0:0:
229,114,164796,1,8,0:0:0:0:
229,114,164883,1,0,0:0:0:0:
229,114,164969,1,0,0:0:0:0:
229,114,165056,1,0,0:0:0:0:
229,114,165229,1,8,0:0:0:0:
229,114,165403,1,8,0:0:0:0:
229,114,165576,1,0,0:0:0:0:
229,114,165923,1,8,0:0:0:0:
229,114,166096,1,8,0:0:0:0:
229,114,166270,1,0,0:0:0:0:
229,114,166443,1,8,0:0:0:0:
229,114,166790,1,8,0:0:0:0:
229,114,166964,1,0,0:0:0:0:
229,114,167137,1,8,0:0:0:0:
229,114,167224,1,8,0:0:0:0:
229,114,167310,1,0,0:0:0:0:
229,114,167484,1,8,0:0:0:0:
229,114,167657,1,0,0:0:0:0:
235,114,167831,1,8,0:0:0:0:
235,114,167917,1,8,0:0:0:0:
239,103,168004,1,8,0:0:0:0:
200,101,168091,1,8,0:0:0:0:
208,106,168177,1,8,0:0:0:0:
205,112,168351,1,4,0:0:0:0:
240,125,168524,1,8,0:0:0:0:
240,125,168698,1,0,0:0:0:0:
240,125,168958,1,8,0:0:0:0:
240,125,169044,1,0,0:0:0:0:
240,125,169131,1,0,0:0:0:0:
240,125,169218,1,8,0:0:0:0:
240,125,169391,1,0,0:0:0:0:
240,125,169478,1,8,0:0:0:0:
229,114,169651,1,8,0:0:0:0:
229,114,169738,1,0,0:0:0:0:
229,114,169912,1,8,0:0:0:0:
229,114,170085,1,0,0:0:0:0:
229,114,170345,1,8,0:0:0:0:
229,114,170432,1,0,0:0:0:0:
229,114,170518,1,0,0:0:0:0:
229,114,170605,1,0,0:0:0:0:
229,114,170779,1,8,0:0:0:0:
229,114,171125,1,0,0:0:0:0:
229,114,171299,1,8,0:0:0:0:
229,114,171386,1,8,0:0:0:0:
229,114,171472,1,0,0:0:0:0:
229,114,171559,1,0,0:0:0:0:
229,114,171732,1,8,0:0:0:0:
229,114,171906,1,0,0:0:0:0:
229,114,171992,1,0,0:0:0:0:
229,114,172079,1,8,0:0:0:0:
229,114,172253,1,8,0:0:0:0:
229,114,172426,1,0,0:0:0:0:
229,114,172513,1,0,0:0:0:0:
229,114,172686,1,8,0:0:0:0:
229,114,172860,1,0,0:0:0:0:
229,114,172946,1,8,0:0:0:0:
229,114,173033,1,8,0:0:0:0:
229,114,173120,1,0,0:0:0:0:
229,114,173293,1,0,0:0:0:0:
229,114,173380,1,0,0:0:0:0:
243,114,173553,1,8,0:0:0:0:
235,114,173900,1,0,0:0:0:0:
240,125,174073,1,8,0:0:0:0:
240,125,174247,1,0,0:0:0:0:
240,125,174507,1,8,0:0:0:0:
240,125,174594,1,0,0:0:0:0:
240,125,174680,1,0,0:0:0:0:
240,125,174767,1,8,0:0:0:0:
240,125,174940,1,0,0:0:0:0:
240,125,175027,1,8,0:0:0:0:
229,114,175201,1,8,0:0:0:0:
229,114,175287,1,0,0:0:0:0:
229,114,175461,1,8,0:0:0:0:
229,114,175634,1,0,0:0:0:0:
229,114,175894,1,8,0:0:0:0:
229,114,175981,1,0,0:0:0:0:
229,114,176068,1,0,0:0:0:0:
229,114,176154,1,0,0:0:0:0:
229,114,176328,1,8,0:0:0:0:
229,114,176501,1,8,0:0:0:0:
229,114,176675,1,0,0:0:0:0:
229,114,177021,1,8,0:0:0:0:
229,114,177195,1,8,0:0:0:0:
229,114,177368,1,0,0:0:0:0:
229,114,177542,1,8,0:0:0:0:
229,114,177888,1,8,0:0:0:0:
229,114,178062,1,0,0:0:0:0:
229,114,178235,1,8,0:0:0:0:
229,114,178322,1,8,0:0:0:0:
229,114,178409,1,0,0:0:0:0:
229,114,178582,1,8,0:0:0:0:
229,114,178755,1,0,0:0:0:0:
239,103,179102,1,8,0:0:0:0:
205,112,179623,1,8,0:0:0:0:
221,114,179969,1,0,0:0:0:0:
221,114,180056,1,0,0:0:0:0:
220,113,180143,1,0,0:0:0:0:
219,112,180490,1,8,0:0:0:0:
221,114,181010,1,8,0:0:0:0:
219,112,181357,1,0,0:0:0:0:
219,112,181443,1,0,0:0:0:0:
219,112,181530,1,8,0:0:0:0:
207,116,181877,1,8,0:0:0:0:
219,112,182397,1,8,0:0:0:0:
221,114,182744,1,8,0:0:0:0:
221,114,182831,1,0,0:0:0:0:
219,112,182917,1,8,0:0:0:0:
219,112,183264,1,8,0:0:0:0:
221,114,183784,1,8,0:0:0:0:
219,112,184131,1,8,0:0:0:0:
219,112,184218,1,0,0:0:0:0:
219,112,184305,1,0,0:0:0:0:
221,114,184651,1,8,0:0:0:0:
134,151,184998,1,8,0:0:0:0:
134,151,185172,1,8,0:0:0:0:
134,151,185345,1,8,0:0:0:0:
192,133,185518,1,8,0:0:0:0:
134,151,185692,1,8,0:0:0:0:
134,151,185779,1,8,0:0:0:0:
134,151,185865,1,8,0:0:0:0:
134,151,185952,1,8,0:0:0:0:
134,151,186039,1,0,0:0:0:0:
205,111,186386,1,0,0:0:0:0:
205,111,186472,1,0,0:0:0:0:
205,110,186559,1,8,0:0:0:0:
205,107,186906,1,8,0:0:0:0:
205,107,187079,1,8,0:0:0:0:
205,111,187426,1,0,0:0:0:0:
196,125,187773,1,8,0:0:0:0:
194,123,187946,1,8,0:0:0:0:
194,123,188120,1,8,0:0:0:0:
168,136,188293,1,8,0:0:0:0:
194,123,188466,1,0,0:0:0:0:
196,125,188553,1,0,0:0:0:0:
196,125,188640,1,8,0:0:0:0:
196,125,188727,1,8,0:0:0:0:
196,125,188813,1,0,0:0:0:0:
205,111,189160,1,0,0:0:0:0:
205,111,189247,1,0,0:0:0:0:
205,111,189333,1,0,0:0:0:0:
205,107,189680,1,8,0:0:0:0:
205,107,189854,1,0,0:0:0:0:
236,111,189940,1,0,0:0:0:0:
236,111,190027,1,0,0:0:0:0:
281,119,190114,1,0,0:0:0:0:
205,111,190201,1,8,0:0:0:0:
205,107,190547,1,4,0:0:0:0:
254,109,190721,1,8,0:0:0:0:
254,110,190807,1,0,0:0:0:0:
254,110,190894,1,8,0:0:0:0:
254,110,191068,1,8,0:0:0:0:
254,109,191241,1,0,0:0:0:0:
254,109,191328,1,8,0:0:0:0:
254,109,191414,1,0,0:0:0:0:
242,130,191588,1,8,0:0:0:0:
277,115,191761,1,0,0:0:0:0:
239,104,191935,1,8,0:0:0:0:
239,104,192021,1,0,0:0:0:0:
254,98,192195,1,0,0:0:0:0:
254,98,192281,1,8,0:0:0:0:
258,98,192455,1,0,0:0:0:0:
258,98,192628,1,8,0:0:0:0:
258,98,192715,1,8,0:0:0:0:
259,97,192888,1,8,0:0:0:0:
227,89,193322,1,0,0:0:0:0:
227,89,193495,1,8,0:0:0:0:
227,89,193582,1,0,0:0:0:0:
227,89,193669,1,8,0:0:0:0:
227,89,193842,1,8,0:0:0:0:
227,89,194016,1,0,0:0:0:0:
227,89,194102,1,8,0:0:0:0:
237,89,194189,1,0,0:0:0:0:
237,89,194362,1,8,0:0:0:0:
237,89,194536,1,0,0:0:0:0:
208,116,194623,1,8,0:0:0:0:
237,88,194709,1,0,0:0:0:0:
239,88,194883,1,8,0:0:0:0:
239,89,194969,1,0,0:0:0:0:
240,89,195143,1,0,0:0:0:0:
237,89,195229,1,8,0:0:0:0:
237,89,195403,1,0,0:0:0:0:
237,89,195490,1,0,0:0:0:0:
237,89,195576,1,0,0:0:0:0:
237,88,195750,1,8,0:0:0:0:
240,89,196096,1,0,0:0:0:0:
232,77,196270,1,8,0:0:0:0:
232,77,196357,1,0,0:0:0:0:
232,77,196443,1,8,0:0:0:0:
232,77,196617,1,8,0:0:0:0:
232,77,196790,1,0,0:0:0:0:
233,70,196877,1,8,0:0:0:0:
233,71,196964,1,0,0:0:0:0:
233,84,197137,1,8,0:0:0:0:
233,84,197310,1,8,0:0:0:0:
233,84,197484,1,0,0:0:0:0:
233,84,197657,1,8,0:0:0:0:
234,84,197744,1,0,0:0:0:0:
234,84,197831,1,8,0:0:0:0:
211,92,198004,1,0,0:0:0:0:
233,84,198091,1,0,0:0:0:0:
217,84,198177,1,8,0:0:0:0:
204,90,198264,1,8,0:0:0:0:
224,76,198438,1,8,0:0:0:0:
224,76,198871,1,0,0:0:0:0:
224,76,199044,1,8,0:0:0:0:
223,72,199131,1,0,0:0:0:0:
224,76,199218,1,8,0:0:0:0:
224,76,199391,1,8,0:0:0:0:
224,76,199565,1,0,0:0:0:0:
224,76,199651,1,8,0:0:0:0:
224,76,199738,1,0,0:0:0:0:
224,76,199912,1,8,0:0:0:0:
224,76,200085,1,0,0:0:0:0:
224,76,200258,1,12,0:0:0:0:
252,124,201125,1,4,0:0:0:0:
252,124,201299,1,12,0:0:0:0:
