osu file format v14

[General]
AudioFilename: audio.mp3
AudioLeadIn: 0
PreviewTime: -1
Countdown: 0
SampleSet: None
StackLeniency: 0.4
Mode: 0
LetterboxInBreaks: 0
WidescreenStoryboard: 0

[Editor]
Bookmarks: 36796,47985,90796
DistanceSpacing: 2.6
BeatDivisor: 4
GridSize: 4
TimelineZoom: 2.599999

[Metadata]
Title:Naked flyer
TitleUnicode:Naked flyer
Artist:yukio
ArtistUnicode:yukio
Creator:Rihito
Version:X
Source:
Tags:trash
BeatmapID:1465926
BeatmapSetID:692760

[Difficulty]
HPDrainRate:5
CircleSize:4
OverallDifficulty:8
ApproachRate:9.3
SliderMultiplier:1.8
SliderTickRate:1

[Events]
//Background and Video events
0,0,"bleh.jpg",0,0
//Break Periods
2,81104,90242
//Storyboard Layer 0 (Background)
//Storyboard Layer 1 (Fail)
//Storyboard Layer 2 (Pass)
//Storyboard Layer 3 (Foreground)
//Storyboard Sound Samples

[TimingPoints]
9553,324.324324324324,4,2,1,100,1,0
21715,-133.333333333333,4,2,1,100,0,0
23498,-100,4,2,1,100,0,0
24309,-133.333333333333,4,2,1,100,0,0
26417,-100,4,2,1,100,0,0
26742,-133.333333333333,4,2,1,100,0,0
28688,-100,4,2,1,100,0,0
29498,-133.333333333333,4,2,1,100,0,0
31120,-100,4,2,1,100,0,0
41985,-133.333333333333,4,2,1,100,0,0
52039,-100,4,2,1,100,0,0
70525,-80,4,2,1,100,0,0
70850,-100,4,2,1,100,0,0
101661,-133.333333333333,4,2,1,100,0,0
109282,-100,4,2,1,100,0,0

[Colours]
Combo1 : 148,106,255
Combo2 : 128,220,255
Combo3 : 85,136,255

[HitObjects]
48,148,9715,5,2,0:0:0:0:
100,141,9796,1,2,0:0:0:0:
150,157,9877,1,2,0:0:0:0:
189,192,9958,1,2,0:0:0:0:
211,240,10039,2,0,L|220:288,1,45,2|0,0:0|0:0,0:0:0:0:
448,28,10201,5,2,0:0:0:0:
396,21,10282,1,2,0:0:0:0:
346,37,10363,1,2,0:0:0:0:
307,72,10444,1,2,0:0:0:0:
285,120,10525,2,0,L|276:168,1,45,2|0,0:0|0:0,0:0:0:0:
320,280,10688,2,0,P|345:272|380:249,1,45,8|0,0:0|0:0,0:0:0:0:
216,352,10850,6,0,P|112:340|68:268,1,180,4|0,0:0|0:0,0:0:0:0:
116,144,11336,1,8,0:0:0:0:
176,248,11498,1,0,0:0:0:0:
32,88,11661,2,0,P|29:137|24:192,1,90,2|0,0:0|0:0,0:0:0:0:
72,332,11985,1,8,0:0:0:0:
224,164,12147,5,0,0:0:0:0:
288,272,12309,1,0,0:0:0:0:
176,248,12471,1,0,0:0:0:0:
368,148,12634,1,8,0:0:0:0:
328,356,12796,1,0,0:0:0:0:
224,164,12958,2,0,P|220:112|224:60,1,90
384,52,13282,5,8,0:0:0:0:
144,120,13444,2,0,L|32:112,1,90,4|0,0:0|0:0,0:0:0:0:
8,188,13769,1,0,0:0:0:0:
288,28,13931,6,0,L|312:140,1,90,8|0,0:0|0:0,0:0:0:0:
168,344,14255,2,0,L|192:232,1,90,8|0,0:0|0:0,0:0:0:0:
404,224,14580,2,0,P|351:229|292:200,1,90,8|0,0:0|0:0,0:0:0:0:
88,104,14904,2,0,P|140:98|200:128,1,90,8|0,0:0|0:0,0:0:0:0:
348,324,15228,1,0,0:0:0:0:
348,324,15390,1,0,0:0:0:0:
480,172,15552,1,8,0:0:0:0:
264,216,15715,1,8,0:0:0:0:
464,196,15877,1,8,0:0:0:0:
236,248,16039,6,0,B|216:248|216:248|156:184|172:100,1,180,4|0,0:0|0:0,0:0:0:0:
264,32,16525,1,8,0:0:0:0:
332,168,16688,1,0,0:0:0:0:
171,100,16850,2,0,P|115:88|79:96,1,90
0,200,17174,1,8,0:0:0:0:
120,360,17336,6,0,B|156:340|156:340|168:284|144:256,1,90
66,117,17661,1,0,0:0:0:0:
159,291,17823,2,0,P|210:291|255:283,1,90,8|0,0:0|0:0,0:0:0:0:
320,64,18147,2,0,P|248:124|256:236,1,180,0|8,0:0|0:0,0:0:0:0:
428,340,18634,2,0,L|444:248,1,90,4|0,0:0|0:0,0:0:0:0:
220,56,18958,5,0,0:0:0:0:
241,205,19120,5,8,0:0:0:0:
241,205,19282,1,0,0:0:0:0:
392,40,19444,1,8,0:0:0:0:
392,40,19606,1,0,0:0:0:0:
344,272,19769,1,8,0:0:0:0:
344,272,19931,1,0,0:0:0:0:
180,136,20093,5,8,0:0:0:0:
396,172,20255,1,0,0:0:0:0:
72,120,20417,1,8,0:0:0:0:
288,156,20579,1,0,0:0:0:0:
44,304,20742,5,8,0:0:0:0:
44,304,20823,1,8,0:0:0:0:
44,304,20904,1,8,0:0:0:0:
136,60,21066,1,2,0:0:0:0:
164,232,21228,1,6,0:0:0:0:
424,80,21715,6,0,L|484:76|484:76,1,33.7500012874604,8|0,0:0|0:0,0:0:0:0:
328,196,22363,2,0,L|268:192|268:192,1,33.7500012874604,8|0,0:0|0:0,0:0:0:0:
176,80,23012,6,0,L|236:76|236:76,1,33.7500012874604,8|0,0:0|0:0,0:0:0:0:
208,184,23498,2,0,P|148:180|80:132,1,135
80,100,23823,2,0,B|92:164|92:164|80:212|80:212|92:280,1,180
4,140,24309,6,0,P|-4:108|-4:76,1,33.7500012874604,8|0,0:0|0:0,0:0:0:0:
91,276,24958,6,0,P|88:298|82:319,1,33.7500012874604,8|0,0:0|0:0,0:0:0:0:
72,192,25120,2,0,P|130:188|174:274,1,135.000005149842
48,80,25607,1,8,0:0:0:0:
248,136,25769,2,0,L|236:221,1,67.5000025749208
276,36,26093,1,0,0:0:0:0:
456,188,26255,1,8,0:0:0:0:
344,288,26417,6,0,P|330:183|323:95,1,180,4|0,0:0|0:0,0:0:0:0:
248,304,26904,2,0,P|225:300|205:291,1,33.7500012874604,8|0,0:0|0:0,0:0:0:0:
423,180,27552,2,0,P|445:183|465:192,1,33.7500012874604,8|0,0:0|0:0,0:0:0:0:
248,112,28201,2,0,P|250:89|258:68,1,33.7500012874604,8|0,0:0|0:0,0:0:0:0:
332,192,28688,2,0,P|320:264|312:328,1,135
308,348,29012,2,0,B|264:324|220:272|220:272|192:316|148:312,1,180
132,196,29498,6,0,P|76:184|20:240,2,135.000005149842,8|0|8,0:0|0:0|0:0,0:0:0:0:
80,320,30309,2,0,P|88:272|91:222,1,67.5000025749208
204,112,30634,1,0,0:0:0:0:
89,253,30796,1,8,0:0:0:0:
256,196,30958,1,0,0:0:0:0:
27,163,31120,2,8,P|5:156|-16:144,1,45
136,40,31282,2,8,P|123:65|120:92,1,45
152,296,31444,2,8,P|164:270|168:244,1,45
330,61,31607,6,0,P|258:109|266:213,1,180,4|0,0:0|0:0,0:0:0:0:
344,160,32093,1,8,0:0:0:0:
384,248,32255,1,0,0:0:0:0:
166,206,32417,2,0,P|217:196|282:198,1,90,2|2,0:0|0:0,0:0:0:0:
440,160,32742,5,8,0:0:0:0:
264,96,32904,1,0,0:0:0:0:
296,292,33066,1,0,0:0:0:0:
344,160,33228,1,0,0:0:0:0:
440,288,33390,1,8,0:0:0:0:
240,208,33552,1,0,0:0:0:0:
440,160,33715,1,0,0:0:0:0:
240,80,33877,2,0,P|165:85|96:96,1,135
40,136,34201,2,4,P|88:104|156:188,1,180
24,308,34688,5,8,0:0:0:0:
24,308,34769,1,0,0:0:0:0:
24,308,34850,1,0,0:0:0:0:
158,179,35012,2,0,P|214:183|254:207,1,90,2|2,0:0|0:0,0:0:0:0:
176,296,35336,1,8,0:0:0:0:
32,180,35498,1,2,0:0:0:0:
248,24,35661,2,0,P|240:80|232:140,1,90
224,216,35985,1,8,0:0:0:0:
136,100,36147,1,0,0:0:0:0:
448,88,36309,2,0,P|400:96|352:108,1,90
336,112,36552,1,0,0:0:0:0:
320,120,36634,1,8,0:0:0:0:
88,280,36796,6,0,B|128:264|128:264|180:328|246:320,1,180,4|0,0:0|0:0,0:0:0:0:
468,280,37282,5,8,0:0:0:0:
340,208,37444,1,0,0:0:0:0:
408,340,37607,2,0,P|414:289|416:236,1,90,2|0,0:0|0:0,0:0:0:0:
396,96,37931,1,8,0:0:0:0:
184,216,38093,1,0,0:0:0:0:
296,264,38255,2,0,P|292:212|288:160,1,90,2|0,0:0|0:0,0:0:0:0:
402,6,38580,2,0,L|395:95,1,90,8|0,0:0|0:0,0:0:0:0:
200,120,38904,1,0,0:0:0:0:
376,184,39066,1,0,0:0:0:0:
132,204,39228,1,8,0:0:0:0:
372,92,39390,2,0,B|424:80|448:124|448:124|496:104|532:144,1,180,4|0,0:0|0:0,0:0:0:0:
328,312,39877,6,0,P|280:300|240:292,1,90,8|0,0:0|0:0,0:0:0:0:
36,224,40201,2,0,P|84:212|124:204,1,90
288,168,40525,1,8,0:0:0:0:
124,320,40688,1,0,0:0:0:0:
124,320,40769,1,0,0:0:0:0:
124,320,40850,1,0,0:0:0:0:
132,204,41012,1,0,0:0:0:0:
140,92,41174,6,0,L|148:-4,1,90,8|0,0:0|0:0,0:0:0:0:
147,2,41417,1,2,0:0:0:0:
147,2,41498,1,2,0:0:0:0:
368,80,41660,1,2,0:0:0:0:
228,152,41823,1,2,0:0:0:0:
384,172,41985,6,0,P|437:169|540:176,1,135.000005149842,6|0,0:0|0:0,0:0:0:0:
424,324,42471,2,0,P|400:296|392:264,1,67.5000025749208,2|0,0:0|0:0,0:0:0:0:
296,232,42796,2,0,P|295:194|309:165,1,67.5000025749208,8|0,0:0|0:0,0:0:0:0:
512,172,43120,1,0,0:0:0:0:
368,328,43282,2,0,P|312:316|232:312,2,135.000005149842,2|0|2,0:0|0:0|0:0,0:0:0:0:
496,352,44093,5,8,0:0:0:0:
304,212,44255,1,0,0:0:0:0:
304,212,44417,1,0,0:0:0:0:
304,212,44580,2,0,P|308:251|320:284,1,67.5000025749208
448,148,44904,2,0,P|407:151|360:156,1,67.5000025749208
216,292,45228,2,0,P|256:288|304:284,1,67.5000025749208,0|8,0:0|0:0,0:0:0:0:
456,240,45552,1,0,0:0:0:0:
456,240,45715,1,0,0:0:0:0:
228,132,45877,2,0,P|260:141|292:152,1,67.5000025749208
460,72,46201,5,0,0:0:0:0:
460,72,46363,2,0,P|419:58|386:49,1,67.5000025749208
376,48,46607,1,0,0:0:0:0:
376,48,46688,1,8,0:0:0:0:
236,64,46850,2,0,P|214:59|188:56,1,33.7500012874604,8|0,0:0|0:0,0:0:0:0:
356,172,47012,1,0,0:0:0:0:
184,144,47174,6,0,P|144:148|108:156,1,67.5000025749208,6|0,0:0|0:0,0:0:0:0:
44,88,47498,1,2,0:0:0:0:
192,220,47661,2,0,P|211:247|229:275,1,67.5000025749208,2|0,0:0|0:0,0:0:0:0:
48,340,47985,2,0,P|66:311|85:283,1,67.5000025749208,8|0,0:0|0:0,0:0:0:0:
256,152,48309,1,0,0:0:0:0:
168,332,48471,1,2,0:0:0:0:
8,192,48634,2,0,P|44:194|78:198,1,67.5000025749208,2|0,0:0|0:0,0:0:0:0:
204,56,48958,1,2,0:0:0:0:
204,56,49282,6,0,P|237:52|271:50,1,67.5000025749208,8|0,0:0|0:0,0:0:0:0:
420,108,49607,1,8,0:0:0:0:
220,188,49769,1,0,0:0:0:0:
220,188,49850,1,0,0:0:0:0:
220,188,49931,1,0,0:0:0:0:
360,220,50093,1,0,0:0:0:0:
160,304,50255,1,8,0:0:0:0:
136,108,50417,1,0,0:0:0:0:
136,108,50498,1,0,0:0:0:0:
136,108,50580,1,0,0:0:0:0:
280,120,50742,5,0,0:0:0:0:
68,216,50904,1,8,0:0:0:0:
96,32,51066,1,0,0:0:0:0:
292,32,51228,1,2,0:0:0:0:
325,36,51309,1,2,0:0:0:0:
357,46,51390,1,2,0:0:0:0:
387,62,51471,1,2,0:0:0:0:
413,83,51552,2,0,L|440:112,1,33.7500012874604
244,340,51715,5,2,0:0:0:0:
194,329,51796,1,2,0:0:0:0:
144,334,51877,1,2,0:0:0:0:
94,338,51958,1,2,0:0:0:0:
44,328,52039,2,0,L|0:317,1,45
164,212,52201,2,0,L|208:223,1,45,8|0,0:0|0:0,0:0:0:0:
260,32,52363,6,0,P|284:132|312:214,1,180,6|0,0:0|0:0,0:0:0:0:
384,332,52850,1,8,0:0:0:0:
492,192,53012,2,0,P|445:195|392:204,1,90
380,204,53255,1,0,0:0:0:0:
360,208,53336,1,0,0:0:0:0:
428,88,53498,1,8,0:0:0:0:
252,224,53661,5,0,0:0:0:0:
236,48,53823,1,0,0:0:0:0:
444,84,53985,1,0,0:0:0:0:
232,232,54147,2,0,P|173:223|100:220,1,90,8|0,0:0|0:0,0:0:0:0:
24,228,54471,1,0,0:0:0:0:
200,136,54634,1,0,0:0:0:0:
200,320,54796,1,8,0:0:0:0:
80,172,54958,6,0,L|104:68,1,90
284,36,55282,1,0,0:0:0:0:
312,164,55444,1,8,0:0:0:0:
472,84,55607,2,0,L|380:80,1,90
152,124,55931,2,0,L|244:128,1,90,0|8,0:0|0:0,0:0:0:0:
480,212,56255,5,0,0:0:0:0:
480,212,56336,1,0,0:0:0:0:
480,212,56417,1,0,0:0:0:0:
272,196,56580,1,0,0:0:0:0:
436,296,56742,1,8,0:0:0:0:
368,140,56904,1,0,0:0:0:0:
312,316,57066,1,0,0:0:0:0:
460,212,57228,1,0,0:0:0:0:
288,200,57390,1,8,0:0:0:0:
136,364,57552,6,0,B|52:388|0:316|0:316|28:256,1,180,4|0,0:0|0:0,0:0:0:0:
304,200,58039,2,0,P|356:204|424:232,1,90,8|0,0:0|0:0,0:0:0:0:
296,296,58363,1,0,0:0:0:0:
152,184,58525,1,0,0:0:0:0:
192,304,58688,1,8,0:0:0:0:
336,120,58850,2,0,P|379:107|423:104,1,90
416,272,59174,1,0,0:0:0:0:
256,116,59336,2,0,L|248:16,1,90,8|0,0:0|0:0,0:0:0:0:
248,26,59580,1,0,0:0:0:0:
248,26,59661,1,0,0:0:0:0:
376,32,59823,5,0,0:0:0:0:
180,76,59985,1,8,0:0:0:0:
436,116,60147,2,0,B|484:104|484:104|532:112,1,90
396,332,60471,1,0,0:0:0:0:
328,96,60634,1,8,0:0:0:0:
200,244,60796,2,0,B|160:250|160:250|112:238,1,90
4,252,61120,5,0,0:0:0:0:
308,192,61282,1,8,0:0:0:0:
136,32,61444,2,0,L|144:164,1,90
104,208,61769,1,0,0:0:0:0:
368,272,61931,1,8,0:0:0:0:
184,344,62093,2,0,L|192:212,1,90
440,64,62417,2,0,P|408:100|384:104,1,45,2|0,0:0|0:0,0:0:0:0:
312,196,62580,2,0,P|266:211|243:202,1,45,2|2,0:0|0:0,0:0:0:0:
116,152,62742,6,0,B|133:118|133:118|255:80,1,135,4|0,0:0|0:0,0:0:0:0:
252,88,63066,1,0,0:0:0:0:
144,292,63228,2,0,B|72:268|40:320|-40:280,1,180,8|0,0:0|0:0,0:0:0:0:
150,35,63715,2,0,P|143:56|132:76,1,45
20,196,63877,1,8,0:0:0:0:
276,164,64039,2,0,P|316:180|352:220,1,90
360,232,64282,1,0,0:0:0:0:
368,248,64363,1,0,0:0:0:0:
56,324,64525,2,0,B|140:284|160:356|236:308,1,180,8|0,0:0|0:0,0:0:0:0:
360,112,65012,5,0,0:0:0:0:
360,112,65093,1,0,0:0:0:0:
360,112,65174,1,8,0:0:0:0:
128,15,65336,2,0,P|172:15|214:31,1,90
384,200,65661,2,0,P|339:200|297:184,1,90,0|8,0:0|0:0,0:0:0:0:
276,176,65904,1,0,0:0:0:0:
256,168,65985,1,0,0:0:0:0:
456,64,66147,1,0,0:0:0:0:
348,288,66309,1,0,0:0:0:0:
480,196,66471,1,8,0:0:0:0:
184,216,66634,2,0,P|176:124|280:88,1,180
252,80,67039,1,0,0:0:0:0:
272,80,67120,1,8,0:0:0:0:
448,44,67282,5,0,0:0:0:0:
320,244,67444,1,0,0:0:0:0:
320,244,67525,1,0,0:0:0:0:
320,244,67607,2,0,P|290:240|260:224,1,45
156,192,67769,2,0,P|185:188|216:172,1,45,8|0,0:0|0:0,0:0:0:0:
348,136,67931,2,0,P|389:147|436:168,1,90,4|0,0:0|0:0,0:0:0:0:
512,224,68255,1,0,0:0:0:0:
326,333,68417,2,0,L|318:221,1,90,8|0,0:0|0:0,0:0:0:0:
300,64,68742,5,0,0:0:0:0:
408,260,68904,1,0,0:0:0:0:
300,48,69066,1,8,0:0:0:0:
220,216,69228,2,0,P|175:222|130:227,1,90
328,196,69552,1,0,0:0:0:0:
0,296,69715,2,0,P|56:304|92:308,1,90,8|0,0:0|0:0,0:0:0:0:
244,136,70039,5,2,0:0:0:0:
200,123,70120,1,2,0:0:0:0:
156,120,70201,1,2,0:0:0:0:
111,126,70282,1,2,0:0:0:0:
69,143,70363,1,2,0:0:0:0:
32,168,70444,1,2,0:0:0:0:
88,212,70525,2,0,P|100:140|-16:124,1,168.75,4|0,0:0|0:0,0:0:0:0:
0,112,70850,1,0,0:0:0:0:
180,200,71012,2,0,P|235:189|296:172,1,90,8|0,0:0|0:0,0:0:0:0:
368,8,71336,2,0,P|392:96|432:124,1,135
448,124,71661,1,8,0:0:0:0:
228,48,71823,6,0,P|175:40|100:36,1,90
116,36,72066,1,0,0:0:0:0:
96,36,72147,1,0,0:0:0:0:
219,251,72309,2,0,B|255:223|255:223|275:155,1,90,8|0,0:0|0:0,0:0:0:0:
36,148,72634,2,0,B|44:196|44:196|76:236|76:236|88:304,1,135
144,112,72958,2,0,L|136:172,1,45,8|0,0:0|0:0,0:0:0:0:
4,328,73120,1,4,0:0:0:0:
4,328,73444,5,0,0:0:0:0:
292,24,73607,2,0,L|280:120,1,90,8|0,0:0|0:0,0:0:0:0:
216,352,73931,2,0,L|227:262,1,90,8|0,0:0|0:0,0:0:0:0:
244,32,74255,2,0,L|256:128,1,90,8|0,0:0|0:0,0:0:0:0:
268,352,74579,2,0,L|256:262,1,90,8|0,0:0|0:0,0:0:0:0:
368,160,74904,1,8,0:0:0:0:
140,184,75066,1,0,0:0:0:0:
404,224,75228,1,8,0:0:0:0:
104,120,75390,1,0,0:0:0:0:
308,72,75552,1,0,0:0:0:0:
88,240,75715,6,0,P|39:234|-17:222,1,90,4|0,0:0|0:0,0:0:0:0:
2,228,75958,1,0,0:0:0:0:
2,228,76039,1,0,0:0:0:0:
272,152,76201,2,0,P|312:212|288:248,1,90,8|0,0:0|0:0,0:0:0:0:
184,316,76525,2,0,P|244:264|324:296,1,135
328,292,76850,1,8,0:0:0:0:
96,168,77012,6,0,P|140:172|185:179,1,90
204,184,77255,1,0,0:0:0:0:
228,196,77336,1,0,0:0:0:0:
352,28,77498,2,0,P|308:32|272:76,1,90,8|0,0:0|0:0,0:0:0:0:
436,284,77823,2,0,P|488:260|504:156,1,135
298,192,78147,2,0,L|256:208,1,45,8|0,0:0|0:0,0:0:0:0:
464,128,78309,1,4,0:0:0:0:
464,128,78634,5,0,0:0:0:0:
144,104,78796,2,0,P|99:106|54:111,1,90,8|0,0:0|0:0,0:0:0:0:
334,192,79120,2,0,P|379:197|424:200,1,90,8|0,0:0|0:0,0:0:0:0:
104,192,79444,2,0,L|8:188,1,90,8|0,0:0|0:0,0:0:0:0:
296,288,79769,2,0,L|392:284,1,90,8|0,0:0|0:0,0:0:0:0:
120,304,80093,5,0,0:0:0:0:
334,192,80255,1,0,0:0:0:0:
232,348,80417,1,8,0:0:0:0:
232,348,80498,1,0,0:0:0:0:
232,348,80580,1,0,0:0:0:0:
166,186,80742,2,0,P|188:193|212:204,1,45
392,312,80904,1,4,0:0:0:0:
16,328,90796,5,2,0:0:0:0:
44,306,90877,1,2,0:0:0:0:
65,277,90958,1,2,0:0:0:0:
75,243,91039,1,2,0:0:0:0:
72,207,91120,1,2,0:0:0:0:
58,174,91201,1,2,0:0:0:0:
36,140,91282,2,0,P|92:192|204:172,1,180
248,92,91769,5,8,0:0:0:0:
344,172,91931,1,0,0:0:0:0:
424,24,92093,2,0,L|432:116,1,90
456,276,92417,1,8,0:0:0:0:
272,272,92580,1,0,0:0:0:0:
468,280,92742,1,0,0:0:0:0:
352,336,92904,5,0,0:0:0:0:
348,184,93066,1,8,0:0:0:0:
352,344,93228,1,0,0:0:0:0:
480,280,93390,1,0,0:0:0:0:
272,272,93552,2,0,P|216:264|168:184,1,135
168,148,93877,2,0,L|128:328,1,180
52,184,94363,5,8,0:0:0:0:
52,184,94444,1,0,0:0:0:0:
52,184,94525,1,0,0:0:0:0:
272,96,94688,2,0,L|248:200,1,90
168,128,95012,1,8,0:0:0:0:
368,64,95174,2,0,P|414:75|464:92,1,90
360,284,95498,2,0,P|348:260|344:228,1,45
456,180,95661,2,0,P|464:264|440:300,1,90,8|0,0:0|0:0,0:0:0:0:
348,136,95985,1,0,0:0:0:0:
232,288,96147,2,0,P|188:280|124:252,1,90,0|8,0:0|0:0,0:0:0:0:
0,144,96471,2,0,B|80:92|80:92|172:100,1,180,4|0,0:0|0:0,0:0:0:0:
344,32,96958,6,0,L|336:80,1,45,8|0,0:0|0:0,0:0:0:0:
320,176,97120,1,0,0:0:0:0:
204,8,97282,2,0,P|209:55|220:108,1,90
276,264,97607,1,8,0:0:0:0:
336,76,97769,1,0,0:0:0:0:
420,200,97931,2,0,P|464:200|512:196,1,90
252,120,98255,2,0,P|208:120|160:124,1,90,8|0,0:0|0:0,0:0:0:0:
140,128,98498,1,0,0:0:0:0:
108,136,98580,1,0,0:0:0:0:
52,304,98742,2,0,P|95:272|116:240,1,90,0|8,0:0|0:0,0:0:0:0:
24,28,99066,2,0,B|16:80|16:80|36:144|36:144|20:204,1,180
224,280,99552,6,0,L|296:248,2,45,8|0|0,0:0|0:0|0:0,0:0:0:0:
204,180,99877,2,0,P|148:212|140:304,1,135
144,304,100201,1,8,0:0:0:0:
344,324,100363,2,0,P|404:320|448:296,1,90
300,208,100688,5,0,0:0:0:0:
432,96,100850,1,8,0:0:0:0:
248,40,101012,1,2,0:0:0:0:
248,40,101093,1,2,0:0:0:0:
248,40,101174,1,2,0:0:0:0:
172,164,101336,1,2,0:0:0:0:
208,272,101498,1,8,0:0:0:0:
264,156,101661,6,0,L|170:163,1,67.5000025749208
56,168,101985,1,2,0:0:0:0:
24,264,102147,2,0,P|67:272|112:267,1,67.5000025749208,2|0,0:0|0:0,0:0:0:0:
208,224,102471,2,0,P|240:232|270:248,1,67.5000025749208,8|0,0:0|0:0,0:0:0:0:
424,292,102796,1,0,0:0:0:0:
340,352,102958,2,0,L|352:260,1,67.5000025749208,2|0,0:0|0:0,0:0:0:0:
360,204,103282,1,2,0:0:0:0:
484,104,103444,2,0,L|472:220,1,101.250003862381,2|0,0:0|0:0,0:0:0:0:
472,236,103769,5,8,0:0:0:0:
380,76,103931,1,8,0:0:0:0:
392,220,104093,1,0,0:0:0:0:
272,80,104255,2,0,P|248:40|220:20,1,67.5000025749208
108,104,104580,1,0,0:0:0:0:
192,88,104742,1,0,0:0:0:0:
29,118,104904,2,0,P|53:158|81:178,1,67.5000025749208
137,27,105228,2,0,L|43:32,1,67.5000025749208
167,168,105552,2,0,L|261:173,1,67.5000025749208
108,104,105877,5,0,0:0:0:0:
58,240,106039,2,0,P|43:276|36:303,1,67.5000025749208
36,328,106282,1,0,0:0:0:0:
36,348,106363,1,0,0:0:0:0:
183,349,106525,1,0,0:0:0:0:
124,269,106688,1,0,0:0:0:0:
317,188,106850,6,0,P|344:209|361:255,1,67.5000025749208
320,356,107174,1,0,0:0:0:0:
281,252,107336,2,0,P|243:252|207:260,1,67.5000025749208
420,356,107661,2,0,P|452:351|485:339,1,67.5000025749208
502,238,107985,1,0,0:0:0:0:
466,161,108147,2,0,P|428:193|425:280,2,135.000005149842
288,144,108958,2,0,L|280:104,1,33.7500012874604
382,22,109120,2,0,L|375:55,1,33.7500012874604
336,228,109282,1,0,0:0:0:0:
336,228,109363,1,0,0:0:0:0:
336,228,109444,2,0,P|296:240|232:212,1,90
164,104,109769,1,0,0:0:0:0:
104,296,109931,1,0,0:0:0:0:
164,208,110093,1,0,0:0:0:0:
40,176,110255,1,0,0:0:0:0:
268,332,110417,1,0,0:0:0:0:
289,336,110498,1,0,0:0:0:0:
312,336,110580,2,0,P|360:332|408:300,1,90
320,64,110904,1,0,0:0:0:0:
310,107,110985,1,0,0:0:0:0:
317,151,111066,1,0,0:0:0:0:
339,190,111147,1,0,0:0:0:0:
374,218,111228,1,0,0:0:0:0:
416,231,111309,1,0,0:0:0:0:
461,228,111390,2,0,L|528:200,1,45
416,80,111552,2,0,P|408:112|408:144,1,45
448,320,111715,2,0,P|476:316|496:308,1,45
288,248,111877,2,0,P|260:252|240:260,1,45
32,352,112039,2,0,P|-4:312|32:192,1,180
240,28,112525,2,0,P|220:132|200:212,1,180
212,328,113012,1,0,0:0:0:0:
108,244,113174,1,0,0:0:0:0:
364,148,113336,2,0,P|444:176|444:272,1,180
202,203,113823,2,0,P|314:219|402:227,1,180
