osu file format v14

[General]
AudioFilename: audio.mp3
AudioLeadIn: 0
PreviewTime: 111784
Countdown: 0
SampleSet: Soft
StackLeniency: 0.7
Mode: 0
LetterboxInBreaks: 0
WidescreenStoryboard: 0

[Editor]
Bookmarks: 88377
DistanceSpacing: 1
BeatDivisor: 4
GridSize: 4
TimelineZoom: 1.9

[Metadata]
Title:Hoshi wo mawase tsuki yori hayaku
TitleUnicode:星を廻せ月より速く
Artist:yukina
ArtistUnicode:yukina
Creator:Hikari-
Version:Lunatic
Source:Touhou
Tags:TUMENECO Farther than the Moon Orbiting the Planet
BeatmapID:978959
BeatmapSetID:456872

[Difficulty]
HPDrainRate:5.5
CircleSize:4
OverallDifficulty:8.5
ApproachRate:9
SliderMultiplier:1.7
SliderTickRate:1

[Events]
//Background and Video events
0,0,"bg.jpg",0,0
//Break Periods
2,22643,24481
//Storyboard Layer 0 (Background)
//Storyboard Layer 1 (Fail)
//Storyboard Layer 2 (Pass)
//Storyboard Layer 3 (Foreground)
//Storyboard Sound Samples

[TimingPoints]
1345,329.67032967033,4,2,1,30,1,0
1345,-200,4,2,1,30,0,0
25081,-100,4,2,1,70,0,0
46180,-133.333333333333,4,2,1,50,0,0
88377,-100,4,2,1,70,0,0
112114,-100,4,2,1,70,0,1
133213,-100,4,2,1,70,0,0
143762,-133.333333333333,4,2,1,50,0,0
164861,-100,4,2,1,70,0,0
188597,-100,4,2,1,70,0,1
209696,-133.333333333333,4,2,1,50,0,0
234092,-133.333333333333,4,2,1,70,0,0
234751,-133.333333333333,4,2,1,90,0,0
236070,-200,4,2,1,30,0,0
255850,-200,4,2,1,20,0,0
256839,-200,4,2,1,70,0,0
257169,-100,4,1,2,70,0,1
276949,-100,4,2,1,70,0,1
278268,-133.333333333333,4,2,1,70,0,0
307279,-133.333333333333,4,2,1,50,0,0
307938,-133.333333333333,4,2,1,70,0,0
308597,-200,4,2,1,90,0,0

[Colours]
Combo1 : 0,255,255
Combo2 : 128,0,255
Combo3 : 0,128,255
Combo4 : 0,198,0
Combo5 : 227,51,126

[HitObjects]
64,176,1345,6,0,P|108:128|172:136,1,127.5
229,182,2169,2,0,P|261:186|313:154,1,85
368,104,2663,2,0,P|412:96|460:116,1,85,0|0,0:0|0:0,0:0:0:0:
376,256,3158,5,0,0:0:0:0:
376,256,3240,1,0,0:0:0:0:
376,256,3323,2,0,P|386:207|418:171,1,85
456,288,3817,1,0,0:0:0:0:
388,345,3982,2,0,P|340:349|292:345,1,85,0|0,0:0|0:0,0:0:0:0:
248,184,4476,2,0,P|252:228|276:268,1,85
219,343,5136,2,0,P|161:315|92:321,1,127.5
54,46,5960,6,0,P|94:64|151:62,1,85
216,23,6619,1,0,0:0:0:0:
61,178,6949,1,0,0:0:0:0:
61,178,7114,2,0,P|104:173|153:143,1,85
213,106,7773,2,0,P|245:163|241:224,1,127.5
87,325,8597,6,0,P|105:289|141:257,1,85
256,340,9257,2,0,P|210:344|161:333,1,85,0|0,0:0|0:0,0:0:0:0:
168,184,9751,2,0,P|202:209|221:250,1,85
459,323,10410,5,0,0:0:0:0:
459,323,10493,1,0,0:0:0:0:
459,323,10575,2,0,P|431:296|406:251,1,85,0|0,0:0|0:0,0:0:0:0:
437,174,11070,1,0,0:0:0:0:
336,306,11235,2,0,P|325:268|326:217,1,85
278,45,11894,6,0,P|246:67|149:66,1,127.5,0|0,0:0|0:0,0:0:0:0:
68,160,12718,2,0,P|64:202|68:251,1,85
168,312,13213,2,0,P|172:270|168:221,1,85
245,147,13872,6,0,P|291:158|337:184,1,85
377,251,14366,1,0,0:0:0:0:
416,67,14531,2,0,L|425:151,1,85,0|0,0:0|0:0,0:0:0:0:
386,335,15026,2,0,L|376:250,1,85
504,116,15520,1,0,0:0:0:0:
464,268,15685,1,0,0:0:0:0:
348,164,15850,1,0,0:0:0:0:
64,335,16509,6,0,P|100:316|145:305,1,85
224,293,17169,2,0,P|226:230|196:175,2,127.5
87,124,18817,6,0,P|73:162|66:214,1,85
105,290,19476,1,0,0:0:0:0:
261,201,19806,2,0,P|332:160|408:191,1,170
350,324,20795,5,0,0:0:0:0:
261,201,21125,2,0,P|252:159|262:118,2,85,0|0|0,0:0|0:0|0:0,0:0:0:0:
176,352,22114,2,0,L|165:292,1,42.5,0|8,0:0|0:0,0:0:0:0:
152,236,22361,1,8,0:0:0:0:
152,236,22443,1,12,0:2:0:0:
112,164,25081,6,0,P|159:116|203:112,1,85,2|0,0:0|0:0,0:0:0:0:
244,340,25410,2,0,P|202:304|196:186,1,170,8|2,0:0|0:0,0:0:0:0:
424,172,25905,1,2,0:0:0:0:
264,248,26070,1,8,0:0:0:0:
288,60,26235,1,2,0:0:0:0:
320,152,26399,5,2,0:0:0:0:
152,128,26564,1,2,0:0:0:0:
308,44,26729,1,8,0:0:0:0:
132,140,26894,1,2,0:0:0:0:
288,240,27059,5,2,0:0:0:0:
156,344,27224,1,0,0:0:0:0:
215,184,27388,1,8,0:0:0:0:
308,324,27553,1,8,0:0:0:0:
71,346,27718,5,2,0:0:0:0:
188,264,27883,1,0,0:0:0:0:
388,352,28048,2,0,P|467:331|494:254,1,170,8|2,0:0|0:0,0:0:0:0:
288,240,28542,1,2,0:0:0:0:
411,270,28707,1,8,0:0:0:0:
376,136,28872,1,2,0:0:0:0:
144,136,29037,5,2,0:0:0:0:
288,148,29202,1,2,0:0:0:0:
180,56,29366,1,8,0:0:0:0:
216,196,29531,1,2,0:0:0:0:
268,60,29696,5,2,0:0:0:0:
144,136,29861,1,0,0:0:0:0:
292,236,30026,1,8,0:0:0:0:
88,268,30191,1,8,0:0:0:0:
376,264,30355,6,0,P|387:299|383:355,1,85,2|0,0:0|0:0,0:0:0:0:
184,220,30685,2,0,P|175:151|187:38,1,170,8|2,0:0|0:0,0:0:0:0:
264,120,31180,1,2,0:0:0:0:
88,160,31345,1,8,0:0:0:0:
116,16,31509,1,2,0:0:0:0:
360,124,31674,5,2,0:0:0:0:
312,32,31839,1,2,0:0:0:0:
120,252,32004,1,8,0:0:0:0:
176,140,32169,1,2,0:0:0:0:
359,289,32334,5,2,0:0:0:0:
202,267,32498,1,0,0:0:0:0:
321,222,32663,1,8,0:0:0:0:
187,352,32828,1,8,0:0:0:0:
425,353,32993,5,2,0:0:0:0:
276,309,33158,1,0,0:0:0:0:
510,251,33323,2,0,B|436:284|436:216|334:255,1,170,8|2,0:0|0:0,0:0:0:0:
120,348,33817,1,2,0:0:0:0:
144,160,33982,1,8,0:0:0:0:
268,216,34147,1,2,0:0:0:0:
30,316,34312,5,2,0:0:0:0:
188,240,34476,1,2,0:0:0:0:
80,100,34641,1,8,0:0:0:0:
100,252,34806,1,2,0:0:0:0:
248,176,34971,5,2,0:0:0:0:
144,160,35136,1,0,0:0:0:0:
208,80,35301,1,10,0:0:0:0:
408,148,35465,1,8,0:0:0:0:
348,20,35630,6,0,P|333:59|332:102,1,85,2|0,0:0|0:0,0:0:0:0:
460,249,35960,2,0,P|395:234|317:318,1,170,8|2,0:0|0:0,0:0:0:0:
404,323,36454,1,2,0:0:0:0:
449,162,36619,1,8,0:0:0:0:
404,323,36784,1,2,0:0:0:0:
296,196,36949,5,2,0:0:0:0:
460,249,37114,1,2,0:0:0:0:
360,115,37279,1,8,0:0:0:0:
314,278,37443,1,2,0:0:0:0:
284,76,37608,5,2,0:0:0:0:
380,224,37773,1,0,0:0:0:0:
180,112,37938,1,8,0:0:0:0:
184,280,38103,1,8,0:0:0:0:
89,246,38268,5,2,0:0:0:0:
240,192,38432,1,0,0:0:0:0:
66,33,38597,2,0,P|96:89|32:171,1,170,8|2,0:0|0:0,0:0:0:0:
8,92,39092,1,2,0:0:0:0:
165,178,39257,1,8,0:0:0:0:
4,243,39421,1,2,0:0:0:0:
182,92,39586,5,2,0:0:0:0:
246,218,39751,1,2,0:0:0:0:
140,336,39916,1,8,0:0:0:0:
165,178,40081,1,2,0:0:0:0:
309,272,40246,5,2,0:0:0:0:
63,342,40410,1,0,0:0:0:0:
271,348,40575,1,8,0:0:0:0:
94,267,40740,1,8,0:0:0:0:
357,343,40905,6,0,P|375:309|376:254,1,85,2|0,0:0|0:0,0:0:0:0:
470,161,41235,2,0,P|404:168|340:80,1,170,8|2,0:0|0:0,0:0:0:0:
428,84,41729,1,2,0:0:0:0:
307,213,41894,1,8,0:0:0:0:
276,28,42059,1,2,0:0:0:0:
470,161,42224,5,2,0:0:0:0:
264,140,42388,1,2,0:0:0:0:
428,84,42553,1,8,0:0:0:0:
424,240,42718,1,2,0:0:0:0:
264,344,42883,5,2,0:0:0:0:
340,200,43048,1,0,0:0:0:0:
408,344,43213,1,10,0:0:0:0:
260,252,43377,1,10,0:0:0:0:
101,357,43542,5,2,0:0:0:0:
40,200,43707,1,2,0:0:0:0:
304,212,43872,5,10,0:0:0:0:
128,272,44037,1,0,0:0:0:0:
152,32,44202,5,2,0:0:0:0:
212,220,44367,1,2,0:0:0:0:
104,120,44531,5,10,0:0:0:0:
289,59,44696,1,0,0:0:0:0:
364,280,44861,5,2,0:0:0:0:
128,228,45026,1,2,0:0:0:0:
390,88,45191,5,10,0:0:0:0:
286,336,45355,1,0,0:0:0:0:
289,59,45520,5,2,0:0:0:0:
460,272,45685,1,2,0:0:0:0:
239,248,45850,5,10,0:0:0:0:
472,165,46015,1,8,0:0:0:0:
208,116,46180,6,0,P|128:128|16:80,1,191.250007295609,4|0,1:2|1:0,0:0:0:0:
232,40,46839,2,0,P|280:80|284:144,1,127.500004863739,8|0,0:0|1:0,0:0:0:0:
244,228,47334,2,0,B|312:252|312:208|380:236,1,127.500004863739,2|0,0:0|0:0,0:0:0:0:
472,312,47828,2,0,P|412:324|332:312,1,127.500004863739,0|8,1:0|0:0,0:0:0:0:
92,200,48487,6,0,P|96:232|108:268,1,63.7500024318696,2|0,0:0|0:0,0:0:0:0:
64,340,48817,2,0,P|108:300|188:312,1,127.500004863739,4|0,0:0|0:0,0:0:0:0:
276,360,49476,1,8,0:0:0:0:
436,296,49806,2,0,P|364:300|320:200,1,191.250007295609,2|0,0:0|0:0,0:0:0:0:
440,100,50465,2,0,P|440:152|396:220,1,127.500004863739,0|8,1:0|0:0,0:0:0:0:
188,232,51125,6,0,P|183:198|188:160,1,63.7500024318696,2|0,0:0|0:0,0:0:0:0:
220,100,51454,2,0,P|272:92|348:96,1,127.500004863739,4|0,0:0|1:0,0:0:0:0:
456,284,51949,1,0,1:0:0:0:
456,284,52114,2,0,P|420:279|376:276,1,63.7500024318696
376,192,52443,2,0,P|328:224|356:352,1,191.250007295609,2|0,0:0|0:0,0:0:0:0:
228,264,53103,2,0,P|208:296|120:312,1,127.500004863739,0|8,1:0|0:0,0:0:0:0:
16,192,53762,6,0,L|84:188,1,63.7500024318696,2|0,0:0|0:0,0:0:0:0:
148,236,54092,2,0,P|164:188|132:120,1,127.500004863739,4|0,0:0|0:0,0:0:0:0:
8,104,54751,1,8,0:0:0:0:
112,32,55081,2,0,B|137:13|170:10|170:10|216:71|289:62,1,191.250007295609,2|0,0:0|0:0,0:0:0:0:
332,160,55740,2,0,B|292:160|244:182|244:182|252:143,1,127.500004863739,0|8,1:0|0:0,0:0:0:0:
424,184,56399,6,0,P|428:212|430:247,1,63.7500024318696,2|0,0:0|0:0,0:0:0:0:
480,316,56729,2,0,B|432:276|372:252|372:252|348:276|304:296,1,191.250007295609,4|0,0:0|0:0,0:0:0:0:
240,340,57388,1,8,0:0:0:0:
80,196,57718,1,0,1:0:0:0:
260,48,58048,2,0,P|328:36|388:48,2,127.500004863739,2|0|8,0:0|1:0|0:0,0:0:0:0:
68,160,59037,6,0,P|68:129|60:80,1,63.7500024318696,2|0,0:0|0:0,0:0:0:0:
152,196,59366,2,0,P|140:264|140:348,1,127.500004863739,4|0,0:0|0:0,0:0:0:0:
296,352,60026,1,8,0:0:0:0:
420,252,60355,2,0,P|420:180|396:56,1,191.250007295609,0|0,1:0|0:0,0:0:0:0:
333,209,61015,2,0,P|321:277|321:361,1,127.500004863739,0|8,1:0|0:0,0:0:0:0:
236,136,61674,1,2,0:0:0:0:
55,281,62004,6,0,P|87:321|167:329,1,127.500004863739,4|0,0:0|1:0,0:0:0:0:
223,281,62498,1,0,1:0:0:0:
223,281,62663,2,0,P|279:281|319:337,1,127.500004863739,8|0,0:0|1:0,0:0:0:0:
128,260,63158,2,0,P|160:216|184:136,1,127.500004863739,2|0,0:0|0:0,0:0:0:0:
64,192,63652,1,0,1:0:0:0:
51,65,63982,2,0,P|54:134|67:209,1,127.500004863739,8|0,0:0|0:0,0:0:0:0:
232,244,64476,5,0,0:0:0:0:
232,244,64559,1,0,0:0:0:0:
232,244,64641,2,0,P|288:220|368:216,1,127.500004863739,4|0,0:0|1:0,0:0:0:0:
440,240,65136,1,0,1:0:0:0:
452,112,65301,2,0,P|424:136|416:168,1,63.7500024318696,8|0,0:0|0:0,0:0:0:0:
364,76,65630,2,0,P|340:48|308:40,1,63.7500024318696,12|0,0:2|0:0,0:0:0:0:
144,156,65960,5,0,1:0:0:0:
292,112,66125,1,0,0:0:0:0:
80,100,66290,2,0,P|68:126|64:168,1,63.7500024318696,0|0,1:0|0:0,0:0:0:0:
188,80,66619,2,0,P|220:128|216:208,1,127.500004863739,8|0,0:0|1:0,0:0:0:0:
136,336,67114,1,0,1:0:0:0:
0,260,67279,6,0,B|92:288|92:236|192:264,1,191.250007295609,4|0,1:2|1:0,0:0:0:0:
288,220,67938,2,0,B|268:260|268:260|284:344,1,127.500004863739,8|0,0:0|1:0,0:0:0:0:
356,188,68432,2,0,P|300:196|260:144,1,127.500004863739,2|0,0:0|0:0,0:0:0:0:
196,100,68927,2,0,L|64:108,1,127.500004863739,0|8,1:0|0:0,0:0:0:0:
24,240,69586,1,2,0:0:0:0:
136,336,69916,6,0,P|188:300|260:312,1,127.500004863739,4|0,0:0|0:0,0:0:0:0:
364,356,70575,1,8,0:0:0:0:
288,236,70905,2,0,P|308:144|392:128,1,191.250007295609,0|0,1:0|0:0,0:0:0:0:
484,252,71564,2,0,P|432:252|364:208,1,127.500004863739,0|8,1:0|0:0,0:0:0:0:
260,52,72224,6,0,P|264:84|252:120,1,63.7500024318696,2|0,0:0|0:0,0:0:0:0:
47,136,72553,2,0,P|107:132|173:147,1,127.500004863739,4|0,0:0|1:0,0:0:0:0:
214,247,73048,1,0,0:0:0:0:
244,348,73213,2,0,P|209:340|172:344,1,63.7500024318696,8|0,0:0|0:0,0:0:0:0:
28,248,73542,2,0,B|96:256|96:256|152:236|152:236|220:248,1,191.250007295609,0|0,1:0|0:0,0:0:0:0:
316,208,74202,2,0,P|324:144|312:80,1,127.500004863739,0|8,1:0|0:0,0:0:0:0:
16,128,74861,6,0,P|42:136|84:136,1,63.7500024318696,2|0,0:0|0:0,0:0:0:0:
164,120,75191,2,0,P|216:92|284:100,1,127.500004863739,4|0,0:0|0:0,0:0:0:0:
408,192,75850,1,8,0:0:0:0:
460,80,76180,2,0,P|424:76|388:80,1,63.7500024318696,2|0,0:0|0:0,0:0:0:0:
296,208,76509,2,0,B|308:248|292:292|292:292|308:308|336:308,1,127.500004863739,4|0,0:0|0:0,0:0:0:0:
492,240,77169,1,8,0:0:0:0:
304,48,77498,6,0,P|300:76|304:132,1,63.7500024318696,2|0,0:0|0:0,0:0:0:0:
208,132,77828,2,0,P|116:132|52:52,1,191.250007295609,4|0,0:0|0:0,0:0:0:0:
156,36,78487,1,8,0:0:0:0:
248,208,78817,1,0,0:0:0:0:
96,332,79147,2,0,P|40:316|20:252,2,127.500004863739,2|0|0,0:0|1:0|0:0,0:0:0:0:
248,208,80136,6,0,P|251:175|248:132,1,63.7500024318696,2|0,0:0|0:0,0:0:0:0:
184,272,80465,2,0,P|248:300|320:268,1,127.500004863739,4|0,0:0|0:0,0:0:0:0:
480,236,81125,1,8,0:0:0:0:
332,168,81454,1,8,0:0:0:0:
428,32,81784,2,0,L|420:180,1,127.500004863739,4|0,0:0|1:0,0:0:0:0:
456,348,82443,1,8,0:0:0:0:
360,304,82773,6,0,P|332:292|288:288,1,63.7500024318696,2|0,0:0|0:0,0:0:0:0:
136,300,83103,2,0,P|168:340|248:348,1,127.500004863739,4|0,0:0|1:0,0:0:0:0:
216,264,83597,1,0,1:0:0:0:
216,264,83762,2,0,P|224:212|168:160,1,127.500004863739,8|0,0:0|1:0,0:0:0:0:
8,168,84257,2,0,P|52:200|132:224,1,127.500004863739,2|0,0:0|0:0,0:0:0:0:
96,92,84751,1,0,1:0:0:0:
223,80,85081,2,0,P|154:83|79:96,1,127.500004863739,8|0,0:0|0:0,0:0:0:0:
272,12,85740,6,0,P|308:64|292:128,1,127.500004863739,4|0,0:0|1:0,0:0:0:0:
223,80,86235,1,0,1:0:0:0:
384,124,86399,2,0,P|420:116|456:124,1,63.7500024318696,10|0,3:2|0:0,0:0:0:0:
340,200,86729,2,0,P|304:208|268:200,1,63.7500024318696
424,200,87059,5,0,1:0:0:0:
384,356,87388,2,0,P|381:326|376:292,1,63.7500024318696,0|0,1:0|0:0,0:0:0:0:
294,331,87718,2,0,P|242:335|146:327,1,127.500004863739,8|4,0:0|0:3,0:0:0:0:
24,220,88377,6,0,P|68:216|112:204,1,85,2|0,1:2|0:0,0:0:0:0:
244,116,88707,2,0,P|256:156|257:198,1,85,8|0,0:0|0:0,0:0:0:0:
152,108,89037,1,2,1:2:0:0:
296,40,89202,1,0,1:0:0:0:
296,288,89366,2,0,L|212:280,1,85,8|0,0:0|0:0,0:0:0:0:
344,172,89696,6,0,P|364:144|408:116,1,85,2|0,1:2|0:0,0:0:0:0:
464,280,90026,2,0,P|472:328|476:384,1,85,8|0,0:0|0:0,0:0:0:0:
296,288,90355,1,2,1:2:0:0:
424,204,90520,1,0,1:0:0:0:
256,196,90685,2,0,P|212:184|168:168,1,85,8|0,0:0|0:0,0:0:0:0:
76,48,91015,6,0,L|104:160,1,85,2|0,1:2|0:0,0:0:0:0:
52,316,91345,2,0,P|72:278|112:236,1,85,8|0,0:0|0:0,0:0:0:0:
346,286,91674,1,2,1:2:0:0:
190,354,91839,1,0,1:0:0:0:
214,174,92004,2,0,P|235:217|246:270,1,85,8|0,0:0|0:0,0:0:0:0:
320,32,92334,6,0,P|363:36|412:64,1,85,2|0,1:2|0:0,0:0:0:0:
384,256,92663,1,8,0:0:0:0:
384,256,92828,1,8,0:0:0:0:
256,192,92993,1,2,1:2:0:0:
344,112,93158,1,0,1:0:0:0:
424,352,93323,2,0,L|336:344,1,85,8|0,0:0|0:0,0:0:0:0:
188,276,93652,6,0,P|205:314|215:355,1,85,2|0,1:2|0:0,0:0:0:0:
124,188,93982,1,8,0:0:0:0:
284,280,94147,1,0,0:0:0:0:
104,336,94312,2,0,P|63:323|16:316,1,85,2|0,1:2|1:0,1:2:0:0:
196,108,94641,2,0,P|216:144|224:200,1,85,8|0,0:0|0:0,0:0:0:0:
32,168,94971,6,0,L|20:68,1,85,2|0,1:2|0:0,0:0:0:0:
196,108,95301,2,0,P|243:100|276:80,1,85,8|0,0:0|0:0,0:0:0:0:
436,224,95630,1,2,1:2:0:0:
272,184,95795,1,0,1:0:0:0:
352,32,95960,2,0,P|364:72|367:114,1,85,8|0,0:0|0:0,0:0:0:0:
388,352,96290,6,0,P|345:352|300:332,1,85,2|0,1:2|0:0,0:0:0:0:
196,240,96619,1,8,0:0:0:0:
196,240,96784,1,8,0:0:0:0:
356,264,96949,1,2,1:2:0:0:
144,352,97114,1,0,1:0:0:0:
178,156,97279,2,0,P|188:199|198:260,1,85,8|0,0:0|0:0,0:0:0:0:
268,88,97608,6,0,P|296:56|344:24,1,85,2|0,1:2|0:0,0:0:0:0:
472,132,97938,2,0,P|496:172|508:220,1,85,8|0,0:0|0:0,0:0:0:0:
272,204,98268,1,2,1:2:0:0:
376,128,98432,1,0,1:0:0:0:
360,356,98597,2,0,L|368:260,1,85,8|0,0:0|0:0,0:0:0:0:
172,336,98927,6,0,P|136:352|80:356,1,85,2|0,1:2|0:0,0:0:0:0:
208,204,99257,1,8,0:0:0:0:
360,312,99421,1,0,0:0:0:0:
268,312,99586,2,0,P|272:272|296:228,1,85,2|0,1:2|1:0,0:0:0:0:
420,112,99916,2,0,P|432:156|436:200,1,85,8|0,0:0|0:0,0:0:0:0:
288,92,100246,6,0,P|248:76|188:72,1,85,2|0,1:2|0:0,0:0:0:0:
12,172,100575,2,0,B|100:144|96:196|184:168,1,170,8|2,0:0|1:2,0:0:0:0:
300,216,101070,1,0,1:0:0:0:
148,288,101235,2,0,P|140:328|140:380,1,85,8|0,0:0|0:0,0:0:0:0:
400,316,101564,6,0,P|399:273|392:228,1,85,2|0,1:2|0:0,0:0:0:0:
276,128,101894,1,8,0:0:0:0:
244,316,102059,1,0,0:0:0:0:
460,160,102224,2,0,P|412:140|368:140,1,85,2|0,1:2|1:0,0:0:0:0:
208,232,102553,2,0,P|248:232|292:216,1,85,8|0,0:0|0:0,0:0:0:0:
284,40,102883,6,0,P|280:78|280:124,1,85,2|0,1:2|0:0,0:0:0:0:
60,320,103213,2,0,P|60:280|56:235,1,85,8|0,0:0|0:0,0:0:0:0:
148,56,103542,2,0,L|152:156,1,85,2|0,1:2|1:0,0:0:0:0:
228,336,103872,2,0,P|276:340|328:324,1,85,8|0,0:0|0:0,0:0:0:0:
356,184,104202,6,0,L|272:176,1,85,4|0,0:0|0:0,0:0:0:0:
396,292,104531,2,0,L|480:300,1,85,8|0,0:0|0:0,0:0:0:0:
444,72,104861,2,0,L|360:64,1,85,8|0,0:0|0:0,0:0:0:0:
196,228,105191,2,0,P|128:228|64:148,1,170,8|8,0:0|0:0,0:0:0:0:
252,96,105685,5,0,0:0:0:0:
280,272,105850,2,0,P|316:256|372:256,1,85,8|0,0:0|0:0,0:0:0:0:
508,296,106180,1,8,1:2:0:0:
360,352,106345,1,0,0:0:0:0:
452,200,106509,1,10,0:0:0:0:
464,376,106674,1,0,0:0:0:0:
360,156,106839,6,0,P|372:108|400:80,1,85,4|0,0:0|0:0,0:0:0:0:
240,120,107169,2,0,P|228:72|236:34,1,85,8|0,0:0|0:0,0:0:0:0:
144,224,107498,2,0,P|112:192|98:151,1,85,8|0,0:0|0:0,0:0:0:0:
296,280,107828,2,0,L|200:308,1,85,8|0,0:0|0:0,0:0:0:0:
36,272,108158,5,8,0:2:0:0:
88,124,108323,1,0,0:0:0:0:
192,204,108487,5,8,0:0:0:0:
208,344,108652,1,0,0:0:0:0:
300,176,108817,5,8,0:0:0:0:
316,48,108981,1,0,0:0:0:0:
448,168,109147,5,8,0:0:0:0:
464,296,109311,1,0,0:0:0:0:
312,340,109476,6,0,P|272:328|220:332,1,85,4|0,0:0|0:0,0:0:0:0:
60,192,109806,2,0,P|100:204|152:200,1,85,8|0,0:0|0:0,0:0:0:0:
304,240,110136,1,0,1:0:0:0:
128,304,110301,1,0,1:0:0:0:
208,124,110465,2,0,L|220:172,1,42.5,8|0,0:0|0:0,0:0:0:0:
288,64,110713,5,0,0:0:0:0:
304,44,110795,2,0,L|436:64,2,127.5,8|8|8,0:0|0:0|0:0,0:0:0:0:
376,224,111454,2,0,P|373:177|368:136,1,85,8|0,0:0|0:0,0:0:0:0:
132,64,111784,5,8,0:3:0:0:
132,64,111866,1,4,0:3:0:0:
132,64,111949,1,4,0:3:0:0:
132,324,112114,6,0,P|104:336|24:240,1,170,4|8,1:2|0:0,0:0:0:0:
116,164,112608,2,0,P|104:200|100:249,1,85,2|0,1:2|0:0,0:0:0:0:
268,196,112938,2,0,P|253:158|252:96,1,85,2|8,1:2|0:0,0:0:0:0:
464,200,113268,1,2,1:2:0:0:
384,136,113432,6,0,P|372:224|436:288,1,170,2|8,1:2|0:0,0:0:0:0:
421,281,113927,1,0,0:0:0:0:
316,320,114092,2,0,P|280:328|232:320,1,85,2|0,1:2|1:0,0:0:0:0:
124,192,114421,1,8,0:0:0:0:
64,352,114586,1,0,0:0:0:0:
12,272,114751,6,0,P|68:260|156:344,1,170,4|8,1:2|0:0,0:0:0:0:
216,160,115246,2,0,L|228:68,1,85,2|0,1:2|0:0,0:0:0:0:
326,235,115575,2,0,L|314:327,1,85,2|8,1:2|0:0,0:0:0:0:
448,212,115905,1,2,1:2:0:0:
512,80,116070,6,0,P|428:88|336:120,1,170,0|8,1:2|0:0,0:0:0:0:
347,114,116564,1,0,0:0:0:0:
140,60,116729,2,0,P|180:52|232:44,1,85,2|0,1:2|1:0,0:0:0:0:
272,248,117059,2,0,L|188:240,1,85,8|0,0:0|0:0,0:0:0:0:
264,336,117388,6,0,P|328:320|360:228,1,170,4|8,1:2|0:0,0:0:0:0:
248,96,117883,2,0,P|220:124|212:168,1,85,2|0,1:2|0:0,0:0:0:0:
340,64,118213,2,0,P|312:24|268:8,1,85,2|8,1:2|0:0,0:0:0:0:
312,164,118542,1,2,1:2:0:0:
312,164,118707,6,0,P|368:152|436:236,1,170,0|8,1:0|0:0,0:0:0:0:
436,228,119202,1,0,0:0:0:0:
288,348,119366,2,0,L|284:244,1,85,2|0,1:2|1:0,0:0:0:0:
152,284,119696,2,0,L|144:372,1,85,8|0,0:0|0:0,0:0:0:0:
32,240,120026,6,0,P|32:160|48:52,1,170,4|8,1:2|0:0,0:0:0:0:
280,40,120520,2,0,P|288:82|288:140,1,85,2|0,1:2|0:0,0:0:0:0:
120,196,120850,2,0,P|116:152|120:112,1,85,2|8,1:2|0:0,0:0:0:0:
192,52,121180,1,2,1:2:0:0:
288,204,121345,6,0,P|336:188|348:76,1,170,2|8,1:2|0:0,0:0:0:0:
192,52,121839,1,0,0:0:0:0:
204,208,122004,2,0,P|220:240|224:296,1,85,2|0,1:2|1:0,0:0:0:0:
68,152,122334,2,0,P|108:148|152:124,1,85,8|0,0:0|0:0,0:0:0:0:
312,348,122663,6,0,P|260:332|128:336,1,170,4|8,1:2|0:0,0:0:0:0:
24,176,123158,2,0,L|28:84,1,85,2|0,1:2|0:0,0:0:0:0:
136,168,123487,2,0,L|132:260,1,85,2|8,1:2|0:0,0:0:0:0:
27,91,123817,1,2,1:2:0:0:
252,44,123982,6,0,P|244:108|248:224,1,170,2|8,1:2|0:0,0:0:0:0:
246,213,124476,1,0,0:0:0:0:
344,356,124641,2,0,P|348:312|344:260,1,85,2|0,1:2|1:0,0:0:0:0:
476,192,124971,1,8,0:0:0:0:
432,360,125136,1,0,0:0:0:0:
260,304,125301,6,0,P|204:296|172:180,1,170,4|8,1:2|0:0,0:0:0:0:
376,100,125795,2,0,P|380:124|384:184,2,85,2|0|0,1:2|0:0|1:0,0:0:0:0:
208,40,126290,1,8,0:0:0:0:
246,213,126454,1,0,0:0:0:0:
300,88,126619,6,0,P|268:116|224:128,1,85,0|0,1:0|0:0,0:0:0:0:
52,52,126949,2,0,P|92:60|132:104,1,85,8|0,0:0|0:0,0:0:0:0:
160,332,127279,2,0,L|156:284,1,42.5,2|0,3:0|3:0,0:0:0:0:
88,224,127443,1,8,3:0:0:0:
125,203,127525,1,8,3:0:0:0:
167,200,127607,1,8,3:0:0:0:
207,212,127690,1,8,3:0:0:0:
232,240,127773,1,4,3:0:0:0:
269,260,127855,1,4,3:0:0:0:
311,263,127938,5,4,0:0:0:0:
484,200,128103,1,0,0:0:0:0:
484,200,128268,1,8,0:0:0:0:
380,332,128432,5,0,0:0:0:0:
416,136,128597,1,8,0:0:0:0:
416,136,128762,1,0,0:0:0:0:
476,296,128927,5,8,0:0:0:0:
328,168,129092,2,0,P|308:128|268:92,2,85
292,344,129586,5,8,0:0:0:0:
176,340,129751,1,0,0:0:0:0:
356,236,129916,5,8,0:0:0:0:
116,216,130081,1,0,0:0:0:0:
416,124,130246,5,8,0:0:0:0:
84,76,130410,1,0,0:0:0:0:
240,32,130575,6,0,P|256:76|252:208,1,170,12|8,0:0|0:0,0:0:0:0:
172,128,131070,1,0,0:0:0:0:
340,72,131235,1,8,0:2:0:0:
340,72,131399,1,0,0:0:0:0:
280,276,131564,2,0,P|236:276|188:248,1,85,8|0,0:0|0:0,0:0:0:0:
88,132,131894,6,0,L|80:220,1,85,2|0,0:0|0:0,0:0:0:0:
256,144,132224,2,0,L|252:44,1,85,2|0,0:0|0:0,0:0:0:0:
428,176,132553,2,0,L|424:276,1,85,2|0,0:0|0:0,0:0:0:0:
256,336,132883,5,4,0:3:0:0:
256,336,132965,1,0,1:0:0:0:
256,336,133048,1,0,1:0:0:0:
256,192,133213,12,4,135850,0:0:0:0:
400,320,136180,6,0,L|412:148,1,170,8|2,0:0|0:0,0:0:0:0:
340,84,136674,1,2,0:0:0:0:
497,170,136839,1,8,0:0:0:0:
328,236,137003,1,2,0:0:0:0:
260,76,137168,5,2,0:0:0:0:
411,150,137333,1,2,0:0:0:0:
240,224,137498,1,8,0:0:0:0:
411,150,137663,1,2,0:0:0:0:
260,76,137828,5,2,0:0:0:0:
224,316,137992,1,2,0:0:0:0:
344,264,138157,1,8,0:0:0:0:
240,180,138322,1,8,0:0:0:0:
116,320,138487,6,0,P|82:302|27:301,1,85,2|0,0:0|0:0,0:0:0:0:
0,196,138817,2,0,P|66:203|130:115,1,170,8|2,0:0|0:0,0:0:0:0:
48,128,139311,1,2,0:0:0:0:
180,224,139476,1,8,0:0:0:0:
192,56,139641,1,2,0:0:0:0:
288,216,139806,5,2,0:0:0:0:
408,104,139970,1,2,0:0:0:0:
240,140,140135,1,8,0:0:0:0:
360,276,140300,1,2,0:0:0:0:
324,120,140465,5,2,0:0:0:0:
456,272,140630,1,0,0:0:0:0:
280,312,140795,1,10,0:0:0:0:
404,184,140960,1,2,0:0:0:0:
168,104,141124,5,2,0:0:0:0:
192,340,141289,1,2,0:0:0:0:
408,104,141454,5,10,0:0:0:0:
180,196,141619,1,0,0:0:0:0:
408,356,141784,5,2,0:0:0:0:
328,128,141949,1,2,0:0:0:0:
104,256,142113,5,10,0:0:0:0:
380,280,142278,1,0,0:0:0:0:
220,52,142443,5,2,0:0:0:0:
184,272,142608,1,2,0:0:0:0:
472,184,142773,5,10,0:0:0:0:
208,132,142937,1,0,0:0:0:0:
296,352,143103,5,2,0:0:0:0:
380,184,143267,1,2,0:0:0:0:
260,224,143432,5,10,0:0:0:0:
416,320,143597,1,8,0:0:0:0:
460,76,143762,6,0,P|408:56|320:68,1,127.500004863739,4|0,1:2|1:0,0:0:0:0:
60,84,144421,2,0,P|120:96|156:148,1,127.500004863739,8|0,0:0|0:0,0:0:0:0:
76,176,144916,2,0,P|96:212|88:312,1,127.500004863739
176,224,145410,2,0,P|236:212|316:224,1,127.500004863739,0|8,1:0|0:0,0:0:0:0:
480,116,146070,6,0,P|448:112|412:100,1,63.7500024318696
340,68,146399,2,0,P|384:28|464:40,1,127.500004863739,4|0,0:0|0:0,0:0:0:0:
420,184,147058,1,8,0:0:0:0:
272,124,147388,2,0,P|212:104|144:120,1,127.500004863739,0|0,0:0|1:0,0:0:0:0:
96,184,147883,1,0,0:0:0:0:
96,184,148048,2,0,L|108:324,1,127.500004863739,0|8,1:0|0:0,0:0:0:0:
384,356,148707,6,0,P|389:322|384:284,1,63.7500024318696
368,216,149037,2,0,P|360:156|372:76,1,127.500004863739,4|0,0:0|1:0,0:0:0:0:
216,40,149696,2,0,L|208:120,1,63.7500024318696,8|0,0:0|0:0,0:0:0:0:
200,192,150026,1,0,0:0:0:0:
74,181,150191,2,0,P|133:179|209:195,1,127.500004863739
340,340,150685,2,0,P|292:332|208:332,1,127.500004863739,0|8,1:0|0:0,0:0:0:0:
24,292,151344,6,0,P|56:296|92:288,1,63.7500024318696
140,224,151674,2,0,P|136:156|140:96,1,127.500004863739,4|0,0:0|1:0,0:0:0:0:
268,32,152333,1,8,0:0:0:0:
216,164,152663,2,0,B|308:132|308:196|408:160,1,191.250007295609
504,164,153323,1,0,1:0:0:0:
345,28,153652,2,0,P|347:60|352:92,1,63.7500024318696,8|0,0:0|0:0,0:0:0:0:
278,299,153982,2,0,P|276:267|272:236,1,63.7500024318696
200,124,154312,6,0,P|140:144|60:124,1,127.500004863739,4|0,0:0|0:0,0:0:0:0:
28,76,154806,1,0,0:0:0:0:
28,76,154970,1,0,0:0:0:0:
56,304,155300,1,0,0:0:0:0:
240,212,155630,2,0,L|244:68,2,127.500004863739,0|0|8,0:0|1:0|0:0,0:0:0:0:
444,296,156619,6,0,P|412:288|364:288,1,63.7500024318696
332,352,156949,2,0,P|264:364|180:364,1,127.500004863739,4|0,0:0|1:0,0:0:0:0:
36,252,157608,1,8,0:0:0:0:
148,152,157937,2,0,P|128:224|124:340,1,191.250007295609
360,264,158597,2,0,P|358:194|342:112,1,127.500004863739,0|8,1:0|0:0,0:0:0:0:
240,40,159256,1,0,0:0:0:0:
40,52,159586,6,0,P|84:76|168:68,1,127.500004863739,4|0,0:0|1:0,0:0:0:0:
244,152,160081,1,0,1:0:0:0:
244,152,160246,2,0,P|188:152|148:208,1,127.500004863739,8|8,0:0|0:0,0:0:0:0:
232,332,160740,2,0,B|236:236|236:236|196:256,1,127.500004863739,0|0,1:0|0:0,0:0:0:0:
100,276,161235,1,0,1:0:0:0:
75,194,161564,2,0,B|71:290|71:290|111:270,1,127.500004863739,8|0,0:0|0:0,0:0:0:0:
312,204,162058,5,0,0:0:0:0:
312,204,162141,1,0,0:0:0:0:
312,204,162223,2,0,L|320:72,1,127.500004863739,4|0,0:0|1:0,0:0:0:0:
319,76,162718,1,0,1:0:0:0:
464,192,162883,2,0,P|444:216|400:224,1,63.7500024318696,8|0,0:0|0:0,0:0:0:0:
224,124,163212,2,0,P|196:104|180:68,1,63.7500024318696,4|0,0:0|0:0,0:0:0:0:
184,40,163460,1,8,0:0:0:0:
184,40,163542,1,8,0:0:0:0:
312,204,163707,5,2,0:3:0:0:
148,268,163872,2,0,P|151:236|164:207,1,63.7500024318696,8|0,0:3|0:0,0:0:0:0:
336,340,164201,2,0,P|288:324|208:328,1,127.500004863739,4|0,0:0|1:0,0:0:0:0:
136,360,164696,1,0,1:0:0:0:
312,232,164861,6,0,L|300:148,1,85,2|0,1:2|0:0,0:0:0:0:
204,32,165191,2,0,L|184:120,1,85,8|0,0:0|0:0,0:0:0:0:
40,244,165520,1,2,1:2:0:0:
64,128,165685,1,0,1:0:0:0:
137,211,165850,2,0,P|177:224|219:231,1,85,8|0,0:0|0:0,0:0:0:0:
500,252,166180,6,0,P|497:208|488:167,1,85,2|0,1:2|0:0,0:0:0:0:
328,52,166509,2,0,P|316:92|312:136,1,85,8|0,0:0|0:0,0:0:0:0:
324,336,166839,1,2,1:2:0:0:
412,284,167004,1,0,1:0:0:0:
320,236,167169,2,0,P|276:236|220:228,1,85,8|0,0:0|0:0,0:0:0:0:
56,120,167498,6,0,P|66:80|91:45,1,85,2|0,1:2|0:0,0:0:0:0:
224,320,167828,2,0,P|188:344|147:353,1,85,8|0,0:0|0:0,0:0:0:0:
148,124,168158,1,2,1:2:0:0:
252,204,168323,1,0,1:0:0:0:
120,260,168488,2,0,P|78:253|42:230,1,85,8|0,0:0|0:0,0:0:0:0:
252,204,168817,6,0,L|344:208,1,85,2|0,1:2|0:0,0:0:0:0:
472,248,169147,1,8,0:0:0:0:
472,248,169312,1,8,0:0:0:0:
332,112,169476,1,2,1:2:0:0:
320,308,169641,1,0,1:0:0:0:
448,136,169807,2,0,L|432:40,1,85,8|0,0:0|0:0,0:0:0:0:
220,108,170136,6,0,P|180:124|144:148,1,85,2|0,1:2|0:0,0:0:0:0:
88,324,170465,1,8,0:0:0:0:
196,240,170630,1,0,0:0:0:0:
68,88,170795,2,0,L|44:172,1,85,2|0,1:2|1:0,0:0:0:0:
208,352,171125,2,0,P|246:333|288:331,1,85,8|0,0:0|0:0,0:0:0:0:
484,280,171455,6,0,P|440:276|392:264,1,85,2|0,1:2|0:0,0:0:0:0:
316,76,171784,2,0,P|297:115|288:156,1,85,8|0,0:0|0:0,0:0:0:0:
372,352,172114,1,2,1:2:0:0:
448,196,172279,1,0,1:0:0:0:
236,244,172443,2,0,P|278:244|328:236,1,85,8|0,0:0|0:0,0:0:0:0:
399,92,172773,6,0,L|316:76,1,85,2|0,1:2|0:0,0:0:0:0:
136,136,173103,1,8,0:0:0:0:
136,136,173268,1,8,0:0:0:0:
236,244,173432,1,2,1:2:0:0:
208,40,173597,1,0,1:0:0:0:
44,108,173762,2,0,P|35:149|36:192,1,85,8|0,0:0|0:0,0:0:0:0:
72,348,174092,6,0,P|116:340|164:324,1,85,2|0,1:2|0:0,0:0:0:0:
259,237,174422,2,0,P|219:229|171:213,1,85,8|0,0:0|0:0,0:0:0:0:
360,344,174752,1,2,1:2:0:0:
496,268,174916,1,0,1:0:0:0:
400,124,175081,2,0,P|391:166|388:208,1,85,8|0,0:0|0:0,0:0:0:0:
276,328,175411,6,0,P|236:336|180:316,1,85,2|0,1:2|0:0,0:0:0:0:
96,140,175741,1,8,0:0:0:0:
224,244,175905,1,0,0:0:0:0:
60,352,176070,2,0,P|60:312|72:264,1,85,2|0,1:2|1:0,0:0:0:0:
172,48,176399,2,0,P|192:80|200:132,1,85,8|0,0:0|0:0,0:0:0:0:
336,344,176730,6,0,P|376:335|428:332,1,85,2|0,1:2|0:0,0:0:0:0:
500,172,177059,2,0,P|420:164|304:168,1,170,8|2,0:0|1:2,0:0:0:0:
200,126,177553,1,0,1:0:0:0:
252,268,177718,2,0,P|244:308|244:360,1,85,8|0,0:0|0:0,0:0:0:0:
112,248,178048,6,0,P|80:256|20:248,1,85,2|0,1:2|0:0,0:0:0:0:
100,96,178378,1,8,0:0:0:0:
240,192,178543,1,8,0:0:0:0:
119,13,178708,2,0,L|100:100,1,85,0|0,1:0|1:0,0:0:0:0:
276,64,179037,2,0,P|316:52|368:44,1,85,8|0,0:0|0:0,0:0:0:0:
464,200,179367,6,0,P|428:196|368:200,1,85,2|0,1:2|0:0,0:0:0:0:
276,320,179696,2,0,P|316:333|354:352,1,85,8|0,0:0|0:0,0:0:0:0:
148,255,180026,2,0,P|143:298|147:340,1,85,2|0,1:2|1:0,0:0:0:0:
56,143,180356,2,0,P|93:124|134:115,1,85,12|0,0:0|0:0,0:0:0:0:
340,120,180686,6,0,P|310:149|297:189,1,85,2|0,1:2|0:0,0:0:0:0:
436,96,181015,2,0,P|415:59|381:33,1,85,8|0,0:0|0:0,0:0:0:0:
404,204,181345,2,0,P|444:188|486:189,1,85,8|0,0:0|0:0,0:0:0:0:
216,244,181675,2,0,B|208:192|208:192|220:128|220:128|212:72,1,170,8|0,0:0|1:0,0:0:0:0:
308,256,182169,5,0,0:0:0:0:
128,124,182334,2,0,P|92:140|36:140,1,85,8|0,0:0|0:0,0:0:0:0:
128,304,182663,1,8,0:0:0:0:
320,164,182828,1,0,1:0:0:0:
248,328,182993,1,8,0:0:0:0:
128,124,183158,1,0,1:0:0:0:
344,272,183323,6,0,P|386:282|440:284,1,85,4|0,0:0|0:0,0:0:0:0:
204,180,183652,2,0,P|168:204|104:212,1,85,8|0,0:0|0:0,0:0:0:0:
300,32,183982,2,0,P|309:73|313:115,1,85,8|0,0:0|0:0,0:0:0:0:
248,360,184312,2,0,L|244:268,1,85,8|0,0:0|0:0,0:0:0:0:
168,56,184642,5,8,0:0:0:0:
300,32,184807,1,0,0:0:0:0:
356,152,184971,5,8,0:0:0:0:
152,144,185136,1,0,0:0:0:0:
136,256,185301,5,8,0:0:0:0:
384,240,185465,1,0,0:0:0:0:
404,364,185631,5,8,0:0:0:0:
108,348,185795,1,0,0:0:0:0:
252,376,185960,6,0,L|256:288,1,85,4|0,0:0|0:0,0:0:0:0:
64,168,186290,2,0,P|96:188|144:200,1,85,8|0,0:0|0:0,0:0:0:0:
360,144,186620,1,0,1:0:0:0:
184,56,186785,1,0,1:0:0:0:
248,200,186949,2,0,L|252:148,1,42.5,8|0,0:0|0:0,0:0:0:0:
72,332,187196,5,0,0:0:0:0:
72,332,187279,2,0,B|112:304|112:304|204:336,1,127.5,8|0,0:0|0:0,0:0:0:0:
212,340,187608,1,8,0:0:0:0:
28,232,187773,1,0,0:0:0:0:
137,122,187938,2,0,P|149:162|153:218,1,85,8|0,0:0|0:0,0:0:0:0:
68,76,188268,5,8,3:2:0:0:
77,67,188350,1,0,3:2:0:0:
86,58,188432,1,0,3:2:0:0:
96,50,188515,1,0,3:2:0:0:
104,44,188597,2,0,P|132:32|212:128,1,170,4|8,0:0|0:0,0:0:0:0:
56,136,189092,2,0,P|99:137|141:120,1,85,2|0,1:2|0:0,0:0:0:0:
240,300,189421,2,0,P|200:292|152:292,1,85,2|8,1:2|0:0,0:0:0:0:
72,340,189751,1,2,1:2:0:0:
212,196,189916,6,4,B|268:192|268:192|324:212|324:212|380:208,1,170,2|8,1:2|0:0,0:0:0:0:
476,200,190410,1,0,0:0:0:0:
344,32,190575,2,0,P|340:72|344:116,1,85,2|0,1:2|1:0,0:0:0:0:
372,296,190904,1,8,0:0:0:0:
476,200,191069,1,0,0:0:0:0:
288,284,191234,6,0,P|232:272|144:356,1,170,4|8,0:0|0:0,0:0:0:0:
16,240,191729,2,0,L|108:252,1,85,2|0,1:2|0:0,0:0:0:0:
272,168,192059,2,0,L|180:156,1,85,2|8,1:2|0:0,0:0:0:0:
100,88,192388,1,2,1:2:0:0:
248,36,192553,6,0,P|328:62|412:70,1,170,0|8,1:2|0:0,0:0:0:0:
496,56,193047,1,0,0:0:0:0:
368,232,193213,2,0,P|360:192|356:136,1,85,2|0,1:2|1:0,0:0:0:0:
472,260,193542,2,0,P|468:302|460:343,1,85,8|0,0:0|0:0,0:0:0:0:
164,324,193872,6,0,P|228:308|336:312,1,170,4|8,0:0|0:0,0:0:0:0:
84,284,194366,2,0,P|72:248|80:196,1,85,2|0,1:2|0:0,0:0:0:0:
232,184,194696,2,0,P|205:216|165:230,1,85,2|8,1:2|0:0,0:0:0:0:
64,36,195025,1,2,1:2:0:0:
64,36,195191,6,0,P|124:48|148:148,1,170,0|8,1:0|0:0,0:0:0:0:
76,116,195685,1,0,0:0:0:0:
224,56,195850,2,0,P|265:41|312:44,1,85,2|0,1:2|1:0,0:0:0:0:
376,208,196180,2,0,L|368:296,1,85,8|0,0:0|0:0,0:0:0:0:
472,136,196509,6,0,P|388:120|280:120,1,170,4|8,0:0|0:0,0:0:0:0:
208,352,197004,2,0,P|250:344|308:344,1,85,2|0,1:2|0:0,0:0:0:0:
224,180,197333,2,0,P|180:176|140:180,1,85,2|8,1:2|0:0,0:0:0:0:
56,216,197663,1,2,1:2:0:0:
208,256,197828,6,0,P|280:252|300:160,1,170,0|8,1:2|0:0,0:0:0:0:
224,180,198322,1,0,0:0:0:0:
120,252,198487,2,0,P|102:290|92:332,1,85,2|0,1:2|0:0,0:0:0:0:
152,120,198817,2,0,P|116:93|72:88,1,85,8|0,0:0|0:0,0:0:0:0:
0,174,199147,6,0,P|84:182|120:258,1,170,4|8,0:0|0:0,0:0:0:0:
228,360,199641,2,0,L|232:268,1,85,2|0,1:2|0:0,0:0:0:0:
352,168,199971,2,0,L|348:260,1,85,2|8,1:2|0:0,0:0:0:0:
436,336,200300,1,2,1:2:0:0:
436,148,200465,6,0,P|388:80|300:96,1,170,2|8,1:2|0:0,0:0:0:0:
244,160,200959,1,0,0:0:0:0:
176,92,201125,2,0,P|180:48|176:-4,1,85,2|0,1:2|0:0,0:0:0:0:
16,152,201454,1,8,0:0:0:0:
176,92,201619,1,0,0:0:0:0:
72,216,201784,6,0,P|112:272|112:380,1,170,4|8,0:0|0:0,0:0:0:0:
392,308,202279,2,0,P|460:296|448:208,1,170,2|0,0:0|1:0,0:0:0:0:
300,160,202773,1,8,0:0:0:0:
336,368,202937,1,2,0:0:0:0:
376,112,203103,6,0,P|344:84|300:72,1,85,2|0,1:2|0:0,0:0:0:0:
44,208,203432,2,0,P|84:196|132:188,1,85,8|0,0:0|0:0,0:0:0:0:
336,328,203762,2,0,L|292:324,1,42.5,2|0,3:0|0:0,0:0:0:0:
208,376,203927,5,8,3:0:0:0:
193,336,204009,1,8,3:0:0:0:
195,294,204091,1,8,3:0:0:0:
213,256,204174,1,8,3:0:0:0:
223,214,204256,1,4,3:0:0:0:
221,172,204338,1,4,3:0:0:0:
206,132,204421,5,4,0:0:0:0:
176,24,204586,1,0,0:0:0:0:
100,104,204751,1,8,0:0:0:0:
379,158,204915,5,0,0:0:0:0:
259,55,205081,1,8,0:0:0:0:
223,214,205245,1,0,0:0:0:0:
315,108,205410,6,0,P|300:190|324:271,1,170,4|0,0:0|0:0,0:0:0:0:
444,304,205904,1,0,0:0:0:0:
424,72,206069,5,8,0:0:0:0:
200,132,206234,1,0,0:0:0:0:
116,56,206399,5,8,0:0:0:0:
384,176,206564,1,0,0:0:0:0:
336,80,206729,5,8,0:0:0:0:
120,208,206893,1,0,0:0:0:0:
472,216,207059,6,0,P|448:288|364:296,1,170,4|8,0:0|0:0,0:0:0:0:
280,40,207553,1,0,0:0:0:0:
392,216,207718,1,8,0:0:0:0:
232,340,207882,1,0,0:0:0:0:
68,264,208048,2,0,P|108:260|164:276,1,85,8|0,0:0|0:0,0:0:0:0:
304,216,208377,6,0,P|304:176|312:128,1,85,2|0,0:0|0:0,0:0:0:0:
440,256,208707,2,0,L|444:356,1,85,2|0,0:0|0:0,0:0:0:0:
180,136,209037,2,0,L|184:36,1,85,2|0,0:0|0:0,0:0:0:0:
464,84,209366,5,12,3:0:0:0:
464,84,209448,1,0,3:0:0:0:
464,84,209531,1,0,3:0:0:0:
296,360,209696,6,0,P|233:349|168:344,1,127.500004863739,4|2,0:0|0:0,0:0:0:0:
80,360,210191,1,0,0:0:0:0:
80,360,210355,2,0,P|80:300|92:224,1,127.500004863739,8|2,0:0|0:0,0:0:0:0:
44,160,210850,2,0,P|104:148|168:204,1,127.500004863739
200,256,211345,1,0,1:0:0:0:
256,108,211674,2,0,P|306:127|381:83,1,127.500004863739,8|0,0:0|0:0,0:0:0:0:
408,352,212334,6,0,L|416:220,1,127.500004863739,4|0,0:0|1:0,0:0:0:0:
308,172,212828,1,0,1:0:0:0:
308,172,212993,2,0,L|316:252,1,63.7500024318696,8|8,0:2|0:0,0:0:0:0:
324,316,213323,1,0,1:0:0:0:
232,268,213487,2,0,P|172:256|96:256,1,127.500004863739,2|0,0:0|0:0,0:0:0:0:
0,112,213982,2,0,P|56:100|152:100,1,127.500004863739,0|8,1:0|0:0,0:0:0:0:
260,140,214641,1,2,0:0:0:0:
400,32,214971,6,0,B|372:72|372:72|384:164,1,127.500004863739,4|2,0:0|0:0,0:0:0:0:
444,232,215465,1,0,0:0:0:0:
444,232,215630,2,0,P|384:248|360:312,1,127.500004863739,8|2,0:0|0:0,0:0:0:0:
304,200,216125,2,0,P|256:188|172:196,1,127.500004863739
52,232,216619,1,0,1:0:0:0:
59,104,216949,2,0,L|51:244,1,127.500004863739,8|0,0:0|0:0,0:0:0:0:
160,360,217608,6,0,P|200:312|272:308,1,127.500004863739,4|0,0:0|1:0,0:0:0:0:
332,344,218103,1,0,0:0:0:0:
324,196,218268,2,0,L|328:268,1,63.7500024318696,8|8,0:0|0:0,0:0:0:0:
332,344,218597,1,0,1:0:0:0:
416,152,218927,2,0,L|424:296,1,127.500004863739,2|0,0:0|0:0,0:0:0:0:
236,184,219586,2,0,L|228:40,1,127.500004863739,8|0,0:0|0:0,0:0:0:0:
80,276,220246,6,0,P|132:264|224:272,1,127.500004863739,4|2,0:0|0:0,0:0:0:0:
236,352,220740,1,0,0:0:0:0:
236,352,220905,2,0,P|280:324|280:236,1,127.500004863739,8|2,0:0|0:0,0:0:0:0:
236,184,221399,2,0,P|248:120|308:84,1,127.500004863739
324,168,221894,1,0,1:0:0:0:
451,171,222224,2,0,P|407:163|315:171,1,127.500004863739,8|0,0:0|0:0,0:0:0:0:
104,200,222883,6,0,P|144:248|216:248,1,127.500004863739,4|0,0:0|1:0,0:0:0:0:
184,164,223377,1,0,1:0:0:0:
112,56,223542,2,0,L|108:120,1,63.7500024318696,8|8,0:0|0:0,0:0:0:0:
104,200,223872,1,0,1:0:0:0:
264,188,224202,2,0,L|276:48,1,127.500004863739,2|0,0:0|0:0,0:0:0:0:
448,164,224861,2,0,L|456:304,1,127.500004863739,8|0,0:0|0:0,0:0:0:0:
328,340,225520,6,0,P|264:320|180:328,1,127.500004863739,4|2,0:0|0:0,0:0:0:0:
120,356,226015,1,0,0:0:0:0:
56,292,226180,2,0,L|48:156,1,127.500004863739,8|2,0:0|0:0,0:0:0:0:
180,48,226839,1,0,0:0:0:0:
232,184,227169,2,0,P|196:184|164:176,1,63.7500024318696,2|0,0:0|0:0,0:0:0:0:
112,112,227498,1,8,0:0:0:0:
272,52,227828,1,0,0:0:0:0:
444,140,228158,6,0,L|432:288,1,127.500004863739,4|0,0:0|1:0,0:0:0:0:
404,348,228652,1,0,1:0:0:0:
320,316,228817,2,0,P|284:316|252:308,1,63.7500024318696,8|8,0:0|0:0,0:0:0:0:
188,264,229147,1,0,1:0:0:0:
236,96,229476,2,0,P|252:152|260:232,1,127.500004863739,2|0,0:0|0:0,0:0:0:0:
160,60,230136,2,0,P|204:16|268:12,1,127.500004863739,8|0,0:0|0:0,0:0:0:0:
456,216,230795,6,0,P|400:192|312:188,1,127.500004863739,4|0,0:2|1:0,0:0:0:0:
247,212,231290,1,0,1:0:0:0:
264,116,231454,1,8,0:0:0:0:
312,352,231784,5,0,1:0:0:0:
241,306,231949,2,0,P|179:320|116:316,1,127.500004863739,8|8,0:0|0:0,0:0:0:0:
115,315,232443,1,0,1:0:0:0:
32,156,232773,2,0,L|160:128,1,127.500004863739,8|0,0:0|0:0,0:0:0:0:
424,112,233432,5,2,0:0:0:0:
402,189,233597,1,2,0:0:0:0:
326,167,233762,1,10,0:2:0:0:
348,91,233927,1,0,0:0:0:0:
452,128,234092,5,10,0:0:0:0:
380,224,234257,1,10,0:0:0:0:
284,154,234422,1,2,0:0:0:0:
354,58,234587,1,2,0:0:0:0:
492,172,234751,5,6,0:0:0:0:
341,270,234916,1,2,0:0:0:0:
240,122,235081,1,10,0:0:0:0:
390,22,235246,1,2,0:0:0:0:
372,144,235410,5,8,0:0:0:0:
80,196,235740,5,2,0:0:0:0:
392,276,236399,5,0,0:0:0:0:
392,276,236564,2,0,P|344:300|264:300,1,127.5
200,256,237224,2,0,P|140:244|72:280,1,127.5
280,196,238048,2,0,P|284:152|276:92,2,85,0|0|2,0:0|0:0|0:0,0:0:0:0:
112,72,239037,5,0,0:0:0:0:
112,72,239202,2,0,P|152:76|200:152,1,127.5
264,280,240026,1,2,0:0:0:0:
444,192,240355,1,0,0:0:0:0:
444,192,240520,2,0,P|392:208|360:272,1,127.5
200,348,241345,5,2,0:0:0:0:
132,228,241674,2,0,L|136:132,2,85
140,52,242663,1,2,0:0:0:0:
276,152,242993,1,0,0:0:0:0:
320,84,243158,2,0,P|260:72|200:112,1,127.5
140,336,243982,6,0,P|183:326|232:328,1,85,2|0,0:0|0:0,0:0:0:0:
396,240,244641,2,0,P|353:240|312:230,1,85
92,152,245301,2,0,P|135:142|184:144,2,85,2|0|0,0:0|0:0|0:0,0:0:0:0:
264,104,246290,2,0,P|264:60|272:8,1,85,0|2,0:0|0:0,0:0:0:0:
452,120,246949,5,0,0:0:0:0:
452,120,247114,2,0,P|392:120|340:168,1,127.5
416,196,247773,2,0,P|404:224|404:324,1,127.5
256,360,248597,2,0,L|252:272,1,85
112,112,249257,6,0,P|104:152|104:196,1,85,2|0,0:0|0:0,0:0:0:0:
36,240,249751,2,0,P|64:268|148:268,1,127.5
192,200,250410,2,0,P|244:172|320:188,1,127.5
480,320,251235,2,0,P|440:312|392:316,1,85
432,76,251894,6,0,P|420:100|416:168,1,85,4|0,0:0|0:0,0:0:0:0:
296,276,252388,2,0,P|287:234|263:199,1,85,2|0,0:0|0:0,0:0:0:0:
224,44,252883,2,0,P|176:72|148:140,1,127.5,4|0,0:0|0:0,0:0:0:0:
100,340,253542,2,0,L|88:252,2,85,2|0|2,0:0|0:0|0:0,0:0:0:0:
224,272,254531,5,4,0:0:0:0:
256,192,254614,12,0,255850,0:0:0:0:
392,184,256509,5,0,0:0:0:0:
104,72,256839,1,12,3:0:0:0:
104,72,256921,1,0,0:0:0:0:
104,72,257004,1,0,0:0:0:0:
392,184,257169,6,0,P|412:144|344:48,1,170,4|8,0:2|0:0,0:0:0:0:
312,224,257663,2,0,P|307:265|304:320,1,85,2|0,0:0|0:0,0:0:0:0:
320,132,257993,2,0,P|288:124|224:128,1,85,2|8,0:0|0:0,0:0:0:0:
156,288,258323,1,2,0:0:0:0:
32,220,258487,6,0,P|80:204|208:208,1,170,2|8,0:0|0:0,0:0:0:0:
324,260,258982,1,0,0:0:0:0:
296,348,259147,2,0,P|264:324|236:276,1,85,2|0,0:0|0:0,0:0:0:0:
356,116,259476,1,8,0:0:0:0:
456,224,259641,1,0,0:0:0:0:
324,260,259806,6,0,P|296:184|208:176,1,170,2|8,0:0|0:0,0:0:0:0:
100,352,260301,2,0,P|136:328|164:276,1,85,2|0,0:0|0:0,0:0:0:0:
324,224,260630,2,0,P|288:244|244:248,1,85,2|0,0:0|0:0,0:0:0:0:
112,108,260960,1,2,0:0:0:0:
112,108,261125,6,0,P|84:172|84:276,1,170,2|8,0:0|0:0,0:0:0:0:
236,340,261619,1,0,0:0:0:0:
372,84,261784,2,0,P|328:84|280:88,1,85,2|0,0:0|0:0,0:0:0:0:
400,252,262114,2,0,P|444:244|500:244,1,85,8|0,0:0|0:0,0:0:0:0:
380,168,262443,6,0,B|320:180|320:180|284:208|284:208|216:224,1,170,2|8,0:0|0:0,0:0:0:0:
156,84,262938,2,0,P|192:92|224:136,1,85,2|0,0:0|0:0,0:0:0:0:
72,192,263268,2,0,P|64:152|80:108,1,85,2|8,0:0|0:0,0:0:0:0:
222,222,263597,1,2,0:0:0:0:
222,222,263762,6,0,P|148:244|104:320,1,170,2|8,0:0|0:0,0:0:0:0:
192,384,264257,1,0,0:0:0:0:
296,260,264421,2,0,P|304:212|292:164,1,85,2|0,0:0|0:0,0:0:0:0:
192,308,264751,2,0,P|236:320|264:356,1,85,8|0,0:0|0:0,0:0:0:0:
368,320,265081,6,0,P|424:308|452:204,1,170,2|8,0:0|0:0,0:0:0:0:
400,88,265575,2,0,L|308:68,1,85,2|0,0:0|0:0,0:0:0:0:
264,228,265905,2,0,L|360:220,1,85,2|8,0:0|0:0,0:0:0:0:
454,209,266235,1,2,0:0:0:0:
220,336,266399,6,0,P|180:352|64:304,1,170,2|8,0:0|0:0,0:0:0:0:
48,140,266894,1,0,0:0:0:0:
136,184,267059,2,0,P|148:216|152:280,1,85,2|0,0:0|0:0,0:0:0:0:
48,140,267388,2,0,P|80:108|128:92,1,85,8|0,0:0|2:0,0:0:0:0:
256,192,267718,6,0,P|332:196|388:120,1,170,4|8,0:2|0:0,0:0:0:0:
236,32,268213,2,0,P|220:64|212:116,1,85,2|0,0:0|0:0,0:0:0:0:
332,292,268542,2,0,L|336:204,1,85,2|8,0:0|0:0,0:0:0:0:
436,56,268872,1,2,0:0:0:0:
436,56,269037,6,0,P|368:48|304:120,1,170,2|8,0:0|0:0,0:0:0:0:
420,288,269531,1,0,0:0:0:0:
264,352,269696,2,0,P|224:348|180:336,1,85,2|0,0:0|0:0,0:0:0:0:
220,176,270026,1,8,0:0:0:0:
332,292,270191,1,2,0:0:0:0:
152,244,270355,6,0,P|92:260|48:356,1,170,2|8,0:0|0:0,0:0:0:0:
420,344,270850,2,0,B|432:288|432:288|388:176,1,170,2|0,0:0|0:0,0:0:0:0:
208,64,271345,1,8,0:0:0:0:
140,336,271509,1,2,0:0:0:0:
352,288,271674,2,0,P|312:272|268:276,1,85
44,156,272004,2,0,P|84:140|144:140,1,85,10|0,0:0|2:0,0:0:0:0:
368,44,272334,6,0,L|364:88,1,42.5,6|0,3:0|0:0,0:0:0:0:
390,183,272498,1,8,3:0:0:0:
401,223,272580,1,8,3:0:0:0:
393,265,272662,1,8,3:0:0:0:
369,299,272745,1,8,3:0:0:0:
332,319,272827,1,4,3:0:0:0:
290,321,272910,1,4,3:0:0:0:
251,305,272992,5,4,3:2:0:0:
236,60,273158,1,2,0:0:0:0:
308,232,273323,1,8,0:0:0:0:
64,192,273487,1,0,0:0:0:0:
336,128,273652,1,10,0:0:0:0:
264,356,273817,1,0,0:0:0:0:
172,192,273981,1,10,0:0:0:0:
348,28,274147,2,0,P|412:52|424:156,1,170,2|0,0:0|0:0,0:0:0:0:
336,320,274641,5,2,0:0:0:0:
132,324,274806,1,0,0:0:0:0:
220,120,274971,5,10,0:0:0:0:
240,360,275136,1,0,0:0:0:0:
120,216,275301,5,10,0:0:0:0:
324,144,275465,1,2,0:0:0:0:
416,248,275630,6,0,P|328:228|248:252,1,170,4|10,0:2|0:0,0:0:0:0:
108,340,276125,1,0,0:0:0:0:
72,164,276290,1,0,0:0:0:0:
72,164,276454,1,0,0:0:0:0:
180,284,276619,2,0,P|192:328|188:388,1,85,10|0,0:0|0:0,0:0:0:0:
12,264,276949,6,0,P|56:256|104:240,1,85,2|0,0:0|0:0,0:0:0:0:
256,68,277279,2,0,P|212:48|164:40,1,85,2|0,0:0|0:0,0:0:0:0:
268,356,277608,2,0,P|304:340|360:340,1,85,2|0,0:0|0:0,0:0:0:0:
472,260,277938,5,12,3:0:0:0:
472,260,278020,1,0,3:0:0:0:
472,260,278103,1,0,3:0:0:0:
404,72,278268,6,0,L|396:220,1,127.500004863739,4|2,0:0|0:0,0:0:0:0:
428,336,278762,1,0,0:0:0:0:
328,284,278927,2,0,P|268:276|192:288,1,127.500004863739,8|0,0:0|0:0,0:0:0:0:
128,196,279421,2,0,P|184:188|208:120,1,127.500004863739,2|0,0:0|0:0,0:0:0:0:
228,52,279916,1,0,1:0:0:0:
228,52,280246,2,0,P|295:34|376:40,1,127.500004863739,8|0,0:0|0:0,0:0:0:0:
220,240,280905,6,0,P|164:228|76:236,1,127.500004863739,4|2,0:0|0:0,0:0:0:0:
32,284,281399,1,0,0:0:0:0:
22,207,281564,2,0,L|15:143,1,63.7500024318696,8|8,0:0|0:0,0:0:0:0:
15,143,281894,1,0,0:0:0:0:
140,24,282059,2,0,L|152:156,1,127.500004863739,2|0,0:0|0:0,0:0:0:0:
280,68,282553,2,0,P|336:48|404:60,1,127.500004863739,0|8,1:0|0:0,0:0:0:0:
484,200,283212,1,0,0:0:0:0:
348,132,283542,6,0,P|316:184|324:264,1,127.500004863739,4|2,0:0|0:0,0:0:0:0:
272,348,284036,1,0,0:0:0:0:
196,253,284202,2,0,P|236:277|272:361,1,127.500004863739,8|0,0:0|0:0,0:0:0:0:
232,156,284696,2,0,P|168:168|100:152,1,127.500004863739,2|0,0:0|0:0,0:0:0:0:
36,108,285190,1,0,1:0:0:0:
36,108,285520,2,0,P|29:172|28:248,1,127.500004863739,8|0,0:0|0:0,0:0:0:0:
136,344,286180,6,0,P|180:312|252:316,1,127.500004863739,4|0,0:0|1:0,0:0:0:0:
380,272,286674,1,0,1:0:0:0:
380,272,286839,2,0,P|349:260|312:260,1,63.7500024318696,8|8,0:0|0:0,0:0:0:0:
336,344,287169,1,0,0:0:0:0:
252,104,287498,2,0,P|244:166|244:231,1,127.500004863739,2|0,0:0|0:0,0:0:0:0:
468,328,288157,2,0,P|467:266|460:184,1,127.500004863739,2|0,0:0|0:0,0:0:0:0:
340,337,288817,6,0,P|272:345|208:293,1,127.500004863739,4|2,0:0|0:0,0:0:0:0:
160,256,289311,1,0,0:0:0:0:
160,256,289476,2,0,P|171:203|152:124,1,127.500004863739,8|0,0:0|0:0,0:0:0:0:
72,112,289971,2,0,P|96:64|184:56,1,127.500004863739,2|2,0:0|0:0,0:0:0:0:
232,88,290465,1,0,1:0:0:0:
338,139,290795,2,0,P|274:131|224:65,1,127.500004863739,8|0,0:0|0:0,0:0:0:0:
368,228,291454,6,0,P|424:208|500:212,1,127.500004863739,4|0,0:0|1:0,0:0:0:0:
384,316,291948,1,0,1:0:0:0:
240,304,292114,2,0,L|304:308,1,63.7500024318696,8|8,0:0|0:0,0:0:0:0:
384,316,292443,1,0,0:0:0:0:
208,216,292773,2,0,P|202:150|208:72,1,127.500004863739,2|0,0:0|0:0,0:0:0:0:
104,336,293432,2,0,P|109:270|104:192,1,127.500004863739,2|0,0:0|0:0,0:0:0:0:
80,92,294092,6,0,P|144:100|216:84,1,127.500004863739,4|0,0:0|1:0,0:0:0:0:
300,44,294586,1,0,0:0:0:0:
360,176,294751,2,0,P|300:180|224:168,1,127.500004863739,8|0,0:0|0:0,0:0:0:0:
233,170,295410,1,2,0:0:0:0:
196,308,295740,2,0,P|196:272|204:240,1,63.7500024318696,0|0,1:0|0:0,0:0:0:0:
233,170,296069,1,8,0:0:0:0:
288,352,296399,1,2,0:0:0:0:
104,284,296729,6,0,L|92:136,1,127.500004863739,4|2,0:0|0:0,0:0:0:0:
84,68,297223,1,0,0:0:0:0:
168,40,297388,2,0,P|168:76|160:108,1,63.7500024318696,8|0,0:0|0:0,0:0:0:0:
93,156,297718,1,0,0:0:0:0:
300,200,298048,2,0,P|236:204|164:176,1,127.500004863739,2|0,0:0|0:0,0:0:0:0:
336,300,298707,2,0,P|304:324|212:336,1,127.500004863739,2|0,0:0|0:0,0:0:0:0:
400,216,299366,6,0,L|384:80,1,127.500004863739,4|0,0:0|1:0,0:0:0:0:
385,89,299861,1,0,1:0:0:0:
240,36,300026,1,8,0:0:0:0:
240,36,300355,1,0,1:0:0:0:
264,248,300520,2,0,L|248:112,1,127.500004863739,8|0,0:0|1:0,0:0:0:0:
249,121,301014,1,0,1:0:0:0:
120,328,301345,2,0,L|104:192,1,127.500004863739,8|0,0:0|0:0,0:0:0:0:
444,320,302004,6,0,P|384:323|300:292,1,127.500004863739,4|0,0:0|1:0,0:0:0:0:
256,232,302499,1,0,1:0:0:0:
408,184,302663,1,8,0:0:0:0:
408,184,302828,1,8,0:0:0:0:
104,328,303158,6,0,P|163:331|248:300,1,127.500004863739,8|0,0:0|1:0,0:0:0:0:
256,232,303652,1,0,1:0:0:0:
144,64,303982,2,0,P|120:116|116:208,1,127.500004863739,8|0,0:0|0:0,0:0:0:0:
276,144,304641,6,0,P|340:160|412:156,1,127.500004863739,4|0,0:0|1:0,0:0:0:0:
448,92,305136,1,0,1:0:0:0:
328,28,305300,1,8,0:0:0:0:
328,28,305465,1,8,0:0:0:0:
256,264,305795,6,0,P|192:272|124:240,1,127.500004863739,8|8,0:0|0:0,0:0:0:0:
76,184,306289,1,0,1:0:0:0:
328,204,306619,2,0,P|343:269|320:336,1,127.500004863739,8|0,0:0|0:0,0:0:0:0:
96,164,307279,5,2,0:0:0:0:
196,52,307443,1,2,0:0:0:0:
180,200,307608,5,10,0:0:0:0:
104,72,307773,1,0,0:0:0:0:
240,140,307938,5,10,0:0:0:0:
96,164,308103,1,10,0:0:0:0:
232,44,308267,5,2,0:0:0:0:
142,226,308432,1,2,0:0:0:0:
103,25,308597,5,6,0:0:0:0:
247,177,308762,1,2,0:0:0:0:
49,140,308927,5,10,0:0:0:0:
232,44,309092,1,2,0:0:0:0:
440,248,309257,6,0,L|436:336,1,85,8|2,0:0|0:0,0:0:0:0:
