osu file format v14

[General]
AudioFilename: audio.mp3
AudioLeadIn: 0
PreviewTime: 103032
Countdown: 1
SampleSet: Soft
StackLeniency: 0.7
Mode: 0
LetterboxInBreaks: 0
WidescreenStoryboard: 1

[Editor]
Bookmarks: 50443
DistanceSpacing: 1.1
BeatDivisor: 4
GridSize: 32
TimelineZoom: 1

[Metadata]
Title:Hello! World
TitleUnicode:Hello! World
Artist:yuki. feat. setsunan
ArtistUnicode:yuki. feat. setsunan
Creator:Regou
Version:Hard!
Source:osu!
Tags:yf_bmp pishifat Chaoslitz Pho mappers' guild featured artist
BeatmapID:1649418
BeatmapSetID:785650

[Difficulty]
HPDrainRate:5
CircleSize:4
OverallDifficulty:7
ApproachRate:8
SliderMultiplier:1.6
SliderTickRate:1

[Events]
//Background and Video events
0,0,"BG.png",0,0
//Break Periods
2,58055,66282
2,69349,77929
//Storyboard Layer 0 (Background)
//Storyboard Layer 1 (Fail)
//Storyboard Layer 2 (Pass)
//Storyboard Layer 3 (Foreground)
//Storyboard Sound Samples

[TimingPoints]
1385,352.941176470588,4,2,2,50,1,0
12679,-100,4,2,2,70,0,0
13384,-100,4,2,3,70,0,0
13737,-100,4,2,2,70,0,0
14796,-100,4,2,3,70,0,0
15149,-100,4,2,2,70,0,0
16208,-100,4,2,3,70,0,0
16914,-100,4,2,2,70,0,0
17620,-100,4,2,3,70,0,0
18326,-100,4,2,2,70,0,0
35267,-92.5925925925926,4,2,2,70,0,1
37561,-92.5925925925926,4,2,2,60,0,1
38090,-92.5925925925926,4,1,3,70,0,1
38355,-92.5925925925926,4,2,2,70,0,1
40914,-92.5925925925926,4,2,3,70,0,1
41179,-92.5925925925926,4,2,2,70,0,1
43737,-92.5925925925926,4,1,3,70,0,1
44002,-92.5925925925926,4,2,2,70,0,1
45855,-92.5925925925926,4,2,2,70,0,0
46208,-92.5925925925926,4,2,2,50,0,0
46384,-92.5925925925926,4,2,2,60,0,1
46561,-92.5925925925926,4,2,2,70,0,1
47443,-92.5925925925926,4,2,2,50,0,1
47973,-92.5925925925926,4,2,2,70,0,1
48149,-92.5925925925926,4,2,2,50,0,1
48237,-92.5925925925926,4,2,2,70,0,1
49208,-92.5925925925926,4,2,3,70,0,1
49384,-92.5925925925926,4,2,2,70,0,1
50267,-92.5925925925926,4,2,2,50,0,1
50443,-92.5925925925926,4,2,2,70,0,1
50620,-92.5925925925926,4,2,2,50,0,1
50796,-92.5925925925926,4,2,2,70,0,1
50973,-92.5925925925926,4,2,2,50,0,1
51061,-92.5925925925926,4,2,2,70,0,1
52032,-92.5925925925926,4,2,3,70,0,1
53620,-92.5925925925926,4,2,3,75,0,1
55032,-92.5925925925926,4,2,3,80,0,1
55384,-92.5925925925926,4,2,2,80,0,1
55737,-92.5925925925926,4,2,2,70,0,1
56443,-92.5925925925926,4,2,2,70,0,0
57855,-111.111111111111,4,2,2,70,0,0
67561,-100,4,2,2,70,0,0
79032,-111.111111111111,4,2,2,70,0,0
80443,-100,4,2,2,70,0,0
80796,-100,4,2,0,60,0,0
91737,-100,4,1,0,70,0,0
92002,-100,4,2,2,70,0,0
103032,-92.5925925925926,4,2,2,70,0,1
105326,-92.5925925925926,4,2,2,60,0,1
105855,-92.5925925925926,4,2,3,70,0,1
106120,-92.5925925925926,4,2,2,70,0,1
108679,-92.5925925925926,4,2,3,70,0,1
108943,-92.5925925925926,4,2,2,70,0,1
110973,-92.5925925925926,4,2,2,60,0,1
111502,-92.5925925925926,4,2,3,70,0,1
111767,-92.5925925925926,4,2,2,70,0,1
113620,-92.5925925925926,4,2,2,70,0,0
113973,-92.5925925925926,4,2,2,50,0,0
114149,-92.5925925925926,4,2,2,60,0,0
114326,-92.5925925925926,4,2,2,70,0,1
115208,-92.5925925925926,4,2,2,50,0,1
115384,-92.5925925925926,4,2,2,70,0,1
116973,-92.5925925925926,4,2,3,70,0,1
117149,-92.5925925925926,4,2,2,70,0,1
118032,-92.5925925925926,4,2,2,50,0,1
118208,-92.5925925925926,4,2,2,70,0,1
118384,-92.5925925925926,4,2,2,50,0,1
118561,-92.5925925925926,4,2,2,70,0,1
119796,-92.5925925925926,4,2,3,70,0,1
119973,-92.5925925925926,4,2,2,70,0,1
121384,-92.5925925925926,4,2,2,75,0,1
122796,-92.5925925925926,4,2,2,80,0,1
123502,-92.5925925925926,4,2,2,70,0,1
124208,-92.5925925925926,4,2,2,70,0,0
124914,-92.5925925925926,4,2,2,40,0,0
125267,-92.5925925925926,4,2,2,50,0,0
125443,-92.5925925925926,4,2,2,60,0,0
125620,-92.5925925925926,4,2,2,70,0,1
131267,-92.5925925925926,4,2,3,70,0,1
131355,-92.5925925925926,4,2,2,70,0,1
136208,-92.5925925925926,4,2,2,70,0,0
136914,-92.5925925925926,4,2,2,70,0,1
138855,-92.5925925925926,4,2,2,60,0,1
139208,-92.5925925925926,4,2,2,70,0,1
146090,-92.5925925925926,4,2,2,60,0,1
148208,-92.5925925925926,4,2,2,70,0,0

[Colours]
Combo1 : 255,66,66
Combo2 : 254,118,99
Combo3 : 48,201,252
Combo4 : 150,58,250

[HitObjects]
0,384,1385,6,0,P|49:313|136:307,1,160,0|0,1:0|1:0,0:0:0:0:
165,374,1914,2,0,L|147:190,1,160,0|2,0:0|0:0,0:0:0:0:
100,144,2443,1,0,1:0:0:0:
100,144,2620,6,0,P|21:160|-22:89,1,160,0|2,0:0|0:0,0:0:0:0:
44,34,3149,1,0,1:0:0:0:
44,34,3326,2,0,P|123:18|166:89,1,160,2|2,0:0|0:0,0:0:0:0:
221,147,3855,2,0,P|263:146|293:117,1,80,0|0,1:0|0:0,0:0:0:0:
313,39,4208,5,0,1:0:0:0:
313,39,4384,2,0,L|405:50,2,80,2|0|0,0:0|1:0|0:0,0:0:0:0:
480,133,5090,2,0,L|388:144,2,80,2|0|0,0:0|1:0|0:0,0:0:0:0:
293,237,5796,2,0,L|385:248,2,80,2|0|0,0:0|1:0|0:0,0:0:0:0:
460,331,6502,2,0,L|368:342,1,80,2|0,0:0|1:0,0:0:0:0:
290,373,6855,5,0,0:0:0:0:
290,373,6943,1,0,0:0:0:0:
290,373,7032,1,0,1:0:0:0:
210,308,7208,2,0,P|164:328|137:364,1,80,2|0,0:0|1:0,0:0:0:0:
61,373,7561,2,0,P|10:304|51:218,1,160,0|2,0:0|0:0,0:0:0:0:
36,156,8090,1,0,1:0:0:0:
36,156,8267,6,0,L|203:184,1,160,0|2,0:0|0:0,0:0:0:0:
271,234,8796,1,0,1:0:0:0:
271,234,8973,2,0,P|322:165|281:79,1,160,2|2,0:0|0:0,0:0:0:0:
224,19,9502,2,0,L|207:133,1,80,0|2,1:0|0:0,0:0:0:0:
142,151,9855,5,0,1:0:0:0:
142,151,10032,2,0,L|48:136,2,80,2|0|0,0:0|1:0|0:0,0:0:0:0:
223,247,10737,2,0,L|317:232,2,80,2|0|0,0:0|1:0|0:0,0:0:0:0:
103,325,11443,2,0,L|9:310,2,80,2|0|2,0:0|1:0|0:0,0:0:0:0:
187,360,11973,6,0,B|215:407|315:385|332:326|314:334|341:280|383:264|438:293,1,280,0|0,1:0|1:0,0:0:0:0:
441,294,12679,6,0,L|454:194,1,80,4|2,1:3|0:0,0:0:0:0:
365,204,13032,2,0,L|353:124,1,80,8|2,1:0|0:0,0:0:0:0:
427,80,13384,2,0,P|347:89|243:91,1,160,2|8,1:3|1:0,0:0:0:0:
63,34,14090,6,0,L|50:134,1,80,0|2,1:2|0:0,0:0:0:0:
139,124,14443,2,0,L|151:204,1,80,8|2,1:0|0:0,0:0:0:0:
77,248,14796,2,0,P|157:239|261:237,1,160,2|8,1:3|1:0,0:0:0:0:
432,356,15502,6,0,P|471:359|511:364,1,80,0|2,1:2|0:0,0:0:0:0:
450,265,15855,2,0,P|410:268|370:273,1,80,8|2,1:0|0:0,0:0:0:0:
336,362,16208,2,0,L|321:164,1,160,2|8,1:3|1:0,0:0:0:0:
333,188,16737,1,2,0:0:0:0:
223,184,16914,6,0,P|183:187|143:192,1,80,0|2,1:2|0:0,0:0:0:0:
205,93,17267,2,0,P|244:96|284:101,1,80,8|2,1:0|0:0,0:0:0:0:
319,190,17620,2,0,L|334:-8,1,160,2|8,1:3|1:0,0:0:0:0:
343,21,18149,1,2,0:0:0:0:
474,103,18326,5,0,1:0:0:0:
481,116,18502,1,2,1:2:0:0:
438,198,18679,2,0,P|439:243|443:296,1,80,8|2,1:0|1:2,0:0:0:0:
352,336,19032,5,0,1:0:0:0:
359,323,19208,1,0,1:0:0:0:
316,241,19385,2,0,P|317:196|321:143,1,80,8|0,1:0|1:0,0:0:0:0:
229,106,19737,5,0,1:0:0:0:
236,119,19913,1,2,1:2:0:0:
193,201,20090,2,0,P|194:246|198:299,1,80,8|2,1:0|1:2,0:0:0:0:
107,339,20443,5,0,1:0:0:0:
114,326,20619,1,0,1:0:0:0:
71,244,20796,2,0,P|72:199|76:146,1,80,8|2,1:0|1:2,0:0:0:0:
45,29,21149,6,0,L|-2:33,16,40,0|0|2|0|8|0|2|0|0|0|2|0|8|0|0|0|0,1:0|0:0|1:2|0:0|1:0|0:0|1:2|0:0|1:0|2:0|1:2|2:0|1:0|1:0|1:0|1:0|1:0,0:0:0:0:
316,31,23973,6,0,B|410:39|442:135|371:218|363:196|307:214|286:286|316:349|374:397|439:400|485:360|492:289|428:256,1,560,4|4,1:0|1:2,0:0:0:0:
441,264,25561,1,0,1:0:0:0:
441,264,25914,6,4,B|354:251|397:333|279:314,1,160,4|0,1:2|1:0,0:0:0:0:
239,250,26443,2,0,P|197:260|161:290,1,80,4|0,1:2|0:0,0:0:0:0:
80,259,26796,6,4,B|9:320|53:444|188:454|277:333|172:228|92:207|95:242|35:255|0:191|8:108|80:59,1,560,4|4,1:2|1:2,0:0:0:0:
59,76,28384,1,0,1:0:0:0:
59,76,28737,6,0,L|227:96,1,160,4|0,1:2|1:0,0:0:0:0:
244,173,29267,1,4,1:2:0:0:
461,15,29620,5,4,1:2:0:0:
450,22,29796,1,2,1:2:0:0:
489,99,29973,2,0,P|491:154|495:198,1,80,0|0,1:0|1:0,0:0:0:0:
393,162,30326,5,0,1:2:0:0:
404,169,30502,1,0,1:0:0:0:
365,246,30679,2,0,P|363:301|359:345,1,80,0|2,1:2|1:2,0:0:0:0:
276,378,31032,5,4,1:2:0:0:
287,371,31208,1,0,1:0:0:0:
248,294,31385,2,0,P|246:239|242:195,1,80,0|0,1:2|1:0,0:0:0:0:
153,214,31738,5,0,1:2:0:0:
142,207,31914,1,0,1:0:0:0:
181,130,32091,2,0,P|183:75|187:31,1,80,0|2,1:0|1:2,0:0:0:0:
45,29,32443,6,0,L|-2:33,16,40,4|0|0|0|0|0|2|0|0|0|0|0|0|0|2|0|0,1:1|0:0|1:0|0:0|1:0|0:0|1:2|0:0|1:0|0:0|1:0|0:0|1:0|1:0|1:2|1:0|0:0,0:0:0:0:
74,312,35267,6,0,P|68:234|54:129,1,172.80000421875,4|8,1:3|1:0,0:0:0:0:
59,18,35796,1,0,0:0:0:0:
52,26,35884,1,2,3:2:0:0:
43,32,35973,2,0,P|103:35|162:35,1,86.4000021093751,0|2,1:0|3:1,0:0:0:0:
200,115,36326,2,0,L|194:220,1,86.4000021093751,8|2,1:0|3:1,0:0:0:0:
172,293,36679,5,0,1:0:0:0:
266,361,36855,1,2,3:3:0:0:
266,361,36943,2,0,L|259:310,1,43.2000010546875,0|8,0:0|1:0,0:0:0:0:
294,235,37208,1,0,0:0:0:0:
294,235,37296,1,2,3:2:0:0:
294,235,37384,2,0,P|331:208|375:208,1,86.4000021093751,0|2,1:0|3:3,0:0:0:0:
435,139,37737,2,0,P|480:146|511:177,1,86.4000021093751,8|2,1:0|3:3,0:0:0:0:
359,294,38090,6,0,L|336:103,1,172.80000421875,8|8,1:3|1:0,0:0:0:0:
378,40,38532,1,0,0:0:0:0:
381,31,38708,2,0,P|309:33|251:85,1,129.600003164063,2|2,3:2|3:1,0:0:0:0:
255,154,39149,2,0,L|146:143,1,86.4000021093751,8|2,1:0|3:1,0:0:0:0:
129,60,39502,5,0,1:0:0:0:
43,45,39679,1,2,3:3:0:0:
0,126,39855,1,8,1:0:0:0:
93,145,40032,1,0,0:0:0:0:
93,145,40120,1,2,3:2:0:0:
93,145,40208,2,0,P|101:195|106:258,1,86.4000021093751,0|2,1:0|3:3,0:0:0:0:
181,367,40561,2,0,P|128:369|86:383,1,86.4000021093751,8|2,1:0|3:3,0:0:0:0:
190,266,40914,6,0,L|365:291,1,172.80000421875,4|8,1:1|1:0,0:0:0:0:
449,354,41443,1,0,0:0:0:0:
449,354,41532,2,0,L|458:212,1,129.600003164063,2|2,3:2|3:1,0:0:0:0:
387,161,41973,2,0,P|344:189|291:191,1,86.4000021093751,8|2,1:0|3:1,0:0:0:0:
312,99,42326,6,0,L|299:6,2,86.4000021093751,0|2|8,1:0|0:3|1:0,0:0:0:0:
228,150,42855,1,0,0:0:0:0:
228,150,42943,1,2,3:2:0:0:
228,150,43032,2,0,P|184:177|168:213,1,86.4000021093751,0|2,1:0|3:3,0:0:0:0:
86,179,43384,2,12,P|72:231|87:267,1,86.4000021093751,8|2,1:0|3:3,0:0:0:0:
29,348,43737,6,0,P|72:306|189:317,1,172.80000421875,8|8,1:3|1:0,0:0:0:0:
278,371,44267,1,0,0:0:0:0:
278,371,44355,1,2,3:2:0:0:
278,371,44443,2,0,L|267:279,1,86.4000021093751,0|2,1:0|3:1,0:0:0:0:
317,210,44796,2,0,P|292:164|292:120,1,86.4000021093751,8|2,1:0|3:1,0:0:0:0:
257,48,45149,5,0,1:0:0:0:
330,5,45326,1,2,3:3:0:0:
418,23,45502,1,8,1:0:0:0:
474,113,45679,1,0,0:0:0:0:
465,110,45767,1,2,0:0:0:0:
456,107,45855,2,0,B|411:147|406:207|454:247|447:233|492:251|495:308|466:344,1,259.200006328125,0|2,1:0|0:3,0:0:0:0:
400,296,46561,5,4,1:3:0:0:
108,302,46914,1,8,1:0:0:0:
164,384,47090,1,2,0:0:0:0:
164,384,47179,1,2,3:2:0:0:
164,384,47267,2,0,P|196:348|204:299,1,86.4000021093751,0|2,1:0|3:1,0:0:0:0:
307,311,47620,2,0,P|318:352|348:384,1,86.4000021093751,8|2,1:0|3:1,0:0:0:0:
255,237,47973,6,0,L|256:142,2,86.4000021093751,0|2|8,1:0|3:3|1:0,0:0:0:0:
166,206,48502,1,2,3:2:0:0:
166,206,48590,1,0,0:0:0:0:
166,206,48679,2,0,B|156:164|156:164|179:102,1,86.4000021093751,0|2,1:0|3:2,0:0:0:0:
340,123,49032,2,0,B|356:164|356:164|346:206,1,86.4000021093751,8|2,1:0|0:1,0:0:0:0:
255,237,49384,5,4,1:1:0:0:
256,28,49737,1,8,1:0:0:0:
181,92,49914,1,2,0:0:0:0:
181,92,50002,1,0,3:0:0:0:
181,92,50090,2,0,P|139:118|90:119,1,86.4000021093751,0|2,1:0|3:1,0:0:0:0:
331,92,50443,2,0,P|373:118|422:119,1,86.4000021093751,8|2,1:0|0:1,0:0:0:0:
255,150,50796,6,0,L|255:237,2,86.4000021093751,0|2|8,1:0|0:3|1:0,0:0:0:0:
135,210,51326,1,2,3:2:0:0:
135,210,51414,1,0,0:0:0:0:
135,210,51502,2,0,B|159:231|159:231|169:300,1,86.4000021093751,0|2,1:0|3:3,0:0:0:0:
345,284,51855,2,0,B|353:231|353:231|377:210,1,86.4000021093751,8|2,1:0|0:1,0:0:0:0:
212,375,52208,5,4,1:1:0:0:
218,364,52384,1,0,1:2:0:0:
166,284,52561,2,0,L|76:302,1,86.4000021093751,8|2,1:0|1:2,0:0:0:0:
294,297,52914,5,0,1:0:0:0:
288,286,53090,1,2,1:2:0:0:
340,206,53267,2,0,P|380:213|430:224,1,86.4000021093751,8|2,1:0|1:2,0:0:0:0:
216,192,53620,5,4,1:0:0:0:
222,181,53796,1,0,1:2:0:0:
170,101,53973,2,0,P|127:111|80:119,1,86.4000021093751,8|2,1:0|1:2,0:0:0:0:
298,114,54326,5,0,1:0:0:0:
292,103,54502,1,2,1:2:0:0:
344,23,54679,2,0,P|386:34|434:41,1,86.4000021093751,8|2,1:0|1:2,0:0:0:0:
228,3,55032,6,0,L|234:56,16,43.2000010546875,4|0|0|0|8|0|0|0|4|0|0|0|8|0|2|0|4,1:3|0:0|0:0|0:0|1:0|1:0|1:0|1:0|1:1|0:0|0:0|0:0|1:0|1:0|0:0|1:0|1:0,0:0:0:0:
288,378,57855,5,4,1:3:0:0:
52,38,67032,6,0,P|66:108|103:170,1,143.999995605469,0|0,0:0|0:0,0:0:0:0:
20,289,67561,6,0,B|34:209|123:147|257:145|341:205|334:306|241:366|161:360|112:288,1,560,2|0,0:0|0:0,0:0:0:0:
114,291,68973,1,0,0:0:0:0:
114,291,69149,1,4,0:1:0:0:
426,317,78679,5,0,0:0:0:0:
426,317,79032,2,0,B|442:353|389:399|334:367|312:321|330:275|371:251|371:251|368:226|368:226|416:230|451:193|457:143|415:95,1,431.999986816407,0|0,1:0|0:0,0:0:0:0:
315,16,80443,6,0,L|152:36,1,160,0|2,0:0|3:0,0:0:0:0:
75,52,80973,1,0,3:0:0:0:
75,52,81061,2,0,P|74:111|125:149,1,120,0|0,3:0|0:0,0:0:0:0:
145,233,81502,2,0,P|183:215|208:137,1,120,0|0,0:0|0:0,0:0:0:0:
209,145,81855,6,0,L|299:166,1,80,2|0,0:0|0:0,0:0:0:0:
368,198,82208,2,0,P|369:257|318:295,1,120,0|0,3:0|0:0,0:0:0:0:
255,314,82561,2,0,L|246:260,2,40,0|0|2,0:0|3:0|3:0,0:0:0:0:
177,375,82914,6,0,L|165:326,1,40,0|0,3:0|0:0,0:0:0:0:
160,368,83090,2,0,L|148:319,1,40,0|0,3:0|3:0,0:0:0:0:
84,384,83267,5,0,0:0:0:0:
3,169,83620,2,0,P|60:176|108:228,1,120,2|0,3:0|0:0,0:0:0:0:
103,217,83973,1,0,0:0:0:0:
195,252,84149,1,0,0:0:0:0:
195,252,84326,2,0,L|202:164,1,80,2|0,3:0|0:0,0:0:0:0:
121,118,84679,6,0,P|128:40|209:2,1,160,2|2,0:0|3:0,0:0:0:0:
273,53,85208,1,0,0:0:0:0:
273,53,85296,1,0,0:0:0:0:
273,53,85384,2,0,L|357:68,1,80,0|2,0:0|3:0,0:0:0:0:
343,154,85737,2,0,L|351:197,1,40,2|0,3:0|0:0,0:0:0:0:
356,168,85914,2,0,L|364:211,1,40,2|0,3:0|0:0,0:0:0:0:
268,220,86090,5,0,0:0:0:0:
499,108,86443,1,2,3:0:0:0:
512,202,86620,1,0,3:0:0:0:
512,202,86708,2,0,P|513:261|462:299,1,120,0|0,3:0|3:0,0:0:0:0:
442,383,87149,2,0,P|404:365|379:287,1,120,2|2,3:0|3:0,0:0:0:0:
377,295,87502,6,0,L|278:310,1,80,2|0,3:2|3:2,0:0:0:0:
239,374,87855,1,0,3:0:0:0:
168,320,88032,1,0,3:0:0:0:
168,320,88120,2,0,P|102:317|49:360,1,120,0|2,3:0|3:0,0:0:0:0:
13,273,88561,2,0,L|-3:216,1,40,2|0,0:0|0:0,0:0:0:0:
23,257,88737,2,0,L|7:200,1,40,0|0,3:0|3:0,0:0:0:0:
48,149,88914,5,0,0:0:0:0:
207,240,89267,2,0,P|242:198|233:129,1,120,2|0,3:0|3:0,0:0:0:0:
237,135,89620,1,0,3:0:0:0:
154,112,89796,1,0,3:0:0:0:
154,112,89973,2,0,L|160:24,1,80,2|0,3:0|3:0,0:0:0:0:
248,49,90326,5,2,3:2:0:0:
332,36,90502,1,2,3:2:0:0:
415,25,90679,1,0,3:0:0:0:
385,115,90855,1,0,0:0:0:0:
385,115,90943,2,0,P|425:163|499:157,1,120,0|2,3:0|3:0,0:0:0:0:
477,254,91384,2,0,L|493:311,1,40,0|0,1:0|0:0,0:0:0:0:
467,270,91560,2,0,L|483:327,1,40,0|0,1:0|0:0,0:0:0:0:
421,367,91737,6,0,L|232:386,1,160,4|8,1:0|0:3,0:0:0:0:
226,315,92267,1,0,0:0:0:0:
235,306,92355,1,0,0:0:0:0:
245,299,92443,2,0,L|149:311,1,80,2|0,0:0|0:0,0:0:0:0:
233,221,92796,2,0,L|329:233,1,80,8|0,0:3|0:0,0:0:0:0:
159,164,93149,5,0,0:0:0:0:
241,138,93326,1,2,0:0:0:0:
323,113,93502,1,8,0:3:0:0:
285,36,93679,1,0,0:0:0:0:
294,27,93767,1,0,0:0:0:0:
304,20,93855,2,0,L|208:32,1,80,2|2,0:0|0:0,0:0:0:0:
389,182,94208,2,0,L|485:194,1,80,8|2,0:3|0:0,0:0:0:0:
504,109,94561,5,4,1:0:0:0:
221,11,94914,1,8,0:3:0:0:
286,69,95091,1,0,0:0:0:0:
277,78,95179,1,0,0:0:0:0:
267,85,95267,2,0,L|363:73,1,80,2|2,0:0|0:0,0:0:0:0:
279,163,95620,2,0,L|183:151,1,80,8|2,0:3|0:0,0:0:0:0:
358,219,95973,5,2,0:0:0:0:
271,246,96150,1,0,0:0:0:0:
185,268,96326,1,8,0:3:0:0:
227,348,96503,1,0,0:0:0:0:
218,357,96591,1,0,0:0:0:0:
208,364,96679,2,0,L|304:352,1,80,2|0,0:0|0:0,0:0:0:0:
128,195,97032,2,8,L|116:109,1,80,8|8,0:3|0:3,0:0:0:0:
1,289,97384,5,4,1:0:0:0:
1,289,97561,1,0,0:3:0:0:
85,360,97737,2,0,P|87:313|94:271,1,80,8|0,0:0|0:3,0:0:0:0:
188,270,98090,5,0,0:3:0:0:
188,270,98267,1,0,0:3:0:0:
272,199,98443,2,0,P|274:246|281:288,1,80,8|0,0:0|0:0,0:0:0:0:
188,128,98796,5,4,1:0:0:0:
188,128,98973,1,0,0:0:0:0:
272,199,99149,2,0,P|274:152|281:110,1,80,8|0,0:0|0:0,0:0:0:0:
375,109,99502,5,2,0:0:0:0:
375,109,99679,1,0,0:0:0:0:
459,38,99855,2,0,P|461:85|468:127,1,80,8|0,0:0|0:0,0:0:0:0:
487,273,100208,6,0,L|435:268,16,40,4|0|0|0|0|0|2|0|0|0|0|0|0|0|2|0|4,1:1|0:0|1:0|0:0|1:0|0:0|1:2|0:0|1:0|0:0|1:0|0:0|1:0|1:0|1:2|1:0|1:0,0:0:0:0:
74,72,103032,6,0,P|68:150|54:255,1,172.80000421875,4|8,1:3|1:0,0:0:0:0:
59,366,103561,1,0,0:0:0:0:
52,358,103649,1,2,3:2:0:0:
43,352,103738,2,0,P|103:349|162:349,1,86.4000021093751,0|2,1:0|3:1,0:0:0:0:
200,269,104091,2,0,L|194:164,1,86.4000021093751,8|2,1:0|3:1,0:0:0:0:
172,91,104444,5,0,1:0:0:0:
266,23,104620,1,2,3:3:0:0:
266,23,104708,2,0,L|259:74,1,43.2000010546875,0|8,0:0|1:0,0:0:0:0:
294,149,104973,1,0,0:0:0:0:
294,149,105061,1,2,3:2:0:0:
294,149,105149,2,0,P|331:176|375:176,1,86.4000021093751,0|2,1:0|3:3,0:0:0:0:
435,245,105502,2,0,P|480:238|511:207,1,86.4000021093751,8|2,1:0|3:3,0:0:0:0:
359,90,105855,6,0,L|336:281,1,172.80000421875,8|8,1:3|1:0,0:0:0:0:
378,344,106384,1,0,0:0:0:0:
381,353,106473,2,0,P|309:351|251:299,1,129.600003164063,2|2,3:2|3:1,0:0:0:0:
255,230,106914,2,0,L|146:241,1,86.4000021093751,8|2,1:0|3:1,0:0:0:0:
129,324,107267,5,0,1:0:0:0:
43,339,107444,1,2,3:3:0:0:
0,258,107620,1,8,1:0:0:0:
90,237,107797,1,0,0:0:0:0:
90,237,107885,1,2,3:2:0:0:
90,237,107973,2,0,P|98:187|103:124,1,86.4000021093751,0|2,1:0|3:3,0:0:0:0:
181,17,108326,2,0,P|128:15|86:1,1,86.4000021093751,8|2,1:0|3:3,0:0:0:0:
190,118,108679,6,0,L|365:93,1,172.80000421875,4|8,1:0|1:0,0:0:0:0:
449,30,109208,1,0,0:0:0:0:
449,30,109297,2,0,L|458:172,1,129.600003164063,2|2,3:2|3:1,0:0:0:0:
387,223,109738,2,0,P|344:195|291:193,1,86.4000021093751,8|2,1:0|3:1,0:0:0:0:
312,285,110091,6,0,L|299:378,2,86.4000021093751,0|2|8,1:0|0:3|1:0,0:0:0:0:
228,234,110620,1,0,0:0:0:0:
228,234,110708,1,2,3:2:0:0:
228,234,110797,2,0,P|184:207|168:171,1,86.4000021093751,0|2,1:0|3:3,0:0:0:0:
86,205,111149,2,12,P|72:153|87:117,1,86.4000021093751,8|2,1:0|3:3,0:0:0:0:
29,36,111502,6,0,P|72:78|189:67,1,172.80000421875,8|8,1:3|1:0,0:0:0:0:
278,13,112032,1,0,0:0:0:0:
278,13,112120,1,2,3:2:0:0:
278,13,112208,2,0,L|267:105,1,86.4000021093751,0|2,1:0|3:1,0:0:0:0:
317,174,112561,2,0,P|292:220|292:264,1,86.4000021093751,8|2,1:0|3:1,0:0:0:0:
257,336,112914,5,0,1:0:0:0:
330,379,113091,1,2,3:3:0:0:
418,361,113267,1,8,1:0:0:0:
460,281,113444,1,0,0:0:0:0:
460,281,113532,1,2,3:2:0:0:
460,281,113620,2,0,B|415:241|410:181|458:141|451:155|496:137|508:82|488:44,1,259.200006328125,0|2,1:0|0:3,0:0:0:0:
408,79,114326,5,4,1:3:0:0:
104,79,114679,1,8,1:0:0:0:
130,171,114855,1,2,0:0:0:0:
130,171,114943,1,2,0:0:0:0:
130,171,115032,2,0,P|150:218|154:271,1,86.4000021093751,0|2,1:0|3:1,0:0:0:0:
357,252,115384,2,0,P|364:210|382:171,1,86.4000021093751,8|2,1:0|3:1,0:0:0:0:
255,212,115737,6,0,L|254:302,2,86.4000021093751,0|2|8,1:0|0:3|1:0,0:0:0:0:
193,123,116267,1,0,0:0:0:0:
193,123,116355,1,0,3:0:0:0:
193,123,116443,2,0,B|179:86|179:86|192:30,1,86.4000021093751,0|2,1:0|3:3,0:0:0:0:
322,40,116796,2,0,B|333:86|333:86|319:123,1,86.4000021093751,8|2,1:0|0:1,0:0:0:0:
255,212,117149,5,4,1:1:0:0:
255,384,117502,1,8,1:0:0:0:
180,330,117679,1,2,0:0:0:0:
180,330,117767,1,2,3:2:0:0:
180,330,117855,2,0,P|141:354|95:355,1,86.4000021093751,0|2,1:0|3:1,0:0:0:0:
332,330,118208,2,0,P|371:354|417:355,1,86.4000021093751,8|2,1:0|3:1,0:0:0:0:
255,212,118561,6,0,L|254:122,2,86.4000021093751,0|2|8,1:0|3:3|1:0,0:0:0:0:
166,235,119090,1,2,0:0:0:0:
166,235,119179,1,2,3:2:0:0:
166,235,119267,2,0,B|161:184|161:184|148:138,1,86.4000021093751,0|2,1:0|3:3,0:0:0:0:
360,150,119620,2,0,B|351:184|351:184|346:235,1,86.4000021093751,8|2,1:0|0:1,0:0:0:0:
341,334,119973,6,0,L|167:334,1,172.80000421875,4|8,1:1|1:0,0:0:0:0:
91,370,120502,1,2,2:2:0:0:
91,370,120590,1,2,3:2:0:0:
91,370,120679,2,0,P|64:331|72:273,1,86.4000021093751,0|2,1:0|3:3,0:0:0:0:
0,233,121032,2,0,L|21:134,1,86.4000021093751,8|2,1:0|3:3,0:0:0:0:
187,236,121384,5,4,1:0:0:0:
256,181,121561,1,2,2:2:0:0:
327,235,121737,1,8,1:0:0:0:
421,370,121914,1,2,0:2:0:0:
421,370,122002,1,2,3:2:0:0:
421,370,122091,2,0,P|448:331|440:273,1,86.4000021093751,0|2,1:0|3:3,0:0:0:0:
512,233,122444,2,0,L|491:134,1,86.4000021093751,8|2,1:0|3:3,0:0:0:0:
506,67,122796,5,4,1:3:0:0:
254,69,123149,1,8,1:0:0:0:
255,158,123326,1,2,2:0:0:0:
255,158,123414,1,2,3:2:0:0:
255,158,123502,1,4,1:1:0:0:
343,69,123679,5,2,3:3:0:0:
254,69,123855,1,8,1:0:0:0:
169,69,124032,1,2,3:3:0:0:
255,158,124208,5,4,1:1:0:0:
255,158,124384,1,8,0:1:0:0:
255,158,124561,1,8,1:1:0:0:
255,277,124826,1,8,0:1:0:0:
255,277,124914,2,0,L|254:330,6,43.2000010546875,0|8|0|8|0|8|0,1:0|0:3|0:0|0:3|1:0|0:3|0:0,0:0:0:0:
162,362,125620,6,0,L|135:180,2,172.80000421875,4|8|0,1:3|1:0|1:0,0:0:0:0:
62,303,126502,2,0,P|33:349|-22:373,1,86.4000021093751,2|8,0:1|1:0,0:0:0:0:
5,229,126855,6,0,L|17:137,1,86.4000021093751,2|0,0:3|1:0,0:0:0:0:
26,55,127208,2,0,L|128:70,1,86.4000021093751,2|8,0:1|1:0,0:0:0:0:
243,29,127561,6,0,L|231:121,1,86.4000021093751,2|0,0:3|1:0,0:0:0:0:
222,203,127914,2,0,L|120:188,1,86.4000021093751,2|8,0:1|1:0,0:0:0:0:
157,282,128267,1,2,0:1:0:0:
157,282,128443,6,0,L|337:311,2,172.80000421875,4|8|0,1:0|1:0|1:0,0:0:0:0:
25,379,129326,2,0,P|69:380|107:350,1,86.4000021093751,2|8,0:1|1:0,0:0:0:0:
136,190,129679,6,0,P|141:138|184:90,1,86.4000021093751,2|0,0:3|1:0,0:0:0:0:
126,16,130032,2,0,L|213:33,1,86.4000021093751,2|8,0:1|1:0,0:0:0:0:
382,0,130384,6,0,P|377:52|334:100,1,86.4000021093751,2|0,0:3|1:0,0:0:0:0:
392,174,130737,2,0,L|305:157,1,86.4000021093751,2|8,0:1|1:0,0:0:0:0:
299,253,131090,1,2,0:1:0:0:
299,253,131267,6,0,P|303:329|391:367,1,172.80000421875,8|8,1:3|1:0,0:0:0:0:
462,304,131796,1,0,0:0:0:0:
462,304,131884,1,0,0:0:0:0:
462,304,131973,2,0,L|481:199,1,86.4000021093751,0|0,1:0|0:0,0:0:0:0:
392,174,132326,1,8,1:0:0:0:
413,88,132502,1,2,0:3:0:0:
498,108,132679,6,0,L|331:64,1,172.80000421875,2|8,1:0|1:0,0:0:0:0:
235,76,133208,2,0,P|213:38|212:-5,1,86.4000021093751,2|0,0:3|1:0,0:0:0:0:
287,156,133561,2,0,L|256:243,1,86.4000021093751,2|8,0:1|1:0,0:0:0:0:
221,322,133914,1,2,0:3:0:0:
294,379,134090,6,0,P|353:352|344:241,1,172.80000421875,4|8,1:0|1:0,0:0:0:0:
287,156,134620,1,0,0:0:0:0:
287,156,134708,2,0,L|152:180,1,129.600003164063
123,262,135149,2,0,P|77:292|31:284,1,86.4000021093751,8|0,1:0|0:0,0:0:0:0:
1,105,135502,5,0,1:0:0:0:
17,18,135679,1,2,0:1:0:0:
103,32,135855,1,8,1:0:0:0:
101,130,136032,1,2,0:3:0:0:
101,130,136120,1,0,0:0:0:0:
101,130,136208,2,0,L|147:171,6,43.2000010546875,0|0|0|0|0|0|2,1:0|0:0|0:0|1:0|1:0|1:0|0:0,0:0:0:0:
210,219,136914,6,0,L|231:39,2,172.80000421875,4|8|0,1:3|1:1|1:0,0:0:0:0:
182,317,137796,1,2,0:3:0:0:
266,363,137973,1,8,1:0:0:0:
266,363,138149,6,0,P|289:324|288:270,1,86.4000021093751,2|0,0:0|1:0,0:0:0:0:
361,211,138502,2,0,L|455:232,1,86.4000021093751,2|8,0:3|1:0,0:0:0:0:
279,152,138855,6,0,P|256:113|257:59,1,86.4000021093751,2|0,0:1|1:0,0:0:0:0:
184,0,139208,2,0,L|90:21,1,86.4000021093751,2|8,0:3|1:0,0:0:0:0:
32,82,139561,1,2,0:1:0:0:
32,82,139737,6,0,P|65:146|154:162,1,129.600003164063,4|0,1:0|0:0,0:0:0:0:
128,167,140090,1,8,1:0:0:0:
41,247,140267,1,2,0:0:0:0:
41,247,140355,1,2,0:0:0:0:
41,247,140443,2,0,L|55:335,1,86.4000021093751,0|2,1:0|0:3,0:0:0:0:
134,368,140796,1,8,1:0:0:0:
145,271,140973,6,0,P|192:277|229:309,1,86.4000021093751,0|0,0:0|1:2,0:0:0:0:
299,366,141326,2,0,L|312:278,1,86.4000021093751,2|8,0:3|1:0,0:0:0:0:
457,102,141679,6,0,P|410:108|373:140,1,86.4000021093751,2|0,0:1|1:2,0:0:0:0:
303,197,142032,2,0,L|290:109,1,86.4000021093751,2|8,0:3|1:0,0:0:0:0:
318,33,142384,1,2,0:1:0:0:
191,8,142561,5,4,1:3:0:0:
188,22,142737,1,2,1:2:0:0:
98,52,142914,2,0,P|115:95|120:154,1,86.4000021093751,8|2,1:0|1:2,0:0:0:0:
32,201,143267,5,0,1:0:0:0:
46,204,143443,1,2,1:1:0:0:
76,294,143620,2,0,P|119:277|178:272,1,86.4000021093751,8|2,1:0|0:1,0:0:0:0:
239,344,143973,5,4,1:0:0:0:
242,330,144149,1,0,1:0:0:0:
332,300,144326,2,0,P|315:257|310:198,1,86.4000021093751,8|2,1:0|1:0,0:0:0:0:
398,151,144679,5,0,1:0:0:0:
384,148,144855,1,2,0:1:0:0:
354,58,145032,2,0,P|311:75|252:80,1,86.4000021093751,8|2,1:0|1:1,0:0:0:0:
216,195,145384,6,0,L|205:141,16,43.2000010546875,4|0|2|2|8|0|2|2|4|0|2|0|8|0|2|0|6,1:3|1:0|1:3|1:2|1:0|1:0|1:3|1:2|1:0|1:0|1:3|1:0|1:0|1:0|1:3|1:0|0:1,0:0:0:0:
464,347,148208,5,4,0:2:0:0:
