osu file format v14

[General]
AudioFilename: audio.mp3
AudioLeadIn: 0
PreviewTime: 13179
Countdown: 0
SampleSet: Normal
StackLeniency: 0.7
Mode: 1
LetterboxInBreaks: 0
WidescreenStoryboard: 0

[Editor]
DistanceSpacing: 1.2
BeatDivisor: 4
GridSize: 32
TimelineZoom: 1

[Metadata]
Title:forget you
TitleUnicode:forget you
Artist:yuki.
ArtistUnicode:yuki.
Creator:FlamingRok
Version:Oni
Source:
Tags:osu!artist
BeatmapID:1259278
BeatmapSetID:595495

[Difficulty]
HPDrainRate:6
CircleSize:5
OverallDifficulty:5
ApproachRate:5
SliderMultiplier:1.4
SliderTickRate:1

[Events]
//Background and Video events
0,0,"59018505_p1.png",0,100
//Break Periods
2,76676,85825
//Storyboard Layer 0 (Background)
//Storyboard Layer 1 (Fail)
//Storyboard Layer 2 (Pass)
//Storyboard Layer 3 (Foreground)
//Storyboard Sound Samples

[TimingPoints]
2629.89809262195,329.67032967033,4,1,0,100,1,0
13179,-100,4,1,0,100,0,1
34278,-100,4,1,0,100,0,0
43509,-125,4,1,0,100,0,0
44662,-100,4,1,0,100,0,0
75651,-111.111111111111,4,1,0,100,0,0
76146,-125,4,1,0,100,0,0
76476,-142.857142857143,4,1,0,100,0,0
87025,-200,4,1,0,100,0,0
92300,-133.333333333333,4,1,0,100,0,0
97739,-117.647058823529,4,1,0,100,0,0
103014,-111.111111111111,4,1,0,100,0,0
104333,-105.263157894737,4,1,0,100,0,0
105487,-100,4,1,0,100,0,0
108124,-100,4,1,0,100,0,1
128893,-100,4,1,0,100,0,0
129223,-100,4,1,0,100,0,1
150322,-100,4,1,0,100,0,0

[HitObjects]
256,192,2629,5,4,0:0:0:0:
256,192,3618,1,0,0:0:0:0:
256,192,3948,1,2,0:0:0:0:
256,192,4937,1,2,0:0:0:0:
256,192,5267,1,0,0:0:0:0:
256,192,6256,1,0,0:0:0:0:
256,192,6585,1,2,0:0:0:0:
256,192,7574,1,0,0:0:0:0:
256,192,7739,1,0,0:0:0:0:
256,192,7822,1,0,0:0:0:0:
256,192,7904,1,2,0:0:0:0:
256,192,8069,1,0,0:0:0:0:
256,192,8234,1,0,0:0:0:0:
256,192,8563,1,0,0:0:0:0:
256,192,8893,1,0,0:0:0:0:
256,192,8976,1,0,0:0:0:0:
256,192,9058,1,0,0:0:0:0:
256,192,9223,1,2,0:0:0:0:
256,192,9388,1,0,0:0:0:0:
256,192,9552,1,0,0:0:0:0:
256,192,9882,1,0,0:0:0:0:
256,192,10212,1,0,0:0:0:0:
256,192,10294,1,0,0:0:0:0:
256,192,10377,1,0,0:0:0:0:
256,192,10541,1,2,0:0:0:0:
256,192,10706,1,0,0:0:0:0:
256,192,10871,1,0,0:0:0:0:
256,192,10954,1,0,0:0:0:0:
256,192,11036,1,0,0:0:0:0:
256,192,11201,1,2,0:0:0:0:
256,192,11366,1,0,0:0:0:0:
256,192,11448,1,0,0:0:0:0:
256,192,11530,1,0,0:0:0:0:
256,192,11695,1,0,0:0:0:0:
256,192,11860,1,2,0:0:0:0:
256,192,11943,1,2,0:0:0:0:
256,192,12025,1,0,0:0:0:0:
256,192,12107,1,0,0:0:0:0:
256,192,12190,1,2,0:0:0:0:
256,192,12272,1,2,0:0:0:0:
256,192,12355,1,0,0:0:0:0:
256,192,12437,1,0,0:0:0:0:
256,192,12520,1,2,0:0:0:0:
256,192,12684,1,0,0:0:0:0:
256,192,12849,1,6,0:0:0:0:
256,192,13179,1,2,0:0:0:0:
256,192,13344,1,0,0:0:0:0:
256,192,13509,1,2,0:0:0:0:
256,192,13673,1,0,0:0:0:0:
256,192,13756,1,2,0:0:0:0:
256,192,13921,1,2,0:0:0:0:
256,192,14003,1,0,0:0:0:0:
256,192,14168,1,0,0:0:0:0:
256,192,14250,1,2,0:0:0:0:
256,192,14333,1,2,0:0:0:0:
256,192,14415,1,2,0:0:0:0:
256,192,14498,1,0,0:0:0:0:
256,192,14662,1,2,0:0:0:0:
256,192,14827,1,0,0:0:0:0:
256,192,14992,1,2,0:0:0:0:
256,192,15074,1,0,0:0:0:0:
256,192,15239,1,0,0:0:0:0:
256,192,15322,1,2,0:0:0:0:
256,192,15487,1,2,0:0:0:0:
256,192,15569,1,0,0:0:0:0:
256,192,15651,1,0,0:0:0:0:
256,192,15734,1,0,0:0:0:0:
256,192,15816,1,2,0:0:0:0:
256,192,15981,1,2,0:0:0:0:
256,192,16146,1,0,0:0:0:0:
256,192,16311,1,0,0:0:0:0:
256,192,16393,1,2,0:0:0:0:
256,192,16558,1,2,0:0:0:0:
256,192,16640,1,0,0:0:0:0:
256,192,16805,1,0,0:0:0:0:
256,192,16888,1,2,0:0:0:0:
256,192,16970,1,2,0:0:0:0:
256,192,17052,1,2,0:0:0:0:
256,192,17135,1,0,0:0:0:0:
256,192,17300,1,0,0:0:0:0:
256,192,17465,1,2,0:0:0:0:
256,192,17629,1,2,0:0:0:0:
256,192,17712,1,0,0:0:0:0:
256,192,17877,1,0,0:0:0:0:
256,192,17959,1,2,0:0:0:0:
256,192,18124,1,2,0:0:0:0:
256,192,18206,1,0,0:0:0:0:
256,192,18289,1,0,0:0:0:0:
256,192,18371,1,0,0:0:0:0:
256,192,18454,1,2,0:0:0:0:
256,192,18618,1,0,0:0:0:0:
256,192,18783,1,2,0:0:0:0:
256,192,18948,1,0,0:0:0:0:
256,192,19030,1,2,0:0:0:0:
256,192,19113,1,2,0:0:0:0:
256,192,19195,1,2,0:0:0:0:
256,192,19278,1,0,0:0:0:0:
256,192,19443,1,0,0:0:0:0:
256,192,19525,1,0,0:0:0:0:
256,192,19607,1,2,0:0:0:0:
256,192,19772,1,0,0:0:0:0:
256,192,19937,1,2,0:0:0:0:
256,192,20102,1,0,0:0:0:0:
256,192,20267,1,2,0:0:0:0:
256,192,20349,1,0,0:0:0:0:
256,192,20432,1,0,0:0:0:0:
256,192,20514,1,0,0:0:0:0:
256,192,20596,1,2,0:0:0:0:
256,192,20761,1,2,0:0:0:0:
256,192,20844,1,2,0:0:0:0:
256,192,20926,1,0,0:0:0:0:
256,192,21091,1,2,0:0:0:0:
256,192,21256,1,2,0:0:0:0:
256,192,21421,1,0,0:0:0:0:
256,192,21585,1,2,0:0:0:0:
256,192,21668,1,0,0:0:0:0:
256,192,21750,1,0,0:0:0:0:
256,192,21833,1,0,0:0:0:0:
256,192,21915,1,2,0:0:0:0:
256,192,22080,1,0,0:0:0:0:
256,192,22162,1,0,0:0:0:0:
256,192,22245,1,2,0:0:0:0:
256,192,22410,1,0,0:0:0:0:
256,192,22575,1,0,0:0:0:0:
256,192,22740,1,2,0:0:0:0:
256,192,22904,1,0,0:0:0:0:
256,192,22987,1,2,0:0:0:0:
256,192,23069,1,2,0:0:0:0:
256,192,23151,1,2,0:0:0:0:
256,192,23234,1,0,0:0:0:0:
256,192,23399,1,2,0:0:0:0:
256,192,23481,1,2,0:0:0:0:
256,192,23563,1,0,0:0:0:0:
256,192,23728,1,0,0:0:0:0:
256,192,24058,1,2,0:0:0:0:
256,192,24223,1,2,0:0:0:0:
256,192,24305,1,0,0:0:0:0:
256,192,24470,1,0,0:0:0:0:
256,192,24552,1,2,0:0:0:0:
256,192,24717,1,0,0:0:0:0:
256,192,24800,1,0,0:0:0:0:
256,192,24882,1,2,0:0:0:0:
256,192,25047,1,0,0:0:0:0:
256,192,25377,1,2,0:0:0:0:
256,192,25542,1,2,0:0:0:0:
256,192,25624,1,0,0:0:0:0:
256,192,25789,1,0,0:0:0:0:
256,192,25871,1,2,0:0:0:0:
256,192,26036,1,0,0:0:0:0:
256,192,26119,1,0,0:0:0:0:
256,192,26201,1,2,0:0:0:0:
256,192,26366,1,2,0:0:0:0:
256,192,26695,1,0,0:0:0:0:
256,192,26860,1,0,0:0:0:0:
256,192,26943,1,2,0:0:0:0:
256,192,27107,1,2,0:0:0:0:
256,192,27190,1,0,0:0:0:0:
256,192,27355,1,2,0:0:0:0:
256,192,27437,1,2,0:0:0:0:
256,192,27520,1,0,0:0:0:0:
256,192,27684,1,2,0:0:0:0:
256,192,28013,1,0,0:0:0:0:
256,192,28178,1,0,0:0:0:0:
256,192,28261,1,2,0:0:0:0:
256,192,28425,1,2,0:0:0:0:
256,192,28508,1,0,0:0:0:0:
256,192,28673,1,2,0:0:0:0:
256,192,28755,1,2,0:0:0:0:
256,192,28838,1,0,0:0:0:0:
256,192,29003,1,6,0:0:0:0:
256,192,29168,1,0,0:0:0:0:
256,192,29333,1,0,0:0:0:0:
256,192,29498,1,0,0:0:0:0:
256,192,29580,1,0,0:0:0:0:
256,192,29662,1,0,0:0:0:0:
256,192,29827,1,0,0:0:0:0:
256,192,29992,1,2,0:0:0:0:
256,192,30157,1,0,0:0:0:0:
256,192,30322,1,6,0:0:0:0:
256,192,30487,1,0,0:0:0:0:
256,192,30569,1,0,0:0:0:0:
256,192,30651,1,0,0:0:0:0:
256,192,30816,1,0,0:0:0:0:
256,192,30981,1,0,0:0:0:0:
256,192,31063,1,0,0:0:0:0:
256,192,31146,1,0,0:0:0:0:
256,192,31311,1,2,0:0:0:0:
256,192,31476,1,0,0:0:0:0:
256,192,31640,1,2,0:0:0:0:
256,192,31723,1,2,0:0:0:0:
256,192,31805,1,2,0:0:0:0:
256,192,31888,1,2,0:0:0:0:
256,192,31970,1,0,0:0:0:0:
256,192,32052,1,0,0:0:0:0:
256,192,32135,1,0,0:0:0:0:
256,192,32217,1,0,0:0:0:0:
256,192,32300,1,2,0:0:0:0:
256,192,32465,1,0,0:0:0:0:
256,192,32629,1,0,0:0:0:0:
256,192,32712,1,0,0:0:0:0:
256,192,32794,1,0,0:0:0:0:
256,192,32959,1,2,0:0:0:0:
256,192,33041,1,0,0:0:0:0:
256,192,33124,1,2,0:0:0:0:
256,192,33206,1,0,0:0:0:0:
256,192,33289,1,2,0:0:0:0:
256,192,33454,1,0,0:0:0:0:
256,192,33536,1,0,0:0:0:0:
256,192,33618,1,0,0:0:0:0:
256,192,33783,1,0,0:0:0:0:
256,192,33948,1,2,0:0:0:0:
256,192,34278,1,0,0:0:0:0:
256,192,34443,1,2,0:0:0:0:
256,192,34607,1,0,0:0:0:0:
256,192,34772,1,2,0:0:0:0:
256,192,34937,1,0,0:0:0:0:
256,192,35102,1,2,0:0:0:0:
256,192,35267,1,2,0:0:0:0:
256,192,35596,1,0,0:0:0:0:
256,192,35761,1,2,0:0:0:0:
256,192,35844,1,0,0:0:0:0:
256,192,35926,1,2,0:0:0:0:
256,192,36091,1,0,0:0:0:0:
256,192,36256,1,0,0:0:0:0:
256,192,36421,1,2,0:0:0:0:
256,192,36585,1,2,0:0:0:0:
256,192,36915,1,0,0:0:0:0:
256,192,37080,1,2,0:0:0:0:
256,192,37245,1,0,0:0:0:0:
256,192,37409,1,2,0:0:0:0:
256,192,37574,1,0,0:0:0:0:
256,192,37739,1,2,0:0:0:0:
256,192,37822,1,0,0:0:0:0:
256,192,37904,1,2,0:0:0:0:
256,192,38233,1,0,0:0:0:0:
256,192,38398,1,2,0:0:0:0:
256,192,38481,1,0,0:0:0:0:
256,192,38563,1,2,0:0:0:0:
256,192,38646,1,2,0:0:0:0:
256,192,38728,1,0,0:0:0:0:
256,192,38811,1,0,0:0:0:0:
256,192,38893,1,2,0:0:0:0:
256,192,39058,1,0,0:0:0:0:
256,192,39222,1,2,0:0:0:0:
256,192,39552,1,0,0:0:0:0:
256,192,39717,1,2,0:0:0:0:
256,192,39881,1,0,0:0:0:0:
256,192,40046,1,2,0:0:0:0:
256,192,40211,1,0,0:0:0:0:
256,192,40376,1,2,0:0:0:0:
256,192,40541,1,2,0:0:0:0:
256,192,40870,1,0,0:0:0:0:
256,192,41035,1,2,0:0:0:0:
256,192,41118,1,0,0:0:0:0:
256,192,41200,1,2,0:0:0:0:
256,192,41365,1,0,0:0:0:0:
256,192,41530,1,0,0:0:0:0:
256,192,41695,1,2,0:0:0:0:
256,192,41859,1,2,0:0:0:0:
256,192,42190,1,0,0:0:0:0:
256,192,42355,1,2,0:0:0:0:
256,192,42520,1,0,0:0:0:0:
256,192,42683,1,2,0:0:0:0:
256,192,42848,1,0,0:0:0:0:
256,192,43013,1,2,0:0:0:0:
256,192,43096,1,0,0:0:0:0:
256,192,43178,1,2,0:0:0:0:
256,192,43509,1,2,0:0:0:0:
256,192,43838,1,2,0:0:0:0:
256,192,44168,1,2,0:0:0:0:
256,192,44498,1,6,0:0:0:0:
256,192,44662,1,0,0:0:0:0:
256,192,44745,1,0,0:0:0:0:
256,192,44827,1,0,0:0:0:0:
256,192,44992,1,2,0:0:0:0:
256,192,45156,1,0,0:0:0:0:
256,192,45321,1,2,0:0:0:0:
256,192,45486,1,0,0:0:0:0:
256,192,45651,1,2,0:0:0:0:
256,192,45816,1,2,0:0:0:0:
256,192,46145,1,0,0:0:0:0:
256,192,46310,1,2,0:0:0:0:
256,192,46393,1,0,0:0:0:0:
256,192,46475,1,2,0:0:0:0:
256,192,46640,1,0,0:0:0:0:
256,192,46805,1,0,0:0:0:0:
256,192,46970,1,2,0:0:0:0:
256,192,47134,1,2,0:0:0:0:
256,192,47464,1,0,0:0:0:0:
256,192,47629,1,2,0:0:0:0:
256,192,47793,1,0,0:0:0:0:
256,192,47958,1,2,0:0:0:0:
256,192,48123,1,0,0:0:0:0:
256,192,48288,1,2,0:0:0:0:
256,192,48371,1,0,0:0:0:0:
256,192,48453,1,2,0:0:0:0:
256,192,48783,1,0,0:0:0:0:
256,192,48947,1,2,0:0:0:0:
256,192,49030,1,0,0:0:0:0:
256,192,49112,1,2,0:0:0:0:
256,192,49195,1,2,0:0:0:0:
256,192,49277,1,0,0:0:0:0:
256,192,49360,1,0,0:0:0:0:
256,192,49442,1,2,0:0:0:0:
256,192,49607,1,0,0:0:0:0:
256,192,49771,1,0,0:0:0:0:
256,192,49855,1,0,0:0:0:0:
256,192,49937,1,2,0:0:0:0:
256,192,50102,1,4,0:0:0:0:
256,192,50432,1,0,0:0:0:0:
256,192,50596,1,0,0:0:0:0:
256,192,50761,1,4,0:0:0:0:
256,192,50926,1,4,0:0:0:0:
256,192,51091,1,6,0:0:0:0:
256,192,51256,1,6,0:0:0:0:
256,192,51421,1,4,0:0:0:0:
256,192,51585,1,2,0:0:0:0:
256,192,51668,1,0,0:0:0:0:
256,192,51750,1,2,0:0:0:0:
256,192,51915,1,0,0:0:0:0:
256,192,52080,1,4,0:0:0:0:
256,192,52327,1,6,0:0:0:0:
256,192,52574,1,4,0:0:0:0:
256,192,52739,1,2,0:0:0:0:
256,192,52822,1,0,0:0:0:0:
256,192,52904,1,2,0:0:0:0:
256,192,53069,1,2,0:0:0:0:
256,192,53151,1,0,0:0:0:0:
256,192,53234,1,2,0:0:0:0:
256,192,53399,1,0,0:0:0:0:
256,192,53481,1,0,0:0:0:0:
256,192,53563,1,2,0:0:0:0:
256,192,53646,1,0,0:0:0:0:
256,192,53728,1,2,0:0:0:0:
256,192,53893,1,0,0:0:0:0:
256,192,54058,1,2,0:0:0:0:
288,192,54140,1,0,0:0:0:0:
256,192,54223,1,2,0:0:0:0:
256,192,54305,1,0,0:0:0:0:
256,192,54388,1,2,0:0:0:0:
256,192,54552,1,0,0:0:0:0:
256,192,54635,1,0,0:0:0:0:
256,192,54717,1,0,0:0:0:0:
256,192,54882,1,0,0:0:0:0:
256,192,55047,1,6,0:0:0:0:
256,192,55377,1,0,0:0:0:0:
256,192,55541,1,0,0:0:0:0:
256,192,55706,1,2,0:0:0:0:
256,192,56036,1,0,0:0:0:0:
256,192,56201,1,0,0:0:0:0:
256,192,56283,1,2,0:0:0:0:
256,192,56448,1,0,0:0:0:0:
256,192,56530,1,2,0:0:0:0:
256,192,56695,1,0,0:0:0:0:
256,192,56860,1,0,0:0:0:0:
256,192,57025,1,2,0:0:0:0:
256,192,57355,1,2,0:0:0:0:
256,192,57520,1,0,0:0:0:0:
256,192,57602,1,2,0:0:0:0:
256,192,57767,1,0,0:0:0:0:
256,192,57849,1,2,0:0:0:0:
256,192,58014,1,0,0:0:0:0:
256,192,58179,1,2,0:0:0:0:
256,192,58344,1,2,0:0:0:0:
256,192,58673,1,0,0:0:0:0:
256,192,58838,1,2,0:0:0:0:
256,192,58921,1,0,0:0:0:0:
256,192,59085,1,2,0:0:0:0:
256,192,59168,1,0,0:0:0:0:
256,192,59333,1,0,0:0:0:0:
256,192,59498,1,2,0:0:0:0:
256,192,59662,1,2,0:0:0:0:
256,192,59992,1,2,0:0:0:0:
256,192,60157,1,2,0:0:0:0:
256,192,60239,1,0,0:0:0:0:
256,192,60404,1,2,0:0:0:0:
256,192,60487,1,0,0:0:0:0:
256,192,60651,1,0,0:0:0:0:
256,192,60981,1,2,0:0:0:0:
256,192,61146,1,0,0:0:0:0:
256,192,61311,1,0,0:0:0:0:
256,192,61476,1,0,0:0:0:0:
256,192,61558,1,0,0:0:0:0:
256,192,61640,1,2,0:0:0:0:
256,192,61805,1,2,0:0:0:0:
256,192,61970,1,0,0:0:0:0:
256,192,62135,1,0,0:0:0:0:
256,192,62300,1,2,0:0:0:0:
256,192,62465,1,0,0:0:0:0:
256,192,62629,1,2,0:0:0:0:
256,192,62794,1,0,0:0:0:0:
256,192,62877,1,0,0:0:0:0:
256,192,62959,1,2,0:0:0:0:
256,192,63124,1,2,0:0:0:0:
256,192,63289,1,0,0:0:0:0:
256,192,63618,1,2,0:0:0:0:
256,192,63783,1,0,0:0:0:0:
256,192,63948,1,0,0:0:0:0:
256,192,64113,1,0,0:0:0:0:
256,192,64195,1,2,0:0:0:0:
256,192,64278,1,2,0:0:0:0:
256,192,64443,1,2,0:0:0:0:
256,192,64607,1,0,0:0:0:0:
256,192,64772,1,2,0:0:0:0:
256,192,64937,1,2,0:0:0:0:
256,192,65102,1,0,0:0:0:0:
256,192,65267,1,2,0:0:0:0:
256,192,65432,1,0,0:0:0:0:
256,192,65514,1,2,0:0:0:0:
256,192,65596,1,2,0:0:0:0:
256,192,65761,1,0,0:0:0:0:
256,192,65926,1,2,0:0:0:0:
256,192,66173,1,0,0:0:0:0:
256,192,66256,1,2,0:0:0:0:
256,192,66421,1,0,0:0:0:0:
256,192,66585,1,2,0:0:0:0:
256,192,66668,1,0,0:0:0:0:
256,192,66833,1,0,0:0:0:0:
256,192,66915,1,2,0:0:0:0:
256,192,67080,1,0,0:0:0:0:
256,192,67245,1,2,0:0:0:0:
256,192,67492,1,0,0:0:0:0:
256,192,67575,1,2,0:0:0:0:
256,192,67740,1,0,0:0:0:0:
256,192,67904,1,2,0:0:0:0:
256,192,67987,1,0,0:0:0:0:
256,192,68069,1,0,0:0:0:0:
256,192,68234,1,2,0:0:0:0:
256,192,68399,1,0,0:0:0:0:
256,192,68564,1,2,0:0:0:0:
256,192,68811,1,0,0:0:0:0:
256,192,68894,1,2,0:0:0:0:
256,192,69059,1,0,0:0:0:0:
256,192,69223,1,2,0:0:0:0:
256,192,69306,1,0,0:0:0:0:
256,192,69471,1,0,0:0:0:0:
256,192,69553,1,2,0:0:0:0:
256,192,69718,1,0,0:0:0:0:
256,192,69883,1,2,0:0:0:0:
256,192,70129,1,0,0:0:0:0:
256,192,70212,1,2,0:0:0:0:
256,192,70377,1,0,0:0:0:0:
256,192,70541,1,2,0:0:0:0:
256,192,70624,1,0,0:0:0:0:
256,192,70706,1,0,0:0:0:0:
256,192,70871,1,0,0:0:0:0:
256,192,71036,1,2,0:0:0:0:
256,192,71201,1,2,0:0:0:0:
256,192,71366,1,0,0:0:0:0:
256,192,71530,1,0,0:0:0:0:
256,192,71613,1,0,0:0:0:0:
256,192,71695,1,0,0:0:0:0:
256,192,71860,1,0,0:0:0:0:
256,192,72025,1,0,0:0:0:0:
256,192,72107,1,0,0:0:0:0:
256,192,72190,1,0,0:0:0:0:
256,192,72355,1,2,0:0:0:0:
256,192,72520,1,2,0:0:0:0:
256,192,72684,1,0,0:0:0:0:
256,192,72767,1,0,0:0:0:0:
256,192,72849,1,0,0:0:0:0:
256,192,73014,1,0,0:0:0:0:
256,192,73179,1,0,0:0:0:0:
256,192,73261,1,0,0:0:0:0:
256,192,73344,1,0,0:0:0:0:
256,192,73509,1,0,0:0:0:0:
256,192,73673,1,2,0:0:0:0:
256,192,73838,1,2,0:0:0:0:
256,192,73921,1,2,0:0:0:0:
256,192,74003,1,2,0:0:0:0:
256,192,74085,1,2,0:0:0:0:
256,192,74168,1,0,0:0:0:0:
256,192,74250,1,0,0:0:0:0:
256,192,74333,1,0,0:0:0:0:
256,192,74415,1,0,0:0:0:0:
256,192,74498,1,2,0:0:0:0:
256,192,74662,1,0,0:0:0:0:
256,192,74827,1,0,0:0:0:0:
256,192,74910,1,0,0:0:0:0:
256,192,74992,1,0,0:0:0:0:
256,192,75157,1,2,0:0:0:0:
256,192,75651,1,0,0:0:0:0:
256,192,76146,1,2,0:0:0:0:
256,192,76476,1,4,0:0:0:0:
256,192,87025,5,4,0:0:0:0:
256,192,88344,1,2,0:0:0:0:
256,192,89662,1,0,0:0:0:0:
256,192,90981,1,2,0:0:0:0:
256,192,92300,1,2,0:0:0:0:
256,192,92877,1,0,0:0:0:0:
256,192,93289,1,0,0:0:0:0:
256,192,93454,1,2,0:0:0:0:
256,192,93618,1,0,0:0:0:0:
256,192,94195,1,2,0:0:0:0:
256,192,94607,1,2,0:0:0:0:
256,192,94772,1,0,0:0:0:0:
256,192,94937,1,0,0:0:0:0:
256,192,95267,1,0,0:0:0:0:
256,192,95514,1,2,0:0:0:0:
256,192,95761,1,0,0:0:0:0:
256,192,95926,1,0,0:0:0:0:
256,192,96091,1,2,0:0:0:0:
256,192,96256,1,2,0:0:0:0:
256,192,96585,1,2,0:0:0:0:
256,192,96833,1,0,0:0:0:0:
256,192,97080,1,2,0:0:0:0:
256,192,97245,1,2,0:0:0:0:
256,192,97327,1,2,0:0:0:0:
256,192,97410,1,2,0:0:0:0:
256,192,97492,1,2,0:0:0:0:
256,192,97574,1,0,0:0:0:0:
256,192,97822,1,0,0:0:0:0:
256,192,97904,1,2,0:0:0:0:
256,192,98069,1,0,0:0:0:0:
256,192,98234,1,2,0:0:0:0:
256,192,98399,1,0,0:0:0:0:
256,192,98563,1,0,0:0:0:0:
256,192,98646,1,0,0:0:0:0:
256,192,98728,1,2,0:0:0:0:
256,192,98893,1,0,0:0:0:0:
256,192,99140,1,0,0:0:0:0:
256,192,99223,1,2,0:0:0:0:
256,192,99388,1,2,0:0:0:0:
256,192,99470,1,0,0:0:0:0:
256,192,99635,1,0,0:0:0:0:
256,192,99717,1,2,0:0:0:0:
256,192,99882,1,0,0:0:0:0:
256,192,100047,1,2,0:0:0:0:
256,192,100212,1,0,0:0:0:0:
256,192,100459,1,0,0:0:0:0:
256,192,100541,1,2,0:0:0:0:
256,192,100706,1,0,0:0:0:0:
256,192,100871,1,2,0:0:0:0:
256,192,101036,1,0,0:0:0:0:
256,192,101201,1,0,0:0:0:0:
256,192,101283,1,0,0:0:0:0:
256,192,101366,1,2,0:0:0:0:
256,192,101530,1,0,0:0:0:0:
256,192,101860,1,0,0:0:0:0:
256,192,102025,1,0,0:0:0:0:
256,192,102107,1,2,0:0:0:0:
256,192,102272,1,2,0:0:0:0:
256,192,102355,1,0,0:0:0:0:
256,192,102520,1,0,0:0:0:0:
256,192,102602,1,0,0:0:0:0:
256,192,102684,1,0,0:0:0:0:
256,192,102767,1,0,0:0:0:0:
256,192,102849,1,2,0:0:0:0:
256,192,103014,1,0,0:0:0:0:
256,192,103179,1,0,0:0:0:0:
256,192,103344,1,0,0:0:0:0:
256,192,103426,1,0,0:0:0:0:
256,192,103509,1,0,0:0:0:0:
256,192,103673,1,0,0:0:0:0:
256,192,103838,1,0,0:0:0:0:
256,192,103921,1,0,0:0:0:0:
256,192,104003,1,0,0:0:0:0:
256,192,104085,1,0,0:0:0:0:
256,192,104168,1,2,0:0:0:0:
256,192,104333,1,0,0:0:0:0:
256,192,104498,1,0,0:0:0:0:
256,192,104662,1,0,0:0:0:0:
256,192,104745,1,0,0:0:0:0:
256,192,104827,1,0,0:0:0:0:
256,192,104992,1,0,0:0:0:0:
256,192,105157,1,0,0:0:0:0:
256,192,105239,1,0,0:0:0:0:
256,192,105322,1,0,0:0:0:0:
256,192,105487,1,2,0:0:0:0:
256,192,105569,1,2,0:0:0:0:
256,192,105651,1,2,0:0:0:0:
256,192,105734,1,2,0:0:0:0:
256,192,105816,1,0,0:0:0:0:
256,192,105899,1,0,0:0:0:0:
256,192,105981,1,0,0:0:0:0:
256,192,106063,1,0,0:0:0:0:
256,192,106146,1,2,0:0:0:0:
256,192,106311,1,0,0:0:0:0:
256,192,106476,1,0,0:0:0:0:
256,192,106558,1,0,0:0:0:0:
256,192,106640,1,0,0:0:0:0:
256,192,106805,1,2,0:0:0:0:
256,192,106888,1,0,0:0:0:0:
256,192,106970,1,2,0:0:0:0:
256,192,107053,1,0,0:0:0:0:
256,192,107135,1,2,0:0:0:0:
256,192,107300,1,0,0:0:0:0:
256,192,107465,1,2,0:0:0:0:
256,192,107629,1,0,0:0:0:0:
256,192,107794,1,6,0:0:0:0:
256,192,108124,1,2,0:0:0:0:
256,192,108289,1,0,0:0:0:0:
256,192,108454,1,2,0:0:0:0:
256,192,108618,1,0,0:0:0:0:
256,192,108701,1,2,0:0:0:0:
256,192,108866,1,2,0:0:0:0:
256,192,108948,1,0,0:0:0:0:
256,192,109113,1,0,0:0:0:0:
256,192,109195,1,0,0:0:0:0:
256,192,109278,1,2,0:0:0:0:
256,192,109360,1,2,0:0:0:0:
256,192,109443,1,0,0:0:0:0:
256,192,109607,1,2,0:0:0:0:
256,192,109772,1,0,0:0:0:0:
256,192,109937,1,2,0:0:0:0:
256,192,110019,1,0,0:0:0:0:
256,192,110184,1,0,0:0:0:0:
256,192,110267,1,2,0:0:0:0:
256,192,110432,1,2,0:0:0:0:
256,192,110514,1,2,0:0:0:0:
256,192,110596,1,0,0:0:0:0:
256,192,110679,1,0,0:0:0:0:
256,192,110761,1,2,0:0:0:0:
256,192,110926,1,2,0:0:0:0:
256,192,111091,1,0,0:0:0:0:
256,192,111256,1,2,0:0:0:0:
256,192,111338,1,0,0:0:0:0:
256,192,111503,1,0,0:0:0:0:
256,192,111585,1,2,0:0:0:0:
256,192,111750,1,0,0:0:0:0:
256,192,111833,1,0,0:0:0:0:
256,192,111915,1,2,0:0:0:0:
256,192,111997,1,2,0:0:0:0:
256,192,112080,1,0,0:0:0:0:
256,192,112245,1,0,0:0:0:0:
256,192,112410,1,2,0:0:0:0:
256,192,112574,1,0,0:0:0:0:
256,192,112657,1,2,0:0:0:0:
256,192,112822,1,2,0:0:0:0:
256,192,112904,1,0,0:0:0:0:
256,192,113069,1,2,0:0:0:0:
256,192,113151,1,2,0:0:0:0:
256,192,113234,1,0,0:0:0:0:
256,192,113316,1,0,0:0:0:0:
256,192,113399,1,2,0:0:0:0:
256,192,113563,1,0,0:0:0:0:
256,192,113728,1,2,0:0:0:0:
256,192,113893,1,0,0:0:0:0:
256,192,113975,1,0,0:0:0:0:
256,192,114058,1,2,0:0:0:0:
256,192,114140,1,2,0:0:0:0:
256,192,114223,1,0,0:0:0:0:
256,192,114388,1,0,0:0:0:0:
256,192,114470,1,0,0:0:0:0:
256,192,114552,1,2,0:0:0:0:
256,192,114717,1,0,0:0:0:0:
256,192,114882,1,2,0:0:0:0:
256,192,115047,1,0,0:0:0:0:
256,192,115212,1,2,0:0:0:0:
256,192,115294,1,2,0:0:0:0:
256,192,115377,1,0,0:0:0:0:
256,192,115459,1,0,0:0:0:0:
256,192,115541,1,2,0:0:0:0:
256,192,115706,1,2,0:0:0:0:
256,192,115789,1,2,0:0:0:0:
256,192,115871,1,0,0:0:0:0:
256,192,116036,1,2,0:0:0:0:
256,192,116201,1,2,0:0:0:0:
256,192,116366,1,0,0:0:0:0:
256,192,116530,1,2,0:0:0:0:
256,192,116613,1,2,0:0:0:0:
256,192,116695,1,0,0:0:0:0:
256,192,116778,1,0,0:0:0:0:
256,192,116860,1,2,0:0:0:0:
256,192,117025,1,0,0:0:0:0:
256,192,117107,1,0,0:0:0:0:
256,192,117190,1,2,0:0:0:0:
256,192,117355,1,0,0:0:0:0:
256,192,117520,1,0,0:0:0:0:
256,192,117685,1,2,0:0:0:0:
256,192,117849,1,0,0:0:0:0:
256,192,117932,1,0,0:0:0:0:
256,192,118014,1,2,0:0:0:0:
256,192,118096,1,2,0:0:0:0:
256,192,118179,1,0,0:0:0:0:
256,192,118344,1,2,0:0:0:0:
256,192,118426,1,2,0:0:0:0:
256,192,118508,1,0,0:0:0:0:
256,192,118673,1,0,0:0:0:0:
256,192,118838,1,0,0:0:0:0:
256,192,118921,1,0,0:0:0:0:
256,192,119003,1,2,0:0:0:0:
256,192,119168,1,2,0:0:0:0:
256,192,119250,1,0,0:0:0:0:
256,192,119415,1,0,0:0:0:0:
256,192,119497,1,2,0:0:0:0:
256,192,119662,1,0,0:0:0:0:
256,192,119745,1,0,0:0:0:0:
256,192,119827,1,2,0:0:0:0:
256,192,119992,1,0,0:0:0:0:
256,192,120157,1,0,0:0:0:0:
256,192,120240,1,0,0:0:0:0:
256,192,120322,1,2,0:0:0:0:
256,192,120487,1,2,0:0:0:0:
256,192,120569,1,0,0:0:0:0:
256,192,120734,1,0,0:0:0:0:
256,192,120816,1,2,0:0:0:0:
256,192,120981,1,0,0:0:0:0:
256,192,121064,1,0,0:0:0:0:
256,192,121146,1,2,0:0:0:0:
256,192,121311,1,2,0:0:0:0:
256,192,121475,1,2,0:0:0:0:
256,192,121558,1,2,0:0:0:0:
256,192,121640,1,0,0:0:0:0:
256,192,121805,1,0,0:0:0:0:
256,192,121888,1,2,0:0:0:0:
256,192,122052,1,2,0:0:0:0:
256,192,122135,1,0,0:0:0:0:
256,192,122300,1,2,0:0:0:0:
256,192,122382,1,2,0:0:0:0:
256,192,122465,1,0,0:0:0:0:
256,192,122629,1,2,0:0:0:0:
256,192,122793,1,2,0:0:0:0:
256,192,122876,1,2,0:0:0:0:
256,192,122958,1,0,0:0:0:0:
256,192,123123,1,0,0:0:0:0:
256,192,123206,1,2,0:0:0:0:
256,192,123370,1,2,0:0:0:0:
256,192,123453,1,0,0:0:0:0:
256,192,123618,1,2,0:0:0:0:
256,192,123700,1,2,0:0:0:0:
256,192,123783,1,0,0:0:0:0:
256,192,123948,1,6,0:0:0:0:
256,192,124113,1,0,0:0:0:0:
256,192,124278,1,0,0:0:0:0:
256,192,124443,1,0,0:0:0:0:
256,192,124525,1,0,0:0:0:0:
256,192,124607,1,0,0:0:0:0:
256,192,124772,1,0,0:0:0:0:
256,192,124937,1,2,0:0:0:0:
256,192,125102,1,0,0:0:0:0:
256,192,125267,1,6,0:0:0:0:
256,192,125432,1,0,0:0:0:0:
256,192,125514,1,0,0:0:0:0:
256,192,125596,1,0,0:0:0:0:
256,192,125761,1,0,0:0:0:0:
256,192,125926,1,0,0:0:0:0:
256,192,126008,1,0,0:0:0:0:
256,192,126091,1,0,0:0:0:0:
256,192,126256,1,2,0:0:0:0:
256,192,126421,1,0,0:0:0:0:
256,192,126585,1,2,0:0:0:0:
256,192,126668,1,2,0:0:0:0:
256,192,126750,1,2,0:0:0:0:
256,192,126833,1,2,0:0:0:0:
256,192,126915,1,0,0:0:0:0:
256,192,126997,1,0,0:0:0:0:
256,192,127080,1,0,0:0:0:0:
256,192,127162,1,0,0:0:0:0:
256,192,127245,1,2,0:0:0:0:
256,192,127410,1,0,0:0:0:0:
256,192,127574,1,0,0:0:0:0:
256,192,127657,1,0,0:0:0:0:
256,192,127739,1,0,0:0:0:0:
256,192,127904,1,2,0:0:0:0:
256,192,127986,1,0,0:0:0:0:
256,192,128069,1,2,0:0:0:0:
256,192,128151,1,0,0:0:0:0:
256,192,128234,1,2,0:0:0:0:
256,192,128399,1,0,0:0:0:0:
256,192,128481,1,0,0:0:0:0:
256,192,128563,1,0,0:0:0:0:
256,192,128728,1,0,0:0:0:0:
256,192,128893,1,2,0:0:0:0:
256,192,129223,1,2,0:0:0:0:
256,192,129388,1,0,0:0:0:0:
256,192,129553,1,2,0:0:0:0:
256,192,129717,1,0,0:0:0:0:
256,192,129800,1,2,0:0:0:0:
256,192,129965,1,2,0:0:0:0:
256,192,130047,1,0,0:0:0:0:
256,192,130212,1,0,0:0:0:0:
256,192,130294,1,2,0:0:0:0:
256,192,130377,1,2,0:0:0:0:
256,192,130459,1,2,0:0:0:0:
256,192,130542,1,0,0:0:0:0:
256,192,130706,1,2,0:0:0:0:
256,192,130871,1,0,0:0:0:0:
256,192,131036,1,2,0:0:0:0:
256,192,131118,1,0,0:0:0:0:
256,192,131283,1,0,0:0:0:0:
256,192,131366,1,2,0:0:0:0:
256,192,131530,1,2,0:0:0:0:
256,192,131613,1,0,0:0:0:0:
256,192,131695,1,0,0:0:0:0:
256,192,131778,1,0,0:0:0:0:
256,192,131860,1,2,0:0:0:0:
256,192,132025,1,2,0:0:0:0:
256,192,132190,1,0,0:0:0:0:
256,192,132355,1,2,0:0:0:0:
256,192,132437,1,0,0:0:0:0:
256,192,132602,1,0,0:0:0:0:
256,192,132684,1,2,0:0:0:0:
256,192,132849,1,0,0:0:0:0:
256,192,132932,1,2,0:0:0:0:
256,192,133014,1,2,0:0:0:0:
256,192,133096,1,2,0:0:0:0:
256,192,133179,1,0,0:0:0:0:
256,192,133344,1,0,0:0:0:0:
256,192,133509,1,2,0:0:0:0:
256,192,133673,1,0,0:0:0:0:
256,192,133756,1,2,0:0:0:0:
256,192,133921,1,2,0:0:0:0:
256,192,134003,1,0,0:0:0:0:
256,192,134168,1,2,0:0:0:0:
256,192,134250,1,0,0:0:0:0:
256,192,134333,1,0,0:0:0:0:
256,192,134415,1,0,0:0:0:0:
256,192,134498,1,2,0:0:0:0:
256,192,134662,1,0,0:0:0:0:
256,192,134827,1,2,0:0:0:0:
256,192,134992,1,0,0:0:0:0:
256,192,135074,1,2,0:0:0:0:
256,192,135239,1,2,0:0:0:0:
256,192,135322,1,0,0:0:0:0:
256,192,135487,1,0,0:0:0:0:
256,192,135569,1,0,0:0:0:0:
256,192,135651,1,2,0:0:0:0:
256,192,135734,1,2,0:0:0:0:
256,192,135816,1,0,0:0:0:0:
256,192,135981,1,2,0:0:0:0:
256,192,136146,1,0,0:0:0:0:
256,192,136311,1,2,0:0:0:0:
256,192,136393,1,0,0:0:0:0:
256,192,136558,1,0,0:0:0:0:
256,192,136640,1,2,0:0:0:0:
256,192,136805,1,2,0:0:0:0:
256,192,136888,1,2,0:0:0:0:
256,192,136970,1,0,0:0:0:0:
256,192,137052,1,0,0:0:0:0:
256,192,137135,1,2,0:0:0:0:
256,192,137300,1,2,0:0:0:0:
256,192,137465,1,0,0:0:0:0:
256,192,137629,1,2,0:0:0:0:
256,192,137712,1,0,0:0:0:0:
256,192,137877,1,0,0:0:0:0:
256,192,137959,1,2,0:0:0:0:
256,192,138124,1,0,0:0:0:0:
256,192,138206,1,0,0:0:0:0:
256,192,138289,1,2,0:0:0:0:
256,192,138371,1,2,0:0:0:0:
256,192,138454,1,0,0:0:0:0:
256,192,138618,1,0,0:0:0:0:
256,192,138784,1,2,0:0:0:0:
256,192,138948,1,0,0:0:0:0:
256,192,139031,1,2,0:0:0:0:
256,192,139113,1,2,0:0:0:0:
256,192,139195,1,2,0:0:0:0:
256,192,139278,1,0,0:0:0:0:
256,192,139443,1,2,0:0:0:0:
256,192,139525,1,2,0:0:0:0:
256,192,139607,1,0,0:0:0:0:
256,192,139690,1,0,0:0:0:0:
256,192,139772,1,2,0:0:0:0:
256,192,140102,1,2,0:0:0:0:
256,192,140267,1,2,0:0:0:0:
256,192,140349,1,0,0:0:0:0:
256,192,140432,1,2,0:0:0:0:
256,192,140514,1,0,0:0:0:0:
256,192,140596,1,2,0:0:0:0:
256,192,140761,1,0,0:0:0:0:
256,192,140844,1,0,0:0:0:0:
256,192,140926,1,2,0:0:0:0:
256,192,141091,1,0,0:0:0:0:
256,192,141421,1,2,0:0:0:0:
256,192,141586,1,2,0:0:0:0:
256,192,141668,1,0,0:0:0:0:
256,192,141750,1,0,0:0:0:0:
256,192,141833,1,0,0:0:0:0:
256,192,141915,1,2,0:0:0:0:
256,192,142080,1,0,0:0:0:0:
256,192,142163,1,0,0:0:0:0:
256,192,142245,1,2,0:0:0:0:
256,192,142410,1,2,0:0:0:0:
256,192,142739,1,0,0:0:0:0:
256,192,142904,1,0,0:0:0:0:
256,192,142987,1,2,0:0:0:0:
256,192,143069,1,2,0:0:0:0:
256,192,143151,1,2,0:0:0:0:
256,192,143234,1,0,0:0:0:0:
256,192,143399,1,2,0:0:0:0:
256,192,143481,1,2,0:0:0:0:
256,192,143564,1,0,0:0:0:0:
256,192,143728,1,2,0:0:0:0:
256,192,144057,1,0,0:0:0:0:
256,192,144222,1,0,0:0:0:0:
256,192,144305,1,2,0:0:0:0:
256,192,144388,1,2,0:0:0:0:
256,192,144469,1,2,0:0:0:0:
256,192,144552,1,0,0:0:0:0:
256,192,144717,1,2,0:0:0:0:
256,192,144799,1,2,0:0:0:0:
256,192,144882,1,0,0:0:0:0:
256,192,145047,1,2,0:0:0:0:
256,192,145212,1,0,0:0:0:0:
256,192,145377,1,0,0:0:0:0:
256,192,145542,1,0,0:0:0:0:
256,192,145624,1,0,0:0:0:0:
256,192,145706,1,0,0:0:0:0:
256,192,145871,1,0,0:0:0:0:
256,192,146036,1,2,0:0:0:0:
256,192,146201,1,0,0:0:0:0:
256,192,146366,1,2,0:0:0:0:
256,192,146531,1,0,0:0:0:0:
256,192,146695,1,0,0:0:0:0:
256,192,146778,1,0,0:0:0:0:
256,192,146860,1,0,0:0:0:0:
256,192,146943,1,0,0:0:0:0:
256,192,147025,1,0,0:0:0:0:
256,192,147190,1,0,0:0:0:0:
256,192,147355,1,2,0:0:0:0:
256,192,147520,1,0,0:0:0:0:
256,192,147684,1,2,0:0:0:0:
256,192,147767,1,2,0:0:0:0:
256,192,147849,1,2,0:0:0:0:
256,192,147932,1,2,0:0:0:0:
256,192,148014,1,0,0:0:0:0:
256,192,148096,1,0,0:0:0:0:
256,192,148179,1,0,0:0:0:0:
256,192,148261,1,0,0:0:0:0:
256,192,148344,1,2,0:0:0:0:
256,192,148509,1,0,0:0:0:0:
256,192,148673,1,0,0:0:0:0:
256,192,148756,1,0,0:0:0:0:
256,192,148838,1,0,0:0:0:0:
256,192,149003,1,2,0:0:0:0:
256,192,149085,1,0,0:0:0:0:
256,192,149168,1,2,0:0:0:0:
256,192,149250,1,0,0:0:0:0:
256,192,149333,1,2,0:0:0:0:
256,192,149498,1,0,0:0:0:0:
256,192,149580,1,0,0:0:0:0:
256,192,149662,1,0,0:0:0:0:
256,192,149827,1,0,0:0:0:0:
256,192,149992,1,2,0:0:0:0:
256,192,150074,1,2,0:0:0:0:
256,192,150157,1,2,0:0:0:0:
256,192,150239,1,2,0:0:0:0:
