osu file format v14

[General]
AudioFilename: audio.mp3
AudioLeadIn: 0
PreviewTime: 13179
Countdown: 0
SampleSet: Normal
StackLeniency: 0.7
Mode: 1
LetterboxInBreaks: 0
WidescreenStoryboard: 0

[Editor]
DistanceSpacing: 1.2
BeatDivisor: 4
GridSize: 32
TimelineZoom: 1

[Metadata]
Title:forget you
TitleUnicode:forget you
Artist:yuki.
ArtistUnicode:yuki.
Creator:FlamingRok
Version:Muzukashii
Source:
Tags:osu!artist
BeatmapID:1259277
BeatmapSetID:595495

[Difficulty]
HPDrainRate:5
CircleSize:2
OverallDifficulty:4.5
ApproachRate:5
SliderMultiplier:1.4
SliderTickRate:1

[Events]
//Background and Video events
0,0,"59018505_p1.png",0,100
//Break Periods
2,76676,85825
//Storyboard Layer 0 (Background)
//Storyboard Layer 1 (Fail)
//Storyboard Layer 2 (Pass)
//Storyboard Layer 3 (Foreground)
//Storyboard Sound Samples

[TimingPoints]
2629.89809262195,329.67032967033,4,1,0,100,1,0
13179,-100,4,1,0,100,0,1
34278,-100,4,1,0,100,0,0
75651,-111.111111111111,4,1,0,100,0,0
76146,-125,4,1,0,100,0,0
76476,-142.857142857143,4,1,0,100,0,0
87025,-200,4,1,0,100,0,0
92300,-133.333333333333,4,1,0,100,0,0
97574,-117.647058823529,4,1,0,100,0,0
102849,-100,4,1,0,100,0,0
108124,-100,4,1,0,100,0,1
128893,-100,4,1,0,100,0,0
129223,-100,4,1,0,100,0,1
150322,-100,4,1,0,100,0,0

[HitObjects]
256,192,2629,5,4,0:0:0:0:
256,192,3948,1,2,0:0:0:0:
256,192,5267,1,0,0:0:0:0:
256,192,6585,1,2,0:0:0:0:
256,192,7574,1,2,0:0:0:0:
256,192,7739,1,0,0:0:0:0:
256,192,7904,1,4,0:0:0:0:
256,192,8234,1,2,0:0:0:0:
256,192,8481,1,2,0:0:0:0:
256,192,8728,1,2,0:0:0:0:
256,192,8893,1,0,0:0:0:0:
256,192,9223,1,0,0:0:0:0:
256,192,9553,1,0,0:0:0:0:
256,192,9800,1,0,0:0:0:0:
256,192,10047,1,0,0:0:0:0:
256,192,10212,1,2,0:0:0:0:
256,192,10541,1,0,0:0:0:0:
256,192,10871,1,0,0:0:0:0:
256,192,11036,1,0,0:0:0:0:
256,192,11118,1,0,0:0:0:0:
256,192,11201,1,0,0:0:0:0:
256,192,11530,1,0,0:0:0:0:
256,192,11695,1,0,0:0:0:0:
256,192,11778,1,0,0:0:0:0:
256,192,11860,1,0,0:0:0:0:
256,192,12190,1,2,0:0:0:0:
256,192,12437,1,2,0:0:0:0:
256,192,12684,1,2,0:0:0:0:
256,192,12849,1,6,0:0:0:0:
256,192,13179,1,6,0:0:0:0:
256,192,13509,1,2,0:0:0:0:
256,192,13756,1,2,0:0:0:0:
256,192,14003,1,2,0:0:0:0:
256,192,14168,1,0,0:0:0:0:
256,192,14333,1,0,0:0:0:0:
256,192,14498,1,0,0:0:0:0:
256,192,14827,1,0,0:0:0:0:
256,192,15074,1,0,0:0:0:0:
256,192,15322,1,0,0:0:0:0:
256,192,15487,1,2,0:0:0:0:
256,192,15651,1,2,0:0:0:0:
256,192,15816,1,2,0:0:0:0:
256,192,16146,1,2,0:0:0:0:
256,192,16393,1,2,0:0:0:0:
256,192,16640,1,2,0:0:0:0:
256,192,16805,1,2,0:0:0:0:
256,192,16970,1,2,0:0:0:0:
256,192,17135,1,0,0:0:0:0:
256,192,17465,1,0,0:0:0:0:
256,192,17712,1,0,0:0:0:0:
256,192,17959,1,0,0:0:0:0:
256,192,18124,1,0,0:0:0:0:
256,192,18289,1,0,0:0:0:0:
256,192,18454,1,2,0:0:0:0:
256,192,18783,1,2,0:0:0:0:
256,192,19030,1,0,0:0:0:0:
256,192,19278,1,2,0:0:0:0:
256,192,19443,1,0,0:0:0:0:
256,192,19607,1,0,0:0:0:0:
256,192,19772,1,2,0:0:0:0:
256,192,20102,1,0,0:0:0:0:
256,192,20349,1,2,0:0:0:0:
256,192,20596,1,0,0:0:0:0:
256,192,20761,1,2,0:0:0:0:
256,192,20926,1,2,0:0:0:0:
256,192,21091,1,0,0:0:0:0:
256,192,21421,1,2,0:0:0:0:
256,192,21668,1,0,0:0:0:0:
256,192,21915,1,2,0:0:0:0:
256,192,22080,1,2,0:0:0:0:
256,192,22245,1,2,0:0:0:0:
256,192,22410,1,2,0:0:0:0:
256,192,22739,1,0,0:0:0:0:
256,192,22987,1,2,0:0:0:0:
256,192,23234,1,0,0:0:0:0:
256,192,23399,1,0,0:0:0:0:
256,192,23563,1,0,0:0:0:0:
256,192,23728,1,2,0:0:0:0:
256,192,23893,1,2,0:0:0:0:
256,192,24058,1,2,0:0:0:0:
256,192,24305,1,2,0:0:0:0:
256,192,24552,1,2,0:0:0:0:
256,192,24717,1,0,0:0:0:0:
256,192,25047,1,0,0:0:0:0:
256,192,25212,1,0,0:0:0:0:
256,192,25377,1,0,0:0:0:0:
256,192,25624,1,0,0:0:0:0:
256,192,25871,1,0,0:0:0:0:
256,192,26036,1,2,0:0:0:0:
256,192,26366,1,2,0:0:0:0:
256,192,26530,1,0,0:0:0:0:
256,192,26695,1,2,0:0:0:0:
256,192,26943,1,0,0:0:0:0:
256,192,27190,1,0,0:0:0:0:
256,192,27355,1,0,0:0:0:0:
256,192,27684,1,0,0:0:0:0:
256,192,27849,1,2,0:0:0:0:
256,192,28014,1,0,0:0:0:0:
256,192,28261,1,2,0:0:0:0:
256,192,28509,1,2,0:0:0:0:
256,192,28673,1,2,0:0:0:0:
256,192,29003,1,6,0:0:0:0:
256,192,29333,1,0,0:0:0:0:
256,192,29498,1,0,0:0:0:0:
256,192,29580,1,0,0:0:0:0:
256,192,29662,1,0,0:0:0:0:
256,192,29827,1,0,0:0:0:0:
256,192,29992,1,0,0:0:0:0:
256,192,30322,1,6,0:0:0:0:
256,192,30651,1,0,0:0:0:0:
256,192,30816,1,0,0:0:0:0:
256,192,30899,1,0,0:0:0:0:
256,192,30981,1,0,0:0:0:0:
256,192,31146,1,0,0:0:0:0:
256,192,31311,1,0,0:0:0:0:
256,192,31640,1,6,0:0:0:0:
256,192,31970,1,0,0:0:0:0:
256,192,32135,1,0,0:0:0:0:
256,192,32300,1,6,0:0:0:0:
256,192,32465,1,0,0:0:0:0:
256,192,32629,1,0,0:0:0:0:
256,192,32794,1,0,0:0:0:0:
256,192,32959,2,0,L|320:192,8,35
256,192,33948,1,0,0:0:0:0:
256,192,34113,1,0,0:0:0:0:
256,192,34278,1,4,0:0:0:0:
256,192,34607,1,4,0:0:0:0:
256,192,34937,1,0,0:0:0:0:
256,192,35102,1,2,0:0:0:0:
256,192,35184,1,0,0:0:0:0:
256,192,35267,1,2,0:0:0:0:
256,192,35596,1,0,0:0:0:0:
256,192,35761,1,2,0:0:0:0:
256,192,35926,1,2,0:0:0:0:
256,192,36091,1,0,0:0:0:0:
256,192,36256,1,0,0:0:0:0:
256,192,36421,1,0,0:0:0:0:
256,192,36585,1,2,0:0:0:0:
256,192,36915,1,4,0:0:0:0:
256,192,37244,1,4,0:0:0:0:
256,192,37574,1,0,0:0:0:0:
256,192,37739,1,2,0:0:0:0:
256,192,37821,1,0,0:0:0:0:
256,192,37904,1,2,0:0:0:0:
256,192,38233,1,0,0:0:0:0:
256,192,38399,1,2,0:0:0:0:
256,192,38481,1,0,0:0:0:0:
256,192,38563,1,2,0:0:0:0:
256,192,38728,1,0,0:0:0:0:
256,192,38893,1,2,0:0:0:0:
256,192,39058,1,0,0:0:0:0:
256,192,39222,1,2,0:0:0:0:
256,192,39552,1,4,0:0:0:0:
256,192,39881,1,4,0:0:0:0:
256,192,40211,1,0,0:0:0:0:
256,192,40376,1,2,0:0:0:0:
256,192,40458,1,0,0:0:0:0:
256,192,40541,1,2,0:0:0:0:
256,192,40870,1,0,0:0:0:0:
256,192,41036,1,2,0:0:0:0:
256,192,41200,1,2,0:0:0:0:
256,192,41365,1,0,0:0:0:0:
256,192,41530,1,0,0:0:0:0:
256,192,41695,1,0,0:0:0:0:
256,192,41859,1,2,0:0:0:0:
256,192,42190,1,4,0:0:0:0:
256,192,42520,1,4,0:0:0:0:
256,192,42849,1,0,0:0:0:0:
256,192,43014,1,2,0:0:0:0:
256,192,43096,1,0,0:0:0:0:
256,192,43179,1,2,0:0:0:0:
256,192,43344,1,0,0:0:0:0:
256,192,43509,1,2,0:0:0:0:
256,192,43838,1,2,0:0:0:0:
256,192,44168,1,2,0:0:0:0:
256,192,44498,1,6,0:0:0:0:
256,192,44827,1,4,0:0:0:0:
256,192,45156,1,4,0:0:0:0:
256,192,45486,1,0,0:0:0:0:
256,192,45651,1,2,0:0:0:0:
256,192,45733,1,0,0:0:0:0:
256,192,45816,1,2,0:0:0:0:
256,192,46145,1,0,0:0:0:0:
256,192,46310,1,2,0:0:0:0:
256,192,46475,1,2,0:0:0:0:
256,192,46640,1,0,0:0:0:0:
256,192,46805,1,0,0:0:0:0:
256,192,46970,1,0,0:0:0:0:
256,192,47134,1,2,0:0:0:0:
256,192,47464,1,4,0:0:0:0:
256,192,47793,1,4,0:0:0:0:
256,192,48123,1,0,0:0:0:0:
256,192,48288,1,2,0:0:0:0:
256,192,48370,1,0,0:0:0:0:
256,192,48453,1,2,0:0:0:0:
256,192,48783,1,0,0:0:0:0:
256,192,48947,1,2,0:0:0:0:
256,192,49030,1,0,0:0:0:0:
256,192,49112,1,2,0:0:0:0:
256,192,49277,1,0,0:0:0:0:
256,192,49442,1,2,0:0:0:0:
256,192,49607,1,0,0:0:0:0:
256,192,49772,1,0,0:0:0:0:
256,192,50102,1,4,0:0:0:0:
256,192,50432,1,0,0:0:0:0:
256,192,50596,1,0,0:0:0:0:
256,192,50761,1,2,0:0:0:0:
256,192,50926,1,2,0:0:0:0:
256,192,51091,1,2,0:0:0:0:
256,192,51256,1,2,0:0:0:0:
256,192,51421,1,4,0:0:0:0:
256,192,51750,1,0,0:0:0:0:
256,192,51915,1,0,0:0:0:0:
256,192,52080,1,6,0:0:0:0:
256,192,52327,1,6,0:0:0:0:
256,192,52574,1,6,0:0:0:0:
256,192,52739,1,4,0:0:0:0:
256,192,53069,1,4,0:0:0:0:
256,192,53399,1,0,0:0:0:0:
256,192,53563,1,2,0:0:0:0:
256,192,53646,1,0,0:0:0:0:
256,192,53728,1,2,0:0:0:0:
256,192,53893,1,0,0:0:0:0:
256,192,54058,2,0,L|320:192,8,35
256,192,55047,1,6,0:0:0:0:
256,192,55377,1,4,0:0:0:0:
256,192,55706,1,2,0:0:0:0:
256,192,56036,1,2,0:0:0:0:
256,192,56283,1,2,0:0:0:0:
256,192,56530,1,2,0:0:0:0:
256,192,56695,1,0,0:0:0:0:
256,192,57025,1,2,0:0:0:0:
256,192,57355,1,2,0:0:0:0:
256,192,57602,1,2,0:0:0:0:
256,192,57849,1,2,0:0:0:0:
256,192,58014,1,0,0:0:0:0:
256,192,58344,1,2,0:0:0:0:
256,192,58673,1,0,0:0:0:0:
256,192,58921,1,2,0:0:0:0:
256,192,59168,1,2,0:0:0:0:
256,192,59333,1,2,0:0:0:0:
256,192,59662,1,2,0:0:0:0:
256,192,59992,1,0,0:0:0:0:
256,192,60239,1,2,0:0:0:0:
256,192,60487,1,2,0:0:0:0:
256,192,60651,1,2,0:0:0:0:
256,192,60981,1,2,0:0:0:0:
256,192,61311,1,2,0:0:0:0:
256,192,61476,1,2,0:0:0:0:
256,192,61640,1,0,0:0:0:0:
256,192,61805,1,2,0:0:0:0:
256,192,61970,1,0,0:0:0:0:
256,192,62300,1,2,0:0:0:0:
256,192,62629,1,2,0:0:0:0:
256,192,62794,1,2,0:0:0:0:
256,192,62959,1,0,0:0:0:0:
256,192,63124,1,2,0:0:0:0:
256,192,63289,1,0,0:0:0:0:
256,192,63618,1,2,0:0:0:0:
256,192,63948,1,0,0:0:0:0:
256,192,64113,1,0,0:0:0:0:
256,192,64278,1,2,0:0:0:0:
256,192,64443,1,0,0:0:0:0:
256,192,64607,1,0,0:0:0:0:
256,192,64937,1,2,0:0:0:0:
256,192,65267,1,0,0:0:0:0:
256,192,65432,1,0,0:0:0:0:
256,192,65597,1,2,0:0:0:0:
256,192,65761,1,0,0:0:0:0:
256,192,65926,1,0,0:0:0:0:
256,192,66256,1,0,0:0:0:0:
256,192,66585,1,0,0:0:0:0:
256,192,66915,1,0,0:0:0:0:
256,192,67080,1,2,0:0:0:0:
256,192,67245,1,0,0:0:0:0:
256,192,67574,1,0,0:0:0:0:
256,192,67904,1,0,0:0:0:0:
256,192,68069,1,0,0:0:0:0:
256,192,68151,1,0,0:0:0:0:
256,192,68234,1,0,0:0:0:0:
256,192,68399,1,2,0:0:0:0:
256,192,68563,1,2,0:0:0:0:
256,192,68893,1,2,0:0:0:0:
256,192,69223,1,2,0:0:0:0:
256,192,69552,1,2,0:0:0:0:
256,192,69717,1,0,0:0:0:0:
256,192,69882,1,2,0:0:0:0:
256,192,70212,1,2,0:0:0:0:
256,192,70541,1,2,0:0:0:0:
256,192,70706,1,2,0:0:0:0:
256,192,70789,1,2,0:0:0:0:
256,192,70871,1,2,0:0:0:0:
256,192,71036,1,2,0:0:0:0:
256,192,71201,1,6,0:0:0:0:
256,192,71530,1,0,0:0:0:0:
256,192,71695,1,0,0:0:0:0:
256,192,71860,1,0,0:0:0:0:
256,192,72025,1,0,0:0:0:0:
256,192,72107,1,0,0:0:0:0:
256,192,72190,1,0,0:0:0:0:
256,192,72520,1,6,0:0:0:0:
256,192,72849,1,0,0:0:0:0:
256,192,73014,1,0,0:0:0:0:
256,192,73179,1,0,0:0:0:0:
256,192,73344,1,0,0:0:0:0:
256,192,73426,1,0,0:0:0:0:
256,192,73509,1,0,0:0:0:0:
256,192,73838,1,6,0:0:0:0:
256,192,74168,1,0,0:0:0:0:
256,192,74333,1,0,0:0:0:0:
256,192,74498,1,6,0:0:0:0:
256,192,74662,1,0,0:0:0:0:
256,192,74827,1,0,0:0:0:0:
256,192,74992,1,0,0:0:0:0:
256,192,75157,1,0,0:0:0:0:
256,192,76146,1,2,0:0:0:0:
256,192,76476,1,4,0:0:0:0:
256,192,87025,5,4,0:0:0:0:
256,192,88344,1,0,0:0:0:0:
256,192,89662,1,0,0:0:0:0:
256,192,90981,1,0,0:0:0:0:
256,192,91640,1,2,0:0:0:0:
256,192,92300,1,0,0:0:0:0:
256,192,93289,1,2,0:0:0:0:
256,192,93618,1,0,0:0:0:0:
256,192,94607,1,0,0:0:0:0:
256,192,94937,1,2,0:0:0:0:
256,192,95926,1,2,0:0:0:0:
256,192,96256,1,2,0:0:0:0:
256,192,97574,1,4,0:0:0:0:
256,192,97904,1,2,0:0:0:0:
256,192,98234,1,2,0:0:0:0:
256,192,98563,1,2,0:0:0:0:
256,192,98728,1,2,0:0:0:0:
256,192,98893,1,0,0:0:0:0:
256,192,99223,1,2,0:0:0:0:
256,192,99552,1,0,0:0:0:0:
256,192,99882,1,2,0:0:0:0:
256,192,100047,1,2,0:0:0:0:
256,192,100212,1,0,0:0:0:0:
256,192,100541,1,2,0:0:0:0:
256,192,100871,1,0,0:0:0:0:
256,192,101201,1,0,0:0:0:0:
256,192,101366,1,0,0:0:0:0:
256,192,101530,1,0,0:0:0:0:
256,192,101860,1,0,0:0:0:0:
256,192,102190,1,0,0:0:0:0:
256,192,102520,1,0,0:0:0:0:
256,192,102849,1,6,0:0:0:0:
256,192,103179,1,0,0:0:0:0:
256,192,103344,1,0,0:0:0:0:
256,192,103509,1,0,0:0:0:0:
256,192,103591,1,0,0:0:0:0:
256,192,103673,1,0,0:0:0:0:
256,192,103838,1,0,0:0:0:0:
256,192,104168,1,6,0:0:0:0:
256,192,104498,1,0,0:0:0:0:
256,192,104662,1,0,0:0:0:0:
256,192,104827,1,0,0:0:0:0:
256,192,104910,1,0,0:0:0:0:
256,192,104992,1,0,0:0:0:0:
256,192,105157,1,0,0:0:0:0:
256,192,105487,1,6,0:0:0:0:
256,192,105816,1,0,0:0:0:0:
256,192,105981,1,0,0:0:0:0:
256,192,106146,1,6,0:0:0:0:
256,192,106311,1,0,0:0:0:0:
256,192,106476,1,0,0:0:0:0:
256,192,106640,1,0,0:0:0:0:
256,192,106805,2,0,L|320:192,8,35
256,192,107794,1,4,0:0:0:0:
256,192,108124,1,2,0:0:0:0:
256,192,108454,1,2,0:0:0:0:
256,192,108701,1,2,0:0:0:0:
256,192,108948,1,2,0:0:0:0:
256,192,109113,1,0,0:0:0:0:
256,192,109278,1,0,0:0:0:0:
256,192,109443,1,2,0:0:0:0:
256,192,109772,1,0,0:0:0:0:
256,192,110019,1,0,0:0:0:0:
256,192,110267,1,0,0:0:0:0:
256,192,110432,1,2,0:0:0:0:
256,192,110596,1,2,0:0:0:0:
256,192,110761,1,0,0:0:0:0:
256,192,111091,1,2,0:0:0:0:
256,192,111338,1,2,0:0:0:0:
256,192,111585,1,2,0:0:0:0:
256,192,111750,1,2,0:0:0:0:
256,192,111915,1,2,0:0:0:0:
256,192,112080,1,0,0:0:0:0:
256,192,112410,1,0,0:0:0:0:
256,192,112657,1,0,0:0:0:0:
256,192,112904,1,0,0:0:0:0:
256,192,113069,1,0,0:0:0:0:
256,192,113234,1,0,0:0:0:0:
256,192,113399,1,2,0:0:0:0:
256,192,113728,1,2,0:0:0:0:
256,192,113975,1,0,0:0:0:0:
256,192,114223,1,2,0:0:0:0:
256,192,114388,1,0,0:0:0:0:
256,192,114552,1,0,0:0:0:0:
256,192,114717,1,2,0:0:0:0:
256,192,115047,1,0,0:0:0:0:
256,192,115294,1,2,0:0:0:0:
256,192,115541,1,0,0:0:0:0:
256,192,115706,1,2,0:0:0:0:
256,192,115871,1,2,0:0:0:0:
256,192,116036,1,0,0:0:0:0:
256,192,116366,1,2,0:0:0:0:
256,192,116613,1,0,0:0:0:0:
256,192,116860,1,2,0:0:0:0:
256,192,117025,1,2,0:0:0:0:
256,192,117190,1,2,0:0:0:0:
256,192,117355,1,2,0:0:0:0:
256,192,117684,1,0,0:0:0:0:
256,192,117932,1,2,0:0:0:0:
256,192,118179,1,0,0:0:0:0:
256,192,118344,1,0,0:0:0:0:
256,192,118508,1,0,0:0:0:0:
256,192,118673,1,2,0:0:0:0:
256,192,118838,1,0,0:0:0:0:
256,192,119003,1,2,0:0:0:0:
256,192,119250,1,0,0:0:0:0:
256,192,119497,1,2,0:0:0:0:
256,192,119662,1,0,0:0:0:0:
256,192,119992,1,0,0:0:0:0:
256,192,120157,1,2,0:0:0:0:
256,192,120322,1,0,0:0:0:0:
256,192,120569,1,2,0:0:0:0:
256,192,120816,1,0,0:0:0:0:
256,192,120981,1,2,0:0:0:0:
256,192,121311,1,2,0:0:0:0:
256,192,121475,1,0,0:0:0:0:
256,192,121640,1,2,0:0:0:0:
256,192,121888,1,0,0:0:0:0:
256,192,122135,1,0,0:0:0:0:
256,192,122300,1,2,0:0:0:0:
256,192,122629,1,0,0:0:0:0:
256,192,122794,1,2,0:0:0:0:
256,192,122959,1,0,0:0:0:0:
256,192,123206,1,2,0:0:0:0:
256,192,123454,1,2,0:0:0:0:
256,192,123618,1,0,0:0:0:0:
256,192,123948,1,6,0:0:0:0:
256,192,124278,1,0,0:0:0:0:
256,192,124443,1,0,0:0:0:0:
256,192,124525,1,0,0:0:0:0:
256,192,124607,1,0,0:0:0:0:
256,192,124772,1,0,0:0:0:0:
256,192,124937,1,0,0:0:0:0:
256,192,125267,1,6,0:0:0:0:
256,192,125596,1,0,0:0:0:0:
256,192,125761,1,0,0:0:0:0:
256,192,125844,1,0,0:0:0:0:
256,192,125926,1,0,0:0:0:0:
256,192,126091,1,0,0:0:0:0:
256,192,126256,1,0,0:0:0:0:
256,192,126585,1,6,0:0:0:0:
256,192,126915,1,0,0:0:0:0:
256,192,127080,1,0,0:0:0:0:
256,192,127245,1,6,0:0:0:0:
256,192,127410,1,0,0:0:0:0:
256,192,127574,1,0,0:0:0:0:
256,192,127739,1,0,0:0:0:0:
256,192,127904,2,0,L|320:192,8,35
256,192,128893,1,0,0:0:0:0:
256,192,129058,1,0,0:0:0:0:
256,192,129223,1,6,0:0:0:0:
256,192,129553,1,2,0:0:0:0:
256,192,129800,1,2,0:0:0:0:
256,192,130047,1,2,0:0:0:0:
256,192,130212,1,0,0:0:0:0:
256,192,130294,1,0,0:0:0:0:
256,192,130377,1,0,0:0:0:0:
256,192,130541,1,2,0:0:0:0:
256,192,130871,1,0,0:0:0:0:
256,192,131118,1,0,0:0:0:0:
256,192,131366,1,0,0:0:0:0:
256,192,131531,1,2,0:0:0:0:
256,192,131613,1,2,0:0:0:0:
256,192,131695,1,2,0:0:0:0:
256,192,131860,1,0,0:0:0:0:
256,192,132190,1,2,0:0:0:0:
256,192,132437,1,2,0:0:0:0:
256,192,132684,1,2,0:0:0:0:
256,192,132849,1,2,0:0:0:0:
256,192,132932,1,2,0:0:0:0:
256,192,133014,1,2,0:0:0:0:
256,192,133179,1,0,0:0:0:0:
256,192,133509,1,0,0:0:0:0:
256,192,133756,1,0,0:0:0:0:
256,192,134003,1,0,0:0:0:0:
256,192,134168,1,0,0:0:0:0:
256,192,134250,1,0,0:0:0:0:
256,192,134333,1,0,0:0:0:0:
256,192,134498,1,2,0:0:0:0:
256,192,134827,1,2,0:0:0:0:
256,192,135074,1,0,0:0:0:0:
256,192,135322,1,2,0:0:0:0:
256,192,135487,1,0,0:0:0:0:
256,192,135569,1,0,0:0:0:0:
256,192,135651,1,0,0:0:0:0:
256,192,135816,1,2,0:0:0:0:
256,192,136146,1,0,0:0:0:0:
256,192,136393,1,2,0:0:0:0:
256,192,136640,1,0,0:0:0:0:
256,192,136805,1,2,0:0:0:0:
256,192,136888,1,2,0:0:0:0:
256,192,136970,1,2,0:0:0:0:
256,192,137135,1,0,0:0:0:0:
256,192,137465,1,2,0:0:0:0:
256,192,137712,1,0,0:0:0:0:
256,192,137959,1,2,0:0:0:0:
256,192,138124,1,2,0:0:0:0:
256,192,138206,1,2,0:0:0:0:
256,192,138289,1,2,0:0:0:0:
256,192,138454,1,2,0:0:0:0:
256,192,138783,1,0,0:0:0:0:
256,192,139031,1,2,0:0:0:0:
256,192,139278,1,0,0:0:0:0:
256,192,139443,1,0,0:0:0:0:
256,192,139525,1,0,0:0:0:0:
256,192,139607,1,0,0:0:0:0:
256,192,139772,1,0,0:0:0:0:
256,192,140102,1,2,0:0:0:0:
256,192,140349,1,2,0:0:0:0:
256,192,140596,1,2,0:0:0:0:
256,192,140761,1,0,0:0:0:0:
256,192,141091,1,0,0:0:0:0:
256,192,141421,1,0,0:0:0:0:
256,192,141668,1,0,0:0:0:0:
256,192,141915,1,0,0:0:0:0:
256,192,142080,1,2,0:0:0:0:
256,192,142410,1,2,0:0:0:0:
256,192,142739,1,2,0:0:0:0:
256,192,142987,1,2,0:0:0:0:
256,192,143234,1,2,0:0:0:0:
256,192,143399,1,0,0:0:0:0:
256,192,143728,1,0,0:0:0:0:
256,192,144058,1,0,0:0:0:0:
256,192,144304,1,0,0:0:0:0:
256,192,144552,1,0,0:0:0:0:
256,192,144717,1,2,0:0:0:0:
256,192,145047,1,6,0:0:0:0:
256,192,145212,1,0,0:0:0:0:
256,192,145377,1,0,0:0:0:0:
256,192,145542,1,0,0:0:0:0:
256,192,145624,1,0,0:0:0:0:
256,192,145706,1,0,0:0:0:0:
256,192,145871,1,0,0:0:0:0:
256,192,146036,1,0,0:0:0:0:
256,192,146366,1,6,0:0:0:0:
256,192,146531,1,0,0:0:0:0:
256,192,146695,1,0,0:0:0:0:
256,192,146860,1,0,0:0:0:0:
256,192,146943,1,0,0:0:0:0:
256,192,147025,1,0,0:0:0:0:
256,192,147190,1,0,0:0:0:0:
256,192,147355,1,0,0:0:0:0:
256,192,147684,1,6,0:0:0:0:
256,192,147849,1,0,0:0:0:0:
256,192,148014,1,0,0:0:0:0:
256,192,148179,1,0,0:0:0:0:
256,192,148344,1,6,0:0:0:0:
256,192,148509,1,0,0:0:0:0:
256,192,148673,1,0,0:0:0:0:
256,192,148838,1,0,0:0:0:0:
256,192,149003,2,0,L|320:192,8,35
256,192,149992,1,2,0:0:0:0:
256,192,150074,1,2,0:0:0:0:
256,192,150157,1,2,0:0:0:0:
