osu file format v14

[General]
AudioFilename: audio.mp3
AudioLeadIn: 0
PreviewTime: 13179
Countdown: 0
SampleSet: Normal
StackLeniency: 0.7
Mode: 1
LetterboxInBreaks: 0
WidescreenStoryboard: 0

[Editor]
DistanceSpacing: 1
BeatDivisor: 4
GridSize: 32
TimelineZoom: 1

[Metadata]
Title:forget you
TitleUnicode:forget you
Artist:yuki.
ArtistUnicode:yuki.
Creator:FlamingRok
Version:Futsuu
Source:
Tags:osu!artist
BeatmapID:1259274
BeatmapSetID:595495

[Difficulty]
HPDrainRate:6
CircleSize:5
OverallDifficulty:4
ApproachRate:5
SliderMultiplier:1.4
SliderTickRate:1

[Events]
//Background and Video events
0,0,"59018505_p1.png",0,100
//Break Periods
2,76676,85825
//Storyboard Layer 0 (Background)
//Storyboard Layer 1 (Fail)
//Storyboard Layer 2 (Pass)
//Storyboard Layer 3 (Foreground)
//Storyboard Sound Samples

[TimingPoints]
2629.89809262195,329.67032967033,4,1,0,100,1,0
13179,-100,4,1,0,100,0,1
34278,-100,4,1,0,100,0,0
108124,-100,4,1,0,100,0,1
128893,-100,4,1,0,100,0,0
129223,-100,4,1,0,100,0,1
150322,-100,4,1,0,100,0,0

[HitObjects]
256,192,2629,5,4,0:0:0:0:
256,192,3948,1,0,0:0:0:0:
256,192,5267,1,0,0:0:0:0:
256,192,6585,1,0,0:0:0:0:
256,192,7574,1,0,0:0:0:0:
256,192,7739,1,0,0:0:0:0:
256,192,7904,1,0,0:0:0:0:
256,192,8234,1,0,0:0:0:0:
256,192,8563,1,2,0:0:0:0:
256,192,9223,1,2,0:0:0:0:
256,192,9552,1,2,0:0:0:0:
256,192,9882,1,2,0:0:0:0:
256,192,10541,1,2,0:0:0:0:
256,192,10871,1,0,0:0:0:0:
256,192,11201,1,2,0:0:0:0:
256,192,11530,1,0,0:0:0:0:
256,192,11695,1,0,0:0:0:0:
256,192,11860,2,0,L|320:192,12,35
256,192,13179,1,6,0:0:0:0:
256,192,13838,1,2,0:0:0:0:
256,192,14168,1,0,0:0:0:0:
256,192,14498,1,2,0:0:0:0:
256,192,14827,1,0,0:0:0:0:
256,192,15157,1,2,0:0:0:0:
256,192,15487,1,0,0:0:0:0:
256,192,15816,1,2,0:0:0:0:
256,192,16476,1,0,0:0:0:0:
256,192,16805,1,2,0:0:0:0:
256,192,17135,1,0,0:0:0:0:
256,192,17465,1,2,0:0:0:0:
256,192,17794,1,0,0:0:0:0:
256,192,18124,1,2,0:0:0:0:
256,192,18454,1,2,0:0:0:0:
256,192,19113,1,2,0:0:0:0:
256,192,19443,1,0,0:0:0:0:
256,192,19772,1,2,0:0:0:0:
256,192,20102,1,0,0:0:0:0:
256,192,20432,1,2,0:0:0:0:
256,192,20761,1,0,0:0:0:0:
256,192,21091,1,2,0:0:0:0:
256,192,21750,1,0,0:0:0:0:
256,192,22080,1,2,0:0:0:0:
256,192,22410,1,0,0:0:0:0:
256,192,22739,1,2,0:0:0:0:
256,192,23069,1,0,0:0:0:0:
256,192,23399,1,0,0:0:0:0:
256,192,23563,1,2,0:0:0:0:
256,192,23728,1,2,0:0:0:0:
256,192,24388,1,2,0:0:0:0:
256,192,24552,1,0,0:0:0:0:
256,192,24717,1,0,0:0:0:0:
256,192,25047,1,2,0:0:0:0:
256,192,25706,1,0,0:0:0:0:
256,192,25871,1,2,0:0:0:0:
256,192,26036,1,0,0:0:0:0:
256,192,26366,1,2,0:0:0:0:
256,192,27025,1,0,0:0:0:0:
256,192,27190,1,0,0:0:0:0:
256,192,27355,1,2,0:0:0:0:
256,192,27684,1,2,0:0:0:0:
256,192,28344,1,0,0:0:0:0:
256,192,28509,1,2,0:0:0:0:
256,192,28673,1,0,0:0:0:0:
256,192,29003,1,6,0:0:0:0:
256,192,29662,1,0,0:0:0:0:
256,192,29992,1,0,0:0:0:0:
256,192,30322,1,6,0:0:0:0:
256,192,30981,1,0,0:0:0:0:
256,192,31146,1,0,0:0:0:0:
256,192,31311,1,0,0:0:0:0:
256,192,31640,1,2,0:0:0:0:
256,192,32300,1,2,0:0:0:0:
256,192,32629,1,0,0:0:0:0:
256,192,32794,1,0,0:0:0:0:
256,192,32959,2,0,L|320:192,12,35
256,192,34278,1,4,0:0:0:0:
256,192,34937,1,0,0:0:0:0:
256,192,35267,1,2,0:0:0:0:
256,192,35596,1,0,0:0:0:0:
256,192,36256,1,0,0:0:0:0:
256,192,36585,1,2,0:0:0:0:
256,192,36915,1,0,0:0:0:0:
256,192,37574,1,0,0:0:0:0:
256,192,37904,1,2,0:0:0:0:
256,192,38233,1,0,0:0:0:0:
256,192,38563,1,0,0:0:0:0:
256,192,38728,1,0,0:0:0:0:
256,192,38893,1,0,0:0:0:0:
256,192,39222,1,2,0:0:0:0:
256,192,39552,1,0,0:0:0:0:
256,192,40212,1,0,0:0:0:0:
256,192,40541,1,2,0:0:0:0:
256,192,40870,1,0,0:0:0:0:
256,192,41530,1,0,0:0:0:0:
256,192,41859,1,2,0:0:0:0:
256,192,42189,1,0,0:0:0:0:
256,192,42848,1,0,0:0:0:0:
256,192,43178,1,2,0:0:0:0:
256,192,43509,1,2,0:0:0:0:
256,192,43838,1,2,0:0:0:0:
256,192,44168,1,2,0:0:0:0:
256,192,44498,1,2,0:0:0:0:
256,192,44827,1,4,0:0:0:0:
256,192,45486,1,0,0:0:0:0:
256,192,45816,1,2,0:0:0:0:
256,192,46145,1,0,0:0:0:0:
256,192,46805,1,0,0:0:0:0:
256,192,47134,1,2,0:0:0:0:
256,192,47464,1,0,0:0:0:0:
256,192,48124,1,0,0:0:0:0:
256,192,48453,1,2,0:0:0:0:
256,192,48782,1,0,0:0:0:0:
256,192,49112,1,0,0:0:0:0:
256,192,49277,1,0,0:0:0:0:
256,192,49442,1,0,0:0:0:0:
256,192,49771,1,0,0:0:0:0:
256,192,50102,1,4,0:0:0:0:
256,192,50761,1,2,0:0:0:0:
256,192,50926,1,2,0:0:0:0:
256,192,51091,1,2,0:0:0:0:
256,192,51421,1,4,0:0:0:0:
256,192,52080,1,2,0:0:0:0:
256,192,52410,1,2,0:0:0:0:
256,192,52739,1,4,0:0:0:0:
256,192,53069,1,0,0:0:0:0:
256,192,53399,1,4,0:0:0:0:
256,192,53728,1,0,0:0:0:0:
256,192,53893,1,0,0:0:0:0:
256,192,54058,2,0,L|320:192,12,35
256,192,55377,1,4,0:0:0:0:
256,192,56036,1,2,0:0:0:0:
256,192,56366,1,0,0:0:0:0:
256,192,56695,1,0,0:0:0:0:
256,192,57025,1,0,0:0:0:0:
256,192,57355,1,2,0:0:0:0:
256,192,58014,1,0,0:0:0:0:
256,192,58673,1,2,0:0:0:0:
256,192,59003,1,0,0:0:0:0:
256,192,59333,1,0,0:0:0:0:
256,192,59498,1,0,0:0:0:0:
256,192,59662,1,0,0:0:0:0:
256,192,59992,1,2,0:0:0:0:
256,192,60651,1,0,0:0:0:0:
256,192,61311,1,2,0:0:0:0:
256,192,61640,1,2,0:0:0:0:
256,192,61970,1,0,0:0:0:0:
256,192,62300,1,0,0:0:0:0:
256,192,62629,1,2,0:0:0:0:
256,192,63289,1,0,0:0:0:0:
256,192,63948,1,2,0:0:0:0:
256,192,64278,1,2,0:0:0:0:
256,192,64607,1,0,0:0:0:0:
256,192,64772,1,0,0:0:0:0:
256,192,64937,1,0,0:0:0:0:
256,192,65267,1,2,0:0:0:0:
256,192,65596,1,0,0:0:0:0:
256,192,65926,1,2,0:0:0:0:
256,192,66586,1,0,0:0:0:0:
256,192,66915,1,0,0:0:0:0:
256,192,67080,1,0,0:0:0:0:
256,192,67245,1,0,0:0:0:0:
256,192,67904,1,2,0:0:0:0:
256,192,68234,1,2,0:0:0:0:
256,192,68399,1,2,0:0:0:0:
256,192,68563,1,2,0:0:0:0:
256,192,69223,1,0,0:0:0:0:
256,192,69552,1,2,0:0:0:0:
256,192,69882,1,2,0:0:0:0:
256,192,70212,1,0,0:0:0:0:
256,192,70541,1,2,0:0:0:0:
256,192,70871,1,0,0:0:0:0:
256,192,71201,1,6,0:0:0:0:
256,192,71860,1,0,0:0:0:0:
256,192,72025,1,0,0:0:0:0:
256,192,72190,1,0,0:0:0:0:
256,192,72520,1,6,0:0:0:0:
256,192,73179,1,0,0:0:0:0:
256,192,73509,1,2,0:0:0:0:
256,192,73673,1,2,0:0:0:0:
256,192,73838,1,2,0:0:0:0:
256,192,74498,1,6,0:0:0:0:
256,192,74827,1,2,0:0:0:0:
256,192,75157,1,0,0:0:0:0:
256,192,76476,1,4,0:0:0:0:
256,192,87025,5,4,0:0:0:0:
256,192,88344,1,0,0:0:0:0:
256,192,89662,1,0,0:0:0:0:
256,192,90981,1,0,0:0:0:0:
256,192,92300,1,2,0:0:0:0:
256,192,93289,1,0,0:0:0:0:
256,192,93618,1,2,0:0:0:0:
256,192,94607,1,2,0:0:0:0:
256,192,94937,1,0,0:0:0:0:
256,192,95926,1,0,0:0:0:0:
256,192,96256,1,2,0:0:0:0:
256,192,97245,1,2,0:0:0:0:
256,192,97574,1,4,0:0:0:0:
256,192,98563,1,0,0:0:0:0:
256,192,98728,1,0,0:0:0:0:
256,192,98893,1,2,0:0:0:0:
256,192,99882,1,2,0:0:0:0:
256,192,100047,1,2,0:0:0:0:
256,192,100212,1,0,0:0:0:0:
256,192,101201,1,0,0:0:0:0:
256,192,101366,1,2,0:0:0:0:
256,192,101530,1,2,0:0:0:0:
256,192,102520,1,2,0:0:0:0:
256,192,102684,1,0,0:0:0:0:
256,192,102849,1,6,0:0:0:0:
256,192,103509,1,0,0:0:0:0:
256,192,103838,1,0,0:0:0:0:
256,192,104168,1,6,0:0:0:0:
256,192,104827,1,0,0:0:0:0:
256,192,104992,1,0,0:0:0:0:
256,192,105157,1,0,0:0:0:0:
256,192,105487,1,6,0:0:0:0:
256,192,106146,1,6,0:0:0:0:
256,192,106476,1,0,0:0:0:0:
256,192,106640,1,0,0:0:0:0:
256,192,106805,2,0,L|320:192,12,35
256,192,108124,1,6,0:0:0:0:
256,192,108783,1,2,0:0:0:0:
256,192,109113,1,0,0:0:0:0:
256,192,109443,1,2,0:0:0:0:
256,192,109772,1,0,0:0:0:0:
256,192,110102,1,2,0:0:0:0:
256,192,110432,1,0,0:0:0:0:
256,192,110761,1,2,0:0:0:0:
256,192,111421,1,0,0:0:0:0:
256,192,111750,1,2,0:0:0:0:
256,192,112080,1,0,0:0:0:0:
256,192,112410,1,2,0:0:0:0:
256,192,112739,1,0,0:0:0:0:
256,192,113069,1,2,0:0:0:0:
256,192,113399,1,2,0:0:0:0:
256,192,114058,1,2,0:0:0:0:
256,192,114388,1,0,0:0:0:0:
256,192,114717,1,2,0:0:0:0:
256,192,115047,1,0,0:0:0:0:
256,192,115377,1,2,0:0:0:0:
256,192,115706,1,0,0:0:0:0:
256,192,116036,1,2,0:0:0:0:
256,192,116695,1,0,0:0:0:0:
256,192,117025,1,2,0:0:0:0:
256,192,117355,1,0,0:0:0:0:
256,192,117684,1,2,0:0:0:0:
256,192,118014,1,0,0:0:0:0:
256,192,118344,1,0,0:0:0:0:
256,192,118508,1,2,0:0:0:0:
256,192,118673,1,2,0:0:0:0:
256,192,119333,1,2,0:0:0:0:
256,192,119497,1,0,0:0:0:0:
256,192,119662,1,0,0:0:0:0:
256,192,119992,1,2,0:0:0:0:
256,192,120651,1,0,0:0:0:0:
256,192,120816,1,2,0:0:0:0:
256,192,120981,1,0,0:0:0:0:
256,192,121311,1,2,0:0:0:0:
256,192,121970,1,0,0:0:0:0:
256,192,122135,1,0,0:0:0:0:
256,192,122300,1,2,0:0:0:0:
256,192,122629,1,2,0:0:0:0:
256,192,123289,1,0,0:0:0:0:
256,192,123454,1,2,0:0:0:0:
256,192,123618,1,0,0:0:0:0:
256,192,123948,1,6,0:0:0:0:
256,192,124607,1,0,0:0:0:0:
256,192,124937,1,0,0:0:0:0:
256,192,125267,1,6,0:0:0:0:
256,192,125926,1,0,0:0:0:0:
256,192,126091,1,0,0:0:0:0:
256,192,126256,1,0,0:0:0:0:
256,192,126585,1,2,0:0:0:0:
256,192,127245,1,2,0:0:0:0:
256,192,127574,1,0,0:0:0:0:
256,192,127739,1,0,0:0:0:0:
256,192,127904,2,0,L|320:192,12,35
256,192,129223,1,6,0:0:0:0:
256,192,129882,1,2,0:0:0:0:
256,192,130212,1,0,0:0:0:0:
256,192,130541,1,2,0:0:0:0:
256,192,130871,1,0,0:0:0:0:
256,192,131201,1,2,0:0:0:0:
256,192,131530,1,0,0:0:0:0:
256,192,131695,1,0,0:0:0:0:
256,192,131860,1,0,0:0:0:0:
256,192,132520,1,0,0:0:0:0:
256,192,132849,1,2,0:0:0:0:
256,192,133179,1,0,0:0:0:0:
256,192,133509,1,2,0:0:0:0:
256,192,133673,1,2,0:0:0:0:
256,192,133838,1,2,0:0:0:0:
256,192,134168,1,0,0:0:0:0:
256,192,134498,1,2,0:0:0:0:
256,192,135157,1,2,0:0:0:0:
256,192,135487,1,0,0:0:0:0:
256,192,135816,1,2,0:0:0:0:
256,192,136146,1,0,0:0:0:0:
256,192,136476,1,2,0:0:0:0:
256,192,136805,1,0,0:0:0:0:
256,192,136970,1,0,0:0:0:0:
256,192,137135,1,0,0:0:0:0:
256,192,137794,1,0,0:0:0:0:
256,192,138124,1,2,0:0:0:0:
256,192,138454,1,0,0:0:0:0:
256,192,138783,1,2,0:0:0:0:
256,192,138948,1,2,0:0:0:0:
256,192,139113,1,2,0:0:0:0:
256,192,139443,1,0,0:0:0:0:
256,192,139772,1,6,0:0:0:0:
256,192,140432,1,2,0:0:0:0:
256,192,140761,1,0,0:0:0:0:
256,192,140926,1,0,0:0:0:0:
256,192,141091,1,2,0:0:0:0:
256,192,141421,1,0,0:0:0:0:
256,192,141750,1,2,0:0:0:0:
256,192,142410,1,2,0:0:0:0:
256,192,143069,1,0,0:0:0:0:
256,192,143399,1,2,0:0:0:0:
256,192,143563,1,2,0:0:0:0:
256,192,143728,1,0,0:0:0:0:
256,192,144058,1,2,0:0:0:0:
256,192,144388,1,0,0:0:0:0:
256,192,145047,1,6,0:0:0:0:
256,192,145706,1,0,0:0:0:0:
256,192,146036,1,0,0:0:0:0:
256,192,146366,1,6,0:0:0:0:
256,192,147025,1,0,0:0:0:0:
256,192,147190,1,0,0:0:0:0:
256,192,147355,1,0,0:0:0:0:
256,192,147684,1,6,0:0:0:0:
256,192,148344,1,6,0:0:0:0:
256,192,148673,1,0,0:0:0:0:
256,192,148838,1,0,0:0:0:0:
256,192,149003,2,0,L|320:192,15,35
