osu file format v14

[General]
AudioFilename: audio.mp3
AudioLeadIn: 0
PreviewTime: 62252
Countdown: 1
SampleSet: None
StackLeniency: 0.5
Mode: 0
LetterboxInBreaks: 0
WidescreenStoryboard: 1

[Editor]
Bookmarks: 11658,22036,42793,53171,84307,105063,115442
DistanceSpacing: 1.1
BeatDivisor: 4
GridSize: 8
TimelineZoom: 1.7

[Metadata]
Title:Spring Signal
TitleUnicode:Spring Signal
Artist:yuki.
ArtistUnicode:yuki.
Creator:yaspo
Version:Mermaid bg is cute
Source:
Tags:w
BeatmapID:1764252
BeatmapSetID:843219

[Difficulty]
HPDrainRate:5
CircleSize:4
OverallDifficulty:6.5
ApproachRate:9.2
SliderMultiplier:2
SliderTickRate:1

[Events]
//Background and Video events
0,0,"YaoiForeva.jpg",0,0
//Break Periods
//Storyboard Layer 0 (Background)
//Storyboard Layer 1 (Fail)
//Storyboard Layer 2 (Pass)
//Storyboard Layer 3 (Foreground)
//Storyboard Sound Samples

[TimingPoints]
1280,324.324324324324,4,2,4,60,1,0
6225,-100,4,2,4,5,0,0
6307,-100,4,2,4,60,0,0
6388,-100,4,2,4,5,0,0
6470,-100,4,2,4,60,0,0
11415,-100,4,2,4,5,0,0
11497,-100,4,2,4,60,0,0
11577,-100,4,2,4,5,0,0
11658,-100,4,2,4,75,0,0
16847,-100,4,2,4,75,0,0
16928,-100,4,2,4,5,0,0
17009,-100,4,2,4,75,0,0
17090,-100,4,2,4,5,0,0
17171,-100,4,2,4,75,0,0
17252,-100,4,2,4,5,0,0
17333,-100,4,2,4,75,0,0
17415,-100,4,2,4,5,0,0
17496,-111.111111111111,4,2,4,70,0,0
17577,-111.111111111111,4,2,4,5,0,0
17658,-111.111111111111,4,2,4,70,0,0
17739,-111.111111111111,4,2,4,5,0,0
17820,-111.111111111111,4,2,4,70,0,0
17901,-111.111111111111,4,2,4,5,0,0
17982,-111.111111111111,4,2,4,70,0,0
18063,-111.111111111111,4,2,4,5,0,0
18144,-125,4,2,4,65,0,0
18225,-125,4,2,4,5,0,0
18307,-125,4,2,4,65,0,0
18388,-125,4,2,4,5,0,0
18470,-125,4,2,4,65,0,0
18550,-125,4,2,4,5,0,0
18632,-125,4,2,4,65,0,0
18712,-125,4,2,4,5,0,0
18793,-142.857142857143,4,2,4,60,0,0
18874,-142.857142857143,4,2,4,5,0,0
18955,-142.857142857143,4,2,4,60,0,0
19036,-142.857142857143,4,2,4,5,0,0
19117,-142.857142857143,4,2,4,60,0,0
19198,-142.857142857143,4,2,4,5,0,0
19279,-142.857142857143,4,2,4,60,0,0
19361,-142.857142857143,4,2,4,5,0,0
19442,-142.857142857143,4,2,4,60,0,0
20090,-142.857142857143,4,2,4,55,0,0
20739,-142.857142857143,4,2,4,50,0,0
21712,-181.818181818181,4,2,4,80,0,0
22036,-181.818181818181,4,2,1,50,0,0
42793,-133.333333333333,4,2,1,65,0,0
43198,-133.333333333333,4,2,1,5,0,0
43279,-133.333333333333,4,2,1,65,0,0
43685,-133.333333333333,4,2,1,5,0,0
43766,-133.333333333333,4,2,1,65,0,0
44009,-133.333333333333,4,2,1,5,0,0
44090,-133.333333333333,4,2,1,65,0,0
44496,-133.333333333333,4,2,1,5,0,0
44577,-133.333333333333,4,2,1,65,0,0
44982,-133.333333333333,4,2,1,5,0,0
45063,-133.333333333333,4,2,1,65,0,0
45307,-133.333333333333,4,2,1,5,0,0
45388,-133.333333333333,4,2,1,65,0,0
45793,-133.333333333333,4,2,1,5,0,0
45874,-133.333333333333,4,2,1,65,0,0
46279,-133.333333333333,4,2,1,5,0,0
46360,-133.333333333333,4,2,1,65,0,0
46604,-133.333333333333,4,2,1,5,0,0
46685,-133.333333333333,4,2,1,65,0,0
46928,-133.333333333333,4,2,1,5,0,0
47009,-153.846153846153,4,2,1,65,0,0
47252,-153.846153846153,4,2,1,5,0,0
47334,-181.818181818181,4,2,1,65,0,0
47577,-181.818181818181,4,2,1,5,0,0
47658,-222.222222222221,4,2,1,65,0,0
47982,-133.333333333333,4,2,1,65,0,0
48388,-133.333333333333,4,2,1,5,0,0
48469,-133.333333333333,4,2,1,65,0,0
48874,-133.333333333333,4,2,1,5,0,0
48955,-133.333333333333,4,2,1,65,0,0
49198,-133.333333333333,4,2,1,5,0,0
49279,-133.333333333333,4,2,1,65,0,0
49685,-133.333333333333,4,2,1,5,0,0
49766,-133.333333333333,4,2,1,65,0,0
50171,-133.333333333333,4,2,1,5,0,0
50252,-133.333333333333,4,2,1,65,0,0
50496,-133.333333333333,4,2,1,5,0,0
50577,-133.333333333333,4,2,1,65,0,0
50982,-133.333333333333,4,2,1,5,0,0
51063,-133.333333333333,4,2,1,65,0,0
51469,-133.333333333333,4,2,1,5,0,0
51550,-133.333333333333,4,2,1,65,0,0
51793,-133.333333333333,4,2,1,5,0,0
51874,-133.333333333333,4,2,1,65,0,0
52442,-133.333333333333,4,2,1,5,0,0
52523,-153.846153846153,4,2,1,65,0,0
52766,-153.846153846153,4,2,1,5,0,0
52848,-181.818181818181,4,2,1,65,0,0
53171,-133.333333333333,4,2,4,80,0,0
53415,-133.333333333333,4,2,4,5,0,0
53496,-133.333333333333,4,2,4,80,0,0
54388,-133.333333333333,4,2,4,5,0,0
54469,-133.333333333333,4,2,4,80,0,0
54712,-133.333333333333,4,2,4,5,0,0
54793,-133.333333333333,4,2,4,80,0,0
55685,-133.333333333333,4,2,4,5,0,0
55766,-133.333333333333,4,2,4,80,0,0
56009,-133.333333333333,4,2,4,5,0,0
56090,-133.333333333333,4,2,4,80,0,0
56982,-133.333333333333,4,2,4,5,0,0
57063,-133.333333333333,4,2,4,80,0,0
57307,-133.333333333333,4,2,4,5,0,0
57388,-153.846153846153,4,2,4,80,0,0
57631,-153.846153846153,4,2,4,5,0,0
57713,-181.818181818181,4,2,4,80,0,0
58037,-222.222222222221,4,2,4,80,0,0
58361,-133.333333333333,4,2,4,80,0,0
58442,-133.333333333333,4,2,4,5,0,0
58523,-133.333333333333,4,2,4,80,0,0
58604,-133.333333333333,4,2,4,5,0,0
58685,-133.333333333333,4,2,4,80,0,0
58766,-133.333333333333,4,2,4,5,0,0
58847,-133.333333333333,4,2,4,80,0,0
58928,-133.333333333333,4,2,4,5,0,0
59010,-111.111111111111,4,2,4,70,0,0
59090,-111.111111111111,4,2,4,5,0,0
59171,-111.111111111111,4,2,4,70,0,0
59252,-111.111111111111,4,2,4,5,0,0
59333,-111.111111111111,4,2,4,70,0,0
59415,-111.111111111111,4,2,4,5,0,0
59496,-111.111111111111,4,2,4,70,0,0
59577,-111.111111111111,4,2,4,5,0,0
59658,-125,4,2,4,65,0,0
59739,-125,4,2,4,5,0,0
59820,-125,4,2,4,65,0,0
59901,-125,4,2,4,5,0,0
59982,-125,4,2,4,65,0,0
60063,-125,4,2,4,5,0,0
60144,-125,4,2,4,65,0,0
60225,-125,4,2,4,5,0,0
60307,-142.857142857143,4,2,4,60,0,0
60388,-142.857142857143,4,2,4,5,0,0
60469,-142.857142857143,4,2,4,60,0,0
60550,-142.857142857143,4,2,4,5,0,0
60631,-142.857142857143,4,2,4,60,0,0
60712,-142.857142857143,4,2,4,5,0,0
60793,-142.857142857143,4,2,4,60,0,0
60874,-142.857142857143,4,2,4,5,0,0
60956,-142.857142857143,4,2,4,60,0,0
61604,-142.857142857143,4,2,4,55,0,0
62253,-142.857142857143,4,2,4,50,0,0
63550,-100,4,2,4,80,0,1
63955,-100,4,2,4,5,0,1
64036,-100,4,2,4,80,0,1
65252,-100,4,2,4,5,0,1
65333,-100,4,2,4,80,0,1
65739,-100,4,2,4,5,0,1
65820,-100,4,2,4,80,0,1
66550,-100,4,2,4,5,0,1
66631,-100,4,2,4,80,0,1
68496,-100,4,2,4,5,0,1
68577,-100,4,2,4,80,0,1
68658,-100,4,2,4,5,0,1
68739,-100,4,2,4,80,0,1
69144,-100,4,2,4,5,0,1
69225,-100,4,2,4,80,0,1
70442,-100,4,2,4,5,0,1
70523,-100,4,2,4,80,0,1
70928,-100,4,2,4,5,0,1
71009,-100,4,2,4,80,0,1
71739,-100,4,2,4,5,0,1
71820,-100,4,2,4,80,0,1
72388,-100,4,2,4,5,0,1
72469,-100,4,2,4,80,0,1
72793,-111.111111111111,4,2,4,80,0,1
73117,-125,4,2,4,80,0,1
73604,-100,4,2,4,80,0,1
74334,-100,4,2,4,5,0,1
74415,-100,4,2,4,80,0,1
75631,-100,4,2,4,5,0,1
75712,-100,4,2,4,80,0,1
76117,-100,4,2,4,5,0,1
76198,-100,4,2,4,80,0,1
76928,-100,4,2,4,5,0,1
77009,-100,4,2,4,80,0,1
78874,-100,4,2,4,5,0,1
78955,-100,4,2,4,80,0,1
79036,-100,4,2,4,5,0,1
79117,-100,4,2,4,80,0,1
79527,-100,4,2,4,5,0,1
79608,-100,4,2,4,80,0,1
80820,-100,4,2,4,5,0,1
80901,-100,4,2,4,80,0,1
81307,-100,4,2,4,5,0,1
81388,-100,4,2,4,80,0,1
82117,-100,4,2,4,5,0,1
82198,-100,4,2,4,80,0,1
82766,-100,4,2,4,5,0,1
82847,-100,4,2,4,80,0,1
83171,-111.111111111111,4,2,4,80,0,1
83495,-125,4,2,4,80,0,1
83820,-125,4,2,4,80,0,1
83982,-100,4,2,4,80,0,0
84307,-83.3333333333333,4,2,4,90,0,1
84550,-83.3333333333333,4,2,4,5,0,1
84631,-83.3333333333333,4,2,4,90,0,1
85847,-83.3333333333333,4,2,4,5,0,1
85928,-83.3333333333333,4,2,4,90,0,1
86009,-83.3333333333333,4,2,4,5,0,1
86090,-83.3333333333333,4,2,4,90,0,1
86496,-83.3333333333333,4,2,4,5,0,1
86577,-83.3333333333333,4,2,4,90,0,1
87144,-83.3333333333333,4,2,4,5,0,1
87225,-83.3333333333333,4,2,4,90,0,1
88442,-83.3333333333333,4,2,4,5,0,1
88523,-100,4,2,4,90,0,1
88766,-100,4,2,4,5,0,1
88847,-111.111111111111,4,2,4,90,0,1
89171,-100,4,2,4,90,0,1
89252,-100,4,2,4,5,0,1
89334,-100,4,2,4,90,0,1
89415,-100,4,2,4,5,0,1
89496,-83.3333333333333,4,2,4,90,0,1
89739,-83.3333333333333,4,2,4,5,0,1
89820,-83.3333333333333,4,2,4,90,0,1
91036,-83.3333333333333,4,2,4,5,0,1
91117,-83.3333333333333,4,2,4,90,0,1
91198,-83.3333333333333,4,2,4,5,0,1
91279,-83.3333333333333,4,2,4,90,0,1
91685,-83.3333333333333,4,2,4,5,0,1
91766,-83.3333333333333,4,2,4,90,0,1
92334,-83.3333333333333,4,2,4,5,0,1
92415,-83.3333333333333,4,2,4,90,0,1
93307,-83.3333333333333,4,2,4,5,0,1
93388,-83.3333333333333,4,2,4,90,0,1
93631,-83.3333333333333,4,2,4,5,0,1
93712,-83.3333333333333,4,2,4,90,0,1
93955,-83.3333333333333,4,2,4,5,0,1
94036,-83.3333333333333,4,2,4,90,0,1
94442,-83.3333333333333,4,2,4,5,0,1
94523,-83.3333333333333,4,2,4,90,0,1
94604,-83.3333333333333,4,2,4,5,0,1
94685,-83.3333333333333,4,2,4,90,0,1
94928,-83.3333333333333,4,2,4,5,0,1
95009,-83.3333333333333,4,2,4,90,0,1
96225,-83.3333333333333,4,2,4,5,0,1
96306,-83.3333333333333,4,2,4,90,0,1
96388,-83.3333333333333,4,2,4,5,0,1
96469,-83.3333333333333,4,2,4,90,0,1
96874,-83.3333333333333,4,2,4,5,0,1
96955,-83.3333333333333,4,2,4,90,0,1
97523,-83.3333333333333,4,2,4,5,0,1
97604,-83.3333333333333,4,2,4,90,0,1
98820,-83.3333333333333,4,2,4,5,0,1
98901,-100,4,2,4,90,0,1
99144,-100,4,2,4,5,0,1
99225,-111.111111111111,4,2,4,90,0,1
99549,-100,4,2,4,90,0,1
99874,-83.3333333333333,4,2,4,90,0,1
100117,-83.3333333333333,4,2,4,5,0,1
100198,-83.3333333333333,4,2,4,90,0,1
101415,-83.3333333333333,4,2,4,5,0,1
101496,-83.3333333333333,4,2,4,90,0,1
101577,-83.3333333333333,4,2,4,5,0,1
101658,-83.3333333333333,4,2,4,90,0,1
102063,-83.3333333333333,4,2,4,5,0,1
102144,-83.3333333333333,4,2,4,90,0,1
102712,-83.3333333333333,4,2,4,5,0,1
102793,-83.3333333333333,4,2,4,90,0,1
103685,-83.3333333333333,4,2,4,5,0,1
103766,-83.3333333333333,4,2,4,90,0,1
104009,-83.3333333333333,4,2,4,5,0,1
104090,-83.3333333333333,4,2,4,90,0,1
104334,-83.3333333333333,4,2,4,5,0,1
104415,-83.3333333333333,4,2,4,90,0,1
104820,-83.3333333333333,4,2,4,5,0,1
104901,-83.3333333333333,4,2,4,90,0,1
104982,-83.3333333333333,4,2,4,5,0,1
105063,-100,4,2,4,60,0,0
110009,-100,4,2,4,5,0,0
110090,-100,4,2,4,60,0,0
110171,-100,4,2,4,5,0,0
110252,-100,4,2,4,60,0,0
115198,-100,4,2,4,5,0,0
115279,-100,4,2,4,60,0,0
115361,-100,4,2,4,5,0,0
115442,-100,4,2,4,75,0,0
120631,-100,4,2,4,75,0,0
120712,-100,4,2,4,5,0,0
120793,-100,4,2,4,75,0,0
120874,-100,4,2,4,5,0,0
120955,-100,4,2,4,75,0,0
121036,-100,4,2,4,5,0,0
121117,-100,4,2,4,75,0,0
121198,-100,4,2,4,5,0,0
121280,-111.111111111111,4,2,4,70,0,0
121361,-111.111111111111,4,2,4,5,0,0
121442,-111.111111111111,4,2,4,70,0,0
121523,-111.111111111111,4,2,4,5,0,0
121604,-111.111111111111,4,2,4,70,0,0
121685,-111.111111111111,4,2,4,5,0,0
121766,-111.111111111111,4,2,4,70,0,0
121847,-111.111111111111,4,2,4,5,0,0
121928,-125,4,2,4,65,0,0
122009,-125,4,2,4,5,0,0
122090,-125,4,2,4,65,0,0
122171,-125,4,2,4,5,0,0
122252,-125,4,2,4,65,0,0
122334,-125,4,2,4,5,0,0
122415,-125,4,2,4,65,0,0
122496,-125,4,2,4,5,0,0
122577,-142.857142857143,4,2,4,60,0,0
122658,-142.857142857143,4,2,4,5,0,0
122739,-142.857142857143,4,2,4,60,0,0
122820,-142.857142857143,4,2,4,5,0,0
122901,-142.857142857143,4,2,4,60,0,0
122982,-142.857142857143,4,2,4,5,0,0
123063,-142.857142857143,4,2,4,60,0,0
123144,-142.857142857143,4,2,4,5,0,0
123226,-142.857142857143,4,2,4,60,0,0
123874,-142.857142857143,4,2,4,55,0,0
124523,-142.857142857143,4,2,4,50,0,0
125496,-181.818181818181,4,2,4,80,0,0

[Colours]
Combo1 : 184,156,207
Combo2 : 66,200,210
Combo3 : 56,130,220
Combo4 : 115,97,220
Combo5 : 167,220,235
Combo6 : 154,168,233

[HitObjects]
0,288,1280,5,8,2:3:0:0:
70,384,1442,1,0,0:0:0:0:
117,276,1604,1,8,1:1:0:0:
59,125,1766,1,8,0:0:0:0:
60,137,1847,1,8,0:0:0:0:
63,149,1928,1,8,0:0:0:0:
67,161,2009,1,8,0:0:0:0:
72,172,2090,1,8,0:3:0:0:
117,276,2252,1,8,1:0:0:0:
117,276,2415,1,8,0:0:0:0:
242,322,2577,6,0,L|350:297,1,100,8|0,0:3|0:0,0:0:0:0:
510,200,2901,1,8,1:0:0:0:
439,369,3063,2,8,P|448:337|439:293,1,50
478,352,3225,2,8,P|470:319|440:286,1,50,8|8,0:2|0:2,0:2:0:0:
402,215,3388,1,8,0:3:0:0:
474,50,3550,2,8,P|495:63|512:82,3,50,8|8|8|8,1:1|2:2|0:2|0:2,0:3:0:0:
306,76,3874,6,0,L|172:50,1,100,8|0,0:3|0:0,0:0:0:0:
15,106,4198,1,8,1:0:0:0:
121,0,4361,1,8,0:0:0:0:
107,20,4442,1,8,0:0:0:0:
99,44,4523,1,8,0:0:0:0:
124,160,4685,1,8,0:3:0:0:
28,308,4847,2,8,P|20:285|-4:256,3,50,8|8|8|8,1:0|0:0|0:0|0:0,0:0:0:0:
201,201,5171,6,0,L|302:220,1,100,8|0,0:3|0:0,0:0:0:0:
488,338,5496,1,8,1:0:0:0:
381,199,5658,2,8,P|398:216|411:238,1,50
438,213,5820,2,8,P|438:237|433:262,1,50
404,367,5982,1,8,0:3:0:0:
206,334,6144,2,0,P|197:317|176:290,1,50,8|0,1:0|2:0,0:0:0:0:
268,126,6307,2,0,P|263:107|250:75,1,50,8|0,1:0|2:0,0:0:0:0:
378,84,6469,5,12,0:3:0:0:
421,194,6631,1,0,0:0:0:0:
495,102,6793,1,8,1:0:0:0:
362,10,6955,1,8,0:0:0:0:
368,20,7036,1,8,0:0:0:0:
371,32,7117,1,8,0:0:0:0:
374,45,7198,1,8,0:0:0:0:
375,57,7279,1,8,0:3:0:0:
331,188,7442,1,8,1:0:0:0:
331,188,7604,1,8,0:0:0:0:
248,91,7766,6,0,L|143:112,1,100,8|0,0:3|0:0,0:0:0:0:
0,219,8090,1,8,1:0:0:0:
32,57,8252,2,8,P|49:40|71:27,1,50
53,116,8415,2,8,P|53:91|61:68,1,50
102,198,8577,1,8,0:3:0:0:
73,380,8739,2,0,P|60:358|55:334,3,50,8|8|8|8,1:0|0:0|0:0|0:0,0:0:0:0:
239,250,9063,6,0,L|352:227,1,100,8|0,0:3|0:0,0:0:0:0:
512,98,9388,1,8,1:0:0:0:
356,75,9550,1,8,0:0:0:0:
364,97,9631,1,8,0:0:0:0:
379,118,9712,1,8,0:0:0:0:
459,207,9874,1,8,0:3:0:0:
430,380,10036,2,8,P|444:363|453:333,3,50,8|8|8|8,1:0|0:0|0:0|0:0,0:0:0:0:
256,371,10361,6,0,L|143:348,1,100,8|0,0:3|0:0,0:0:0:0:
0,229,10685,1,8,1:0:0:0:
76,384,10847,2,8,P|67:351|70:325,1,50,8|8,2:0|0:0,0:0:0:0:
24,350,11009,2,8,P|40:319|61:304,1,50,8|8,2:0|2:0,2:0:0:0:
138,242,11171,1,8,0:3:0:0:
301,302,11334,2,0,P|299:273|307:243,1,50,8|0,1:0|0:0,0:0:0:0:
224,107,11496,2,0,P|236:83|253:66,1,50,8|0,1:0|0:0,0:0:0:0:
503,25,11658,5,12,1:0:0:0:
464,128,11820,1,0,0:0:0:0:
274,47,11982,1,8,1:0:0:0:
276,60,12063,1,8,0:0:0:0:
280,72,12144,1,8,0:0:0:0:
380,254,12307,1,8,1:0:0:0:
462,158,12469,1,8,0:3:0:0:
261,206,12631,1,8,1:0:0:0:
253,195,12712,1,8,0:0:0:0:
248,183,12793,1,8,0:0:0:0:
194,377,12955,6,0,B|172:248,1,100,8|0,1:0|0:0,0:0:0:0:
87,111,13279,2,8,P|74:145|74:181,1,50,8|8,1:0|0:0,0:0:0:0:
21,89,13442,2,8,P|24:113|32:137,1,50
12,307,13604,1,8,1:0:0:0:
90,244,13766,1,8,0:3:0:0:
268,307,13928,1,8,1:0:0:0:
270,319,14009,1,8,0:0:0:0:
272,331,14090,1,8,0:0:0:0:
462,367,14252,6,0,L|478:268,1,100,8|0,1:0|0:0,0:0:0:0:
371,111,14577,1,8,1:0:0:0:
370,123,14658,1,8,0:0:0:0:
371,135,14739,1,8,0:0:0:0:
373,148,14820,1,8,0:0:0:0:
377,159,14901,1,8,1:0:0:0:
481,116,15062,1,8,0:3:0:0:
320,235,15225,2,8,P|345:249|372:256,3,50,8|8|8|8,1:0|0:0|0:0|0:0,0:0:0:0:
194,32,15550,6,0,L|210:131,1,100,8|0,1:0|0:0,0:0:0:0:
61,280,15874,2,8,P|74:251|75:219,1,50,8|8,1:0|0:0,0:0:0:0:
116,310,16036,2,8,P|116:285|110:261,1,50
61,102,16198,1,8,1:0:0:0:
6,192,16361,1,8,0:3:0:0:
209,238,16523,1,8,1:0:0:0:
211,250,16604,1,0,0:0:0:0:
213,262,16685,1,0,0:0:0:0:
456,170,16847,6,0,P|480:167|523:174,1,50,14|0,0:3|0:0,0:0:0:0:
325,62,17009,2,0,P|322:38|329:-4,1,50,2|0,0:3|0:0,0:0:0:0:
217,193,17171,2,0,P|193:196|150:189,1,50,10|0,0:3|0:0,0:0:0:0:
348,301,17334,2,0,P|351:325|344:368,1,50,2|0,0:3|0:0,0:0:0:0:
364,76,17496,6,0,P|369:55|388:21,1,44.999998626709,10|0,0:3|0:0,0:0:0:0:
231,154,17658,2,0,P|210:149|176:130,1,44.999998626709,2|0,0:3|0:0,0:0:0:0:
309,287,17820,2,0,P|304:308|285:342,1,44.999998626709,10|0,0:3|0:0,0:0:0:0:
442,209,17983,2,0,P|463:214|497:233,1,44.999998626709,2|0,0:3|0:0,0:0:0:0:
221,105,18144,6,0,P|231:88|240:55,1,40,14|8,0:3|0:0,0:0:0:0:
255,237,18306,2,0,P|271:247|304:256,1,40,2|0,0:3|0:0,0:0:0:0:
122,272,18468,2,0,P|111:288|102:321,1,40,10|0,0:3|0:0,0:0:0:0:
88,139,18631,2,0,P|71:128|38:119,1,40,2|0,0:3|0:0,0:0:0:0:
256,204,18793,6,0,P|275:208|311:205,1,34.9999989318848,10|0,2:3|2:0,2:0:0:0:
155,273,18955,2,0,P|151:291|154:323,1,34.9999989318848,2|0,2:3|2:0,2:0:0:0:
84,171,19117,2,0,P|67:167|34:170,1,34.9999989318848,10|0,2:3|2:0,2:0:0:0:
187,101,19280,2,0,P|190:83|188:50,1,34.9999989318848,2|0,2:3|2:0,2:0:0:0:
301,174,19442,5,14,0:3:0:0:
335,175,19523,1,2,0:3:0:0:
370,177,19604,1,10,0:3:0:0:
405,179,19685,1,2,0:3:0:0:
440,181,19766,1,10,0:3:0:0:
475,183,19847,1,2,0:3:0:0:
510,184,19928,2,0,P|513:167|511:144,1,34.9999989318848,10|2,0:3|0:3,0:0:0:0:
512,304,20090,5,14,0:3:0:0:
484,304,20171,1,2,0:3:0:0:
455,305,20252,1,10,0:3:0:0:
427,307,20333,1,2,0:3:0:0:
398,308,20414,1,10,0:3:0:0:
370,310,20495,1,2,0:3:0:0:
341,311,20577,2,0,P|333:290|332:265,1,34.9999989318848,10|2,0:3|0:3,0:0:0:0:
240,376,20739,5,12,0:3:0:0:
218,376,20820,1,8,0:3:0:0:
195,375,20901,1,8,0:3:0:0:
174,373,20982,1,8,0:3:0:0:
151,372,21063,1,12,0:3:0:0:
129,371,21144,1,8,0:3:0:0:
107,370,21225,1,8,0:3:0:0:
85,370,21307,1,8,0:3:0:0:
62,369,21388,1,12,0:3:0:0:
41,367,21469,1,8,0:3:0:0:
18,366,21550,1,8,0:3:0:0:
36,159,21712,5,6,1:3:0:0:
478,222,22036,5,8,0:0:0:0:
377,202,22198,2,0,P|370:171|368:142,1,55.0000016784668,2|2,0:0|0:0,0:0:0:0:
296,255,22523,1,2,0:0:0:0:
476,237,22847,1,0,0:0:0:0:
376,235,23009,1,0,0:0:0:0:
303,302,23171,1,2,0:0:0:0:
180,242,23334,5,8,0:0:0:0:
109,305,23496,2,0,P|90:275|82:253,3,55.0000016784668,2|0|2|0,0:0|0:0|0:0|0:0,0:0:0:0:
15,379,24144,2,0,P|5:352|2:324,1,55.0000016784668,2|2,0:0|0:0,0:0:0:0:
2,240,24469,1,2,0:0:0:0:
96,103,24631,5,8,0:0:0:0:
166,151,24793,2,0,P|135:179|103:191,3,55.0000016784668,2|0|2|0,0:0|0:0|0:0|0:0,0:0:0:0:
201,236,25442,2,0,P|220:216|233:192,2,55.0000016784668,2|2|2,0:0|0:0|0:0,0:0:0:0:
372,96,25928,5,8,0:0:0:0:
441,155,26090,1,0,0:0:0:0:
308,156,26415,1,2,0:0:0:0:
443,184,26739,1,0,0:0:0:0:
374,220,26901,1,0,0:0:0:0:
307,174,27063,1,2,0:0:0:0:
191,265,27225,5,8,0:0:0:0:
113,197,27387,2,0,P|122:166|135:140,1,55.0000016784668,2|2,0:0|0:0,0:0:0:0:
16,202,27712,1,0,0:0:0:0:
181,276,28036,1,0,0:0:0:0:
96,223,28198,1,0,0:0:0:0:
0,246,28360,1,2,0:0:0:0:
62,75,28523,5,8,0:0:0:0:
152,71,28685,2,0,P|143:35|129:4,2,55.0000016784668
182,195,29171,1,8,0:0:0:0:
260,239,29334,2,0,P|269:213|275:186,2,55.0000016784668,2|0|0,0:0|0:0|0:0,0:0:0:0:
425,25,29820,5,8,0:0:0:0:
347,69,29983,2,0,P|337:43|331:16,3,55.0000016784668,2|0|0|0,0:0|0:0|0:0|0:0,0:0:0:0:
255,95,30631,2,0,P|267:119|283:141,2,55.0000016784668,0|2|2,0:0|0:0|0:0,0:0:0:0:
83,102,31117,5,8,0:0:0:0:
31,176,31279,1,0,0:0:0:0:
160,143,31604,1,2,0:0:0:0:
37,205,31928,1,0,0:0:0:0:
113,222,32090,1,0,0:0:0:0:
165,160,32252,1,2,0:0:0:0:
290,228,32415,5,8,0:0:0:0:
368,160,32577,2,0,P|358:129|345:103,1,55.0000016784668,2|2,0:0|0:0,0:0:0:0:
465,165,32902,1,2,0:0:0:0:
300,239,33226,1,0,0:0:0:0:
385,186,33388,1,0,0:0:0:0:
481,209,33550,1,2,0:0:0:0:
427,339,33712,5,8,0:0:0:0:
338,359,33874,2,0,P|349:320|351:282,1,55.0000016784668,2|0,0:0|0:0,0:0:0:0:
214,231,34198,2,0,P|218:258|226:284,1,55.0000016784668,2|0,0:0|0:0,0:0:0:0:
378,332,34523,2,0,P|378:291|371:254,1,55.0000016784668,0|2,0:0|0:0,0:0:0:0:
364,198,34847,1,2,0:0:0:0:
218,143,35009,5,8,0:0:0:0:
137,170,35171,2,0,P|134:201|124:228,1,55.0000016784668,2|0,0:0|0:0,0:0:0:0:
14,322,35496,2,0,P|5:295|3:268,1,55.0000016784668,2|0,0:0|0:0,0:0:0:0:
106,132,35820,2,0,P|118:160|122:188,1,55.0000016784668,0|2,0:0|0:0,0:0:0:0:
149,300,36144,1,2,0:0:0:0:
322,258,36307,5,8,0:0:0:0:
374,332,36469,1,0,0:0:0:0:
245,299,36794,1,2,0:0:0:0:
368,361,37118,1,0,0:0:0:0:
292,378,37280,1,0,0:0:0:0:
240,316,37442,1,2,0:0:0:0:
198,171,37604,5,8,0:0:0:0:
120,239,37766,2,0,P|130:270|143:296,1,55.0000016784668,2|2,0:0|0:0,0:0:0:0:
23,234,38091,1,2,0:0:0:0:
188,160,38415,1,0,0:0:0:0:
103,213,38577,1,0,0:0:0:0:
7,190,38739,1,2,0:0:0:0:
78,46,38901,5,8,0:0:0:0:
171,28,39063,2,0,P|157:54|153:80,1,55.0000016784668,2|0,0:0|0:0,0:0:0:0:
272,171,39388,2,0,P|271:141|261:116,1,55.0000016784668,2|0,0:0|0:0,0:0:0:0:
100,122,39712,2,0,P|129:121|154:111,1,55.0000016784668,0|2,0:0|0:0,0:0:0:0:
310,44,40036,1,2,0:0:0:0:
464,144,40198,5,8,0:0:0:0:
371,126,40360,2,0,P|385:152|389:178,1,55.0000016784668,2|0,0:0|0:0,0:0:0:0:
270,269,40685,2,0,P|271:239|281:214,1,55.0000016784668,2|0,0:0|0:0,0:0:0:0:
442,220,41009,2,0,P|413:219|388:209,1,55.0000016784668,0|2,0:0|0:0,0:0:0:0:
232,142,41333,1,2,0:0:0:0:
105,213,41496,5,8,0:0:0:0:
23,182,41658,2,0,P|18:172|18:163,6,13.7500004196167,2|0|0|0|0|0|0,0:0|0:0|0:0|0:0|0:0|0:0|0:0,0:0:0:0:
47,274,41982,2,0,P|37:267|33:260,6,13.7500004196167,2|0|0|0|0|0|0,0:0|0:0|0:0|0:0|0:0|0:0|0:0,0:0:0:0:
7,371,42307,1,0,0:0:0:0:
96,334,42469,1,0,0:0:0:0:
210,367,42631,2,0,L|237:371,1,27.5000008392334,2|2,0:0|0:0,0:0:0:0:
459,366,42793,6,0,P|484:278|475:158,1,187.500007152558,14|0,0:0|0:0,0:0:0:0:
400,175,43279,2,0,P|343:104|240:46,1,187.500007152558,2|0,0:0|0:0,0:0:0:0:
187,120,43766,2,0,P|165:76|179:0,1,112.500004291535,2|0,0:0|0:0,0:0:0:0:
19,127,44090,6,0,P|105:115|203:151,1,187.500007152558,10|0,0:0|0:0,0:0:0:0:
270,121,44577,2,0,P|347:188|376:287,1,187.500007152558,2|0,0:0|0:0,0:0:0:0:
480,373,45063,2,0,P|455:305|462:244,1,112.500004291535,2|0,0:0|0:0,0:0:0:0:
456,380,45388,6,0,P|418:317|304:269,1,187.500007152558,8|0,0:0|0:0,0:0:0:0:
262,212,45874,2,0,P|189:213|89:288,1,187.500007152558,2|0,0:0|0:0,0:0:0:0:
16,346,46361,2,0,P|-5:287|4:229,1,112.500004291535,2|0,0:0|0:0,0:0:0:0:
82,155,46685,6,0,P|46:111|-3:87,1,112.500004291535,10|0,0:0|0:0,0:0:0:0:
169,179,47009,2,0,P|159:122|129:77,1,97.4999955368044,2|0,0:0|0:0,0:0:0:0:
233,234,47334,2,0,P|250:188|247:141,1,82.5000025177003,2|0,0:0|0:0,0:0:0:0:
282,300,47658,2,0,P|306:279|320:251,1,44.999998626709,2|0,0:0|0:0,0:0:0:0:
512,99,47982,6,0,P|453:157|336:170,1,187.500007152558,8|0,0:0|0:0,0:0:0:0:
277,200,48469,2,0,P|195:163|124:67,1,187.500007152558,2|0,0:0|0:0,0:0:0:0:
37,105,48955,2,0,P|46:50|81:7,1,112.500004291535,2|0,0:0|0:0,0:0:0:0:
0,175,49279,6,0,P|71:129|175:144,1,187.500007152558,10|0,0:0|0:0,0:0:0:0:
182,156,49766,1,2,0:0:0:0:
299,110,49928,2,0,P|350:152|374:221,1,112.500004291535,8|0,0:0|0:0,0:0:0:0:
432,345,50252,2,0,P|449:292|442:237,1,112.500004291535,2|0,0:0|0:0,0:0:0:0:
461,349,50577,6,0,P|357:369|261:321,1,187.500007152558,10|0,0:0|0:0,0:0:0:0:
206,370,51063,2,0,P|139:313|98:219,1,187.500007152558,2|0,0:0|0:0,0:0:0:0:
27,156,51550,2,0,P|79:127|137:134,1,112.500004291535,2|0,0:0|0:0,0:0:0:0:
254,191,51874,1,8,0:0:0:0:
398,97,52198,6,0,P|418:43|414:-10,1,112.500004291535,2|0,0:0|0:0,0:0:0:0:
420,184,52522,2,0,P|464:146|488:98,1,112.500004291535,2|0,0:0|0:0,0:0:0:0:
405,267,52847,2,0,P|453:258|492:232,1,64.9999970245363,2|0,0:0|0:0,0:0:0:0:
304,376,53171,6,0,L|323:256,1,112.500004291535,14|0,0:1|0:0,0:0:0:0:
250,197,53496,2,0,P|217:178|190:152,1,75.0000028610231,10|0,0:1|0:0,0:0:0:0:
296,9,53820,1,10,0:1:0:0:
282,102,53982,1,8,0:3:0:0:
104,151,54144,2,0,P|70:92|61:38,1,112.500004291535,8|0,0:1|0:0,0:0:0:0:
11,190,54469,6,0,L|28:301,1,112.500004291535,10|0,0:1|0:0,0:0:0:0:
111,347,54793,2,0,P|147:337|179:319,1,75.0000028610231,10|8,0:1|0:0,0:0:0:0:
201,237,55036,1,8,0:0:0:0:
201,237,55117,2,0,P|192:213|190:189,1,37.5000014305115,8|8,0:1|0:0,0:0:0:0:
189,117,55279,1,8,0:3:0:0:
264,307,55442,2,0,P|305:252|321:207,1,112.500004291535,10|0,0:1|0:0,0:0:0:0:
375,57,55766,6,0,L|392:168,1,112.500004291535,10|0,0:1|0:0,0:0:0:0:
432,240,56090,2,0,P|465:237|508:221,1,75.0000028610231,10|8,0:1|0:0,0:0:0:0:
499,257,56334,1,8,0:0:0:0:
492,290,56415,1,8,0:1:0:0:
483,322,56496,1,8,0:0:0:0:
473,354,56577,1,8,0:3:0:0:
316,364,56739,2,0,P|290:299|286:252,1,112.500004291535,10|0,0:1|0:0,0:0:0:0:
245,93,57063,6,0,P|289:56|312:8,1,112.500004291535,10|0,0:1|0:0,0:0:0:0:
222,179,57387,2,0,P|279:168|323:138,1,112.500004291535,10|0,0:1|0:0,0:0:0:0:
183,254,57712,1,8,0:1:0:0:
133,183,57874,1,8,0:3:0:0:
50,325,58036,2,0,P|16:311|-16:286,1,55.0000016784668,10|0,0:1|0:0,0:0:0:0:
0,114,58361,6,0,P|1:90|11:66,1,37.5000014305115,14|0,0:3|0:3,0:3:0:0:
141,21,58523,2,0,P|158:5|181:-2,1,37.5000014305115,2|0,0:3|0:3,0:3:0:0:
305,55,58685,2,0,P|328:56|351:66,1,37.5000014305115,10|0,0:3|0:3,0:3:0:0:
398,196,58847,2,0,P|412:213|421:236,1,37.5000014305115,2|0,0:3|0:3,0:3:0:0:
156,49,59009,6,0,P|171:35|191:26,1,37.5000014305115,10|0,0:3|0:3,0:3:0:0:
299,78,59171,2,0,P|320:79|341:88,1,44.999998626709,2|0,0:3|0:3,0:3:0:0:
379,199,59333,2,0,P|393:215|402:237,1,44.999998626709,10|0,0:3|0:3,0:3:0:0:
349,343,59495,2,0,P|346:363|337:385,1,44.999998626709,2|0,0:3|0:3,0:3:0:0:
505,179,59658,6,0,P|502:159|496:140,1,40,14|0,0:3|0:3,0:3:0:0:
397,108,59820,2,0,P|380:92|360:86,1,40,2|0,0:3|0:3,0:3:0:0:
273,133,59982,2,0,P|252:134|234:142,1,40,10|0,0:3|0:3,0:3:0:0:
202,240,60144,2,0,P|188:254|180:274,1,40,2|0,0:3|0:3,0:3:0:0:
383,133,60307,6,0,P|372:117|358:105,1,34.9999989318848,10|0,0:3|0:3,0:3:0:0:
270,124,60469,2,0,P|251:119|234:122,1,34.9999989318848,2|0,0:3|0:3,0:3:0:0:
187,196,60631,2,0,P|168:206|156:224,1,34.9999989318848,10|0,0:3|0:3,0:3:0:0:
180,309,60793,2,0,P|176:325|178:344,1,34.9999989318848,2|0,0:3|0:3,0:3:0:0:
26,176,60955,5,14,0:3:0:0:
68,164,61036,1,2,0:3:0:0:
111,161,61117,1,10,0:3:0:0:
154,168,61198,1,2,0:3:0:0:
195,183,61279,1,10,0:3:0:0:
232,206,61360,1,2,0:3:0:0:
264,236,61442,2,0,P|272:208|272:184,1,34.9999989318848,10|2,3:0|3:0,3:0:0:0:
464,228,61604,5,14,0:3:0:0:
433,219,61685,1,2,0:3:0:0:
401,216,61766,1,10,0:3:0:0:
369,222,61847,1,2,0:3:0:0:
339,233,61928,1,10,0:3:0:0:
311,250,62009,1,2,0:3:0:0:
288,272,62090,2,0,P|280:244|280:220,1,34.9999989318848,10|2,3:0|3:0,3:0:0:0:
144,261,62252,5,4,0:3:0:0:
170,267,62334,1,8,0:3:0:0:
189,285,62415,1,8,0:3:0:0:
196,310,62496,1,8,0:3:0:0:
190,335,62577,1,12,0:3:0:0:
170,350,62658,1,8,0:3:0:0:
144,348,62739,1,8,0:3:0:0:
124,331,62820,1,8,0:3:0:0:
127,312,62901,1,12,0:3:0:0:
145,305,62982,1,8,0:3:0:0:
161,316,63063,1,8,0:3:0:0:
157,334,63144,1,8,0:3:0:0:
140,341,63225,1,12,0:3:0:0:
512,167,63550,5,12,0:3:0:0:
456,78,63712,1,2,0:0:0:0:
258,228,63874,2,0,P|244:194|240:152,1,50,10|0,1:0|0:0,0:0:0:0:
344,8,64036,1,8,0:0:0:0:
353,44,64117,1,8,0:0:0:0:
358,81,64198,1,8,0:0:0:0:
358,118,64279,1,8,0:0:0:0:
352,155,64360,1,8,0:3:0:0:
182,90,64523,2,0,P|131:88|82:103,1,100,10|2,1:0|0:0,0:0:0:0:
0,297,64847,5,8,0:3:0:0:
41,216,65009,1,0,0:0:0:0:
242,320,65171,2,0,P|254:292|254:262,1,50,10|0,1:0|0:0,0:0:0:0:
187,109,65334,1,8,0:0:0:0:
193,129,65415,1,10,0:0:0:0:
340,237,65577,1,8,0:0:0:0:
334,257,65658,2,8,P|319:277|298:291,1,50,8|0,0:3|0:0,0:0:0:0:
130,368,65820,2,0,P|126:311|146:250,1,100,10|2,1:0|0:0,0:0:0:0:
251,43,66144,5,8,0:3:0:0:
282,141,66307,1,2,0:0:0:0:
512,34,66469,2,0,P|513:64|510:83,1,50,10|0,1:0|0:0,0:0:0:0:
461,257,66631,1,8,0:0:0:0:
433,231,66712,1,8,0:0:0:0:
412,200,66793,1,8,0:0:0:0:
399,165,66874,1,8,0:0:0:0:
393,128,66955,1,8,0:3:0:0:
302,279,67117,2,0,P|243:274|186:241,1,100,10|2,1:0|0:0,0:0:0:0:
72,112,67442,5,8,0:3:0:0:
31,200,67604,1,2,0:0:0:0:
195,76,67766,2,0,P|215:126|227:184,1,100,10|8,1:0|0:0,0:0:0:0:
119,245,68009,1,10,0:0:0:0:
119,245,68090,2,0,P|124:221|135:198,1,50,8|8,0:0|0:0,0:0:0:0:
233,355,68252,1,8,0:3:0:0:
428,292,68415,2,0,P|416:264|384:233,1,50,10|0,1:0|0:0,0:0:0:0:
451,86,68577,2,0,P|427:68|383:56,1,50,10|0,1:0|0:0,0:0:0:0:
299,41,68739,5,12,0:3:0:0:
261,130,68901,1,2,0:0:0:0:
493,190,69063,2,0,P|495:214|491:239,1,50,10|0,1:0|0:0,0:0:0:0:
333,358,69225,1,8,0:0:0:0:
329,320,69306,1,8,0:0:0:0:
334,283,69387,1,8,0:0:0:0:
347,248,69468,1,8,0:0:0:0:
366,216,69549,1,8,0:3:0:0:
218,329,69712,2,0,P|167:338|106:316,1,100,10|2,1:0|0:0,0:0:0:0:
45,138,70036,5,8,0:3:0:0:
9,231,70198,1,2,0:0:0:0:
253,171,70361,2,0,P|247:139|234:108,1,50,10|0,1:0|0:0,0:0:0:0:
96,29,70523,1,8,0:0:0:0:
103,52,70604,1,10,0:0:0:0:
185,214,70766,1,8,0:0:0:0:
181,235,70847,2,0,P|171:257|153:283,1,50,8|0,0:3|0:0,0:0:0:0:
0,346,71009,2,0,P|-6:286|17:223,1,100,10|2,1:0|0:0,0:0:0:0:
263,160,71333,5,8,0:3:0:0:
276,263,71496,1,2,0:0:0:0:
502,346,71658,2,0,P|506:318|506:297,1,50,10|0,1:0|0:0,0:0:0:0:
435,83,71820,1,8,0:0:0:0:
412,113,71901,1,8,0:0:0:0:
398,148,71982,1,8,0:0:0:0:
392,185,72063,1,8,0:0:0:0:
392,222,72144,1,8,0:3:0:0:
240,376,72307,2,0,P|228:349|223:329,1,50,10|0,1:0|0:0,0:0:0:0:
231,114,72469,6,0,P|244:74|297:0,1,100,2|8,0:0|0:3,0:0:0:0:
101,187,72793,2,0,P|85:156|73:84,1,89.9999972534181,2|8,0:0|1:0,0:0:0:0:
69,339,73117,2,0,P|42:330|-6:295,1,80,2|0,0:0|0:0,0:0:0:0:
243,336,73442,1,8,0:3:0:0:
242,136,73604,1,10,1:0:0:0:
233,159,73685,1,8,0:0:0:0:
229,184,73766,1,10,0:0:0:0:
502,202,73928,5,12,0:3:0:0:
465,113,74090,1,2,0:0:0:0:
278,204,74252,2,0,P|285:233|304:275,1,50,10|0,1:0|0:0,0:0:0:0:
467,360,74415,1,8,0:0:0:0:
462,322,74496,1,8,0:0:0:0:
446,289,74577,1,8,0:0:0:0:
421,261,74658,1,8,0:0:0:0:
388,244,74739,1,8,0:3:0:0:
223,352,74901,2,0,P|160:356|111:326,1,100,10|2,1:0|0:0,0:0:0:0:
26,137,75225,5,8,0:3:0:0:
5,233,75387,1,0,0:0:0:0:
242,172,75550,2,0,P|241:202|234:234,1,50,10|0,1:0|0:0,0:0:0:0:
105,354,75712,1,8,0:0:0:0:
98,338,75793,1,10,0:0:0:0:
209,198,75955,1,8,0:0:0:0:
202,182,76036,2,0,P|200:162|189:133,1,50,8|0,0:3|0:0,0:0:0:0:
40,49,76198,2,0,P|31:96|35:148,1,100,10|2,1:0|0:0,0:0:0:0:
175,306,76522,5,8,0:3:0:0:
219,219,76685,1,2,0:0:0:0:
452,306,76847,2,0,P|462:274|465:239,1,50,10|0,1:0|0:0,0:0:0:0:
334,76,77009,1,8,0:0:0:0:
326,112,77090,1,8,0:0:0:0:
328,149,77171,1,8,0:0:0:0:
340,185,77252,1,8,0:0:0:0:
360,216,77333,1,8,0:3:0:0:
214,101,77495,2,0,P|164:80|91:88,1,100,10|2,1:0|0:0,0:0:0:0:
25,352,77820,5,8,0:3:0:0:
0,262,77982,1,2,0:0:0:0:
148,165,78144,2,0,P|142:218|119:269,1,100,10|8,1:0|0:0,0:0:0:0:
181,356,78387,1,10,0:0:0:0:
181,356,78468,2,0,P|182:338|195:309,1,50,8|8,0:2|0:0,0:0:0:0:
406,357,78630,1,8,0:3:0:0:
242,238,78793,2,0,P|234:214|233:170,1,50,10|0,1:0|0:0,0:0:0:0:
325,48,78955,2,0,P|330:23|351:-15,1,50,2|0,0:0|0:0,0:0:0:0:
512,193,79117,5,12,0:3:0:0:
474,292,79279,1,2,0:0:0:0:
253,194,79442,2,0,P|257:169|268:147,1,50,10|0,1:0|0:0,0:0:0:0:
450,72,79604,1,8,0:0:0:0:
444,108,79685,1,8,0:0:0:0:
426,141,79766,1,8,0:0:0:0:
397,165,79847,1,8,0:0:0:0:
362,176,79928,1,8,0:3:0:0:
229,47,80090,2,0,P|177:41|130:54,1,100,10|0,1:0|0:0,0:0:0:0:
2,253,80414,5,8,0:3:0:0:
24,159,80576,1,0,0:0:0:0:
257,214,80739,2,0,P|255:238|247:262,1,50,10|0,1:0|0:0,0:0:0:0:
42,325,80901,1,8,0:0:0:0:
48,348,80982,1,10,0:0:0:0:
121,154,81144,1,8,0:0:0:0:
109,170,81225,2,0,P|104:198|105:219,1,50,8|0,0:3|0:0,0:0:0:0:
247,371,81387,2,0,P|266:328|261:243,1,100,10|2,1:0|0:0,0:0:0:0:
264,85,81711,5,8,0:3:0:0:
248,184,81874,1,2,0:0:0:0:
491,155,82036,2,0,P|492:180|490:205,1,50,10|0,1:0|0:0,0:0:0:0:
404,372,82198,1,8,0:0:0:0:
376,346,82279,1,8,0:0:0:0:
356,314,82360,1,8,0:0:0:0:
346,278,82441,1,8,0:0:0:0:
350,240,82522,1,8,0:3:0:0:
237,348,82685,2,0,P|224:325|214:289,1,50,10|0,1:0|0:0,0:0:0:0:
231,114,82847,6,0,P|244:74|297:0,1,100,2|8,0:0|0:3,0:0:0:0:
101,187,83171,2,0,P|85:156|73:84,1,89.9999972534181,2|8,0:0|1:0,0:0:0:0:
69,339,83495,2,0,P|42:330|-6:295,1,80,2|0,0:0|0:0,0:0:0:0:
243,336,83820,1,8,0:3:0:0:
242,136,83982,1,10,0:1:0:0:
233,159,84063,1,8,0:0:0:0:
229,184,84144,1,10,0:0:0:0:
176,42,84307,6,0,P|238:17|349:22,1,179.999994506836,12|0,0:3|0:0,0:0:0:0:
470,118,84631,1,8,1:1:0:0:
439,269,84793,1,10,0:0:0:0:
397,251,84874,1,8,0:0:0:0:
363,222,84955,1,8,0:0:0:0:
337,186,85036,1,8,0:0:0:0:
322,143,85117,1,8,0:3:0:0:
206,296,85279,2,0,P|136:314|78:313,1,119.999996337891,10|2,1:1|0:0,0:0:0:0:
0,55,85604,6,0,P|0:141|65:221,1,179.999994506836,8|0,0:3|0:0,0:0:0:0:
187,282,85928,2,0,P|194:242|195:194,1,59.9999981689454,10|0,1:1|0:0,0:0:0:0:
187,55,86090,1,8,0:0:0:0:
179,75,86171,1,10,0:0:0:0:
327,242,86334,1,8,0:0:0:0:
336,224,86415,2,0,P|331:187|319:152,1,59.9999981689454,8|0,0:3|0:0,0:0:0:0:
109,0,86577,2,0,P|85:57|84:122,1,119.999996337891,10|2,1:1|0:0,0:0:0:0:
215,218,86901,6,0,P|246:127|315:59,1,179.999994506836,8|0,0:3|0:0,0:0:0:0:
448,37,87225,1,8,1:1:0:0:
510,207,87388,1,10,0:0:0:0:
465,214,87469,1,8,0:0:0:0:
421,211,87550,1,8,0:0:0:0:
378,198,87631,1,8,0:0:0:0:
340,174,87712,1,8,0:3:0:0:
373,382,87874,2,0,P|357:298|304:247,1,119.999996337891,10|2,1:1|0:0,0:0:0:0:
108,151,88198,6,0,P|165:108|195:4,1,179.999994506836,8|0,0:3|0:0,0:0:0:0:
76,257,88523,2,0,P|142:248|212:199,1,150,10|0,1:1|0:0,0:0:0:0:
23,340,88847,2,0,P|64:353|128:345,1,89.9999972534181,2|8,0:0|0:3,0:0:0:0:
217,373,89090,1,0,0:0:0:0:
217,373,89171,2,0,P|207:334|206:309,1,50,10|0,1:1|0:0,0:0:0:0:
325,210,89334,2,0,P|327:181|335:162,1,50,10|0,1:1|0:0,0:0:0:0:
460,316,89496,6,0,P|506:235|510:134,1,179.999994506836,12|0,0:3|0:0,0:0:0:0:
458,17,89820,1,8,1:1:0:0:
412,163,89982,1,10,0:0:0:0:
368,174,90063,1,8,0:0:0:0:
324,171,90144,1,8,0:0:0:0:
282,153,90225,1,8,0:0:0:0:
249,122,90306,1,8,0:3:0:0:
219,288,90468,2,0,P|198:201|153:162,1,119.999996337891,10|2,1:0|0:0,0:0:0:0:
0,36,90793,6,0,P|54:106|52:237,1,179.999994506836,8|0,0:3|0:0,0:0:0:0:
0,331,91117,2,0,P|1:294|13:258,1,59.9999981689454,8|0,1:0|0:0,0:0:0:0:
162,135,91279,1,8,0:0:0:0:
155,160,91360,1,8,0:0:0:0:
282,338,91523,1,8,0:0:0:0:
297,326,91604,2,0,P|302:288|297:262,1,59.9999981689454,8|0,0:3|0:0,0:0:0:0:
96,276,91766,2,0,P|116:351|151:385,1,119.999996337891,10|2,1:0|0:0,0:0:0:0:
402,309,92090,6,0,P|381:223|418:124,1,179.999994506836,8|0,0:3|0:0,0:0:0:0:
512,37,92414,1,8,1:0:0:0:
418,149,92577,1,10,0:0:0:0:
373,150,92658,1,8,0:0:0:0:
331,136,92739,1,8,0:0:0:0:
297,107,92820,1,8,0:0:0:0:
276,67,92901,1,8,0:3:0:0:
199,232,93063,1,8,1:0:0:0:
0,141,93225,6,0,P|24:110|70:83,1,59.9999981689454,2|0,0:0|0:0,0:0:0:0:
173,39,93388,1,8,0:3:0:0:
77,196,93550,2,0,P|114:181|167:181,1,59.9999981689454,2|0,0:0|0:0,0:0:0:0:
247,189,93713,1,8,1:0:0:0:
160,274,93874,2,0,P|199:280|245:306,1,59.9999981689454,2|0,0:0|0:0,0:0:0:0:
296,341,94037,1,2,0:0:0:0:
167,369,94198,1,8,0:3:0:0:
400,384,94361,2,0,P|409:351|405:320,1,59.9999981689454,10|0,1:0|0:0,0:0:0:0:
499,167,94523,2,0,P|474:142|446:130,1,59.9999981689454,10|0,1:0|0:0,0:0:0:0:
216,4,94685,6,0,P|275:64|278:171,1,179.999994506836,12|0,0:3|0:0,0:0:0:0:
236,287,95009,1,8,1:0:0:0:
170,120,95171,1,10,0:0:0:0:
125,120,95252,1,8,0:0:0:0:
81,131,95333,1,8,0:0:0:0:
42,153,95414,1,8,0:0:0:0:
9,183,95495,1,8,0:3:0:0:
76,360,95657,2,0,P|89:292|131:238,1,119.999996337891,10|2,1:0|0:0,0:0:0:0:
378,283,95982,6,0,P|413:188|397:96,1,179.999994506836,8|0,0:3|0:0,0:0:0:0:
290,16,96306,2,0,P|272:42|265:74,1,59.9999981689454,8|0,1:0|0:0,0:0:0:0:
289,214,96469,1,8,0:0:0:0:
296,189,96550,1,10,0:0:0:0:
435,24,96712,1,8,0:0:0:0:
454,35,96793,2,0,P|470:63|478:98,1,59.9999981689454,8|0,0:3|0:0,0:0:0:0:
284,237,96955,2,0,P|223:227|171:169,1,119.999996337891,10|2,1:0|0:0,0:0:0:0:
2,8,97279,6,0,P|59:76|64:193,1,179.999994506836,8|0,0:3|0:0,0:0:0:0:
26,297,97603,1,8,1:0:0:0:
183,370,97766,1,10,0:0:0:0:
227,373,97847,1,8,0:0:0:0:
271,365,97928,1,8,0:0:0:0:
312,345,98009,1,8,0:0:0:0:
345,316,98090,1,8,0:3:0:0:
209,155,98252,2,0,P|211:214|235:272,1,119.999996337891,10|2,1:0|0:0,0:0:0:0:
427,153,98577,6,0,P|370:110|340:6,1,179.999994506836,8|0,0:3|0:0,0:0:0:0:
459,259,98902,2,0,P|392:250|323:201,1,150,10|0,1:0|0:0,0:0:0:0:
512,342,99226,2,0,P|471:355|407:347,1,89.9999972534181,2|8,0:0|0:3,0:0:0:0:
318,375,99469,1,0,0:0:0:0:
318,375,99550,2,0,P|328:336|329:311,1,50,10|0,1:0|0:0,0:0:0:0:
210,212,99713,2,0,P|208:183|200:164,1,50,10|0,1:0|0:0,0:0:0:0:
7,368,99874,6,0,P|63:312|71:178,1,179.999994506836,12|0,0:3|0:0,0:0:0:0:
51,79,100198,1,8,1:0:0:0:
229,19,100361,1,10,0:0:0:0:
197,50,100442,1,8,0:0:0:0:
179,91,100523,1,8,0:0:0:0:
177,136,100604,1,8,0:0:0:0:
193,178,100685,1,8,0:3:0:0:
408,99,100846,2,0,P|348:93|292:113,1,119.999996337891,10|2,1:0|0:0,0:0:0:0:
278,374,101171,6,0,P|261:262|302:181,1,179.999994506836,8|0,0:3|0:0,0:0:0:0:
419,119,101496,2,0,P|435:152|434:191,1,59.9999981689454,8|0,1:0|0:0,0:0:0:0:
341,311,101657,1,8,0:0:0:0:
350,294,101738,1,10,0:0:0:0:
200,190,101901,1,8,0:0:0:0:
196,171,101982,2,0,P|213:138|234:120,1,59.9999981689454,8|0,0:3|0:0,0:0:0:0:
446,263,102144,2,0,P|433:338|403:383,1,119.999996337891,10|2,1:0|0:0,0:0:0:0:
147,353,102468,6,0,P|145:257|87:168,1,179.999994506836,8|0,0:3|0:0,0:0:0:0:
0,109,102792,1,8,1:0:0:0:
152,7,102955,1,10,0:0:0:0:
131,46,103036,1,8,0:0:0:0:
122,90,103117,1,8,0:0:0:0:
127,135,103198,1,8,0:0:0:0:
145,176,103279,1,8,0:3:0:0:
271,93,103441,1,8,1:0:0:0:
512,141,103604,6,0,P|488:110|442:83,1,59.9999981689454,2|0,0:0|0:0,0:0:0:0:
339,39,103767,1,8,0:3:0:0:
435,196,103929,2,0,P|398:181|345:181,1,59.9999981689454,2|0,0:0|0:0,0:0:0:0:
265,189,104092,1,8,1:0:0:0:
352,274,104253,2,0,P|313:280|267:306,1,59.9999981689454,2|0,0:0|0:0,0:0:0:0:
216,341,104416,1,2,0:0:0:0:
345,369,104577,1,8,0:3:0:0:
112,384,104740,2,0,P|103:351|107:320,1,59.9999981689454,10|0,1:0|0:0,0:0:0:0:
13,167,104902,2,2,P|38:142|66:130,1,59.9999981689454,10|2,1:0|0:0,0:0:0:0:
157,118,105063,5,12,0:3:0:0:
202,214,105225,1,0,0:0:0:0:
274,131,105388,1,8,1:0:0:0:
217,0,105550,1,8,0:0:0:0:
215,12,105631,1,8,0:0:0:0:
216,24,105712,1,8,0:0:0:0:
219,36,105793,1,8,0:0:0:0:
225,48,105874,1,8,0:3:0:0:
375,84,106035,1,8,1:0:0:0:
375,84,106198,1,8,0:0:0:0:
457,205,106361,6,0,L|352:226,1,100,8|0,0:3|0:0,0:0:0:0:
186,334,106684,1,8,1:0:0:0:
316,356,106846,2,8,P|295:329|266:314,1,50
346,361,107009,2,8,P|341:327|322:300,1,50
232,211,107171,1,8,0:3:0:0:
50,255,107334,2,8,P|55:280|69:301,3,50,8|8|8|8,1:0|0:0|0:0|0:0,0:0:0:0:
191,112,107658,6,0,L|296:133,1,100,8|0,0:3|0:0,0:0:0:0:
486,103,107981,1,8,1:0:0:0:
371,23,108144,1,8,0:0:0:0:
368,47,108225,1,8,0:0:0:0:
373,72,108306,1,8,0:0:0:0:
410,187,108469,1,8,0:3:0:0:
353,331,108631,2,8,P|372:348|393:379,3,50,8|8|8|8,1:0|0:0|0:0|0:0,0:0:0:0:
235,247,108955,6,0,L|130:268,1,100,8|0,0:3|0:0,0:0:0:0:
0,175,109279,1,8,1:0:0:0:
11,326,109441,2,8,P|20:299|50:265,1,50
51,313,109604,2,8,P|45:284|53:240,1,50
104,184,109765,1,8,0:3:0:0:
212,339,109928,2,0,P|207:311|175:258,1,50,8|0,1:0|0:0,0:0:0:0:
291,143,110090,2,0,P|272:121|218:91,1,50,8|0,1:0|0:0,0:0:0:0:
377,92,110252,5,12,0:3:0:0:
428,182,110415,1,0,0:0:0:0:
491,100,110577,1,8,1:0:0:0:
377,2,110739,1,8,0:0:0:0:
380,13,110820,1,8,0:0:0:0:
382,26,110901,1,8,0:0:0:0:
383,38,110982,1,8,0:0:0:0:
382,51,111063,1,8,0:3:0:0:
232,97,111225,1,8,1:0:0:0:
232,97,111387,1,0,0:0:0:0:
131,223,111550,6,0,L|236:244,1,100,8|0,0:3|0:0,0:0:0:0:
439,193,111873,1,8,1:0:0:0:
324,150,112035,2,8,P|309:169|301:193,1,50
340,174,112198,2,8,P|336:198|341:223,1,50
337,299,112360,1,8,0:3:0:0:
506,349,112523,2,8,P|514:318|497:269,3,50,8|8|8|8,1:0|0:0|0:0|0:0,0:0:0:0:
309,304,112847,6,0,L|204:325,1,100,8|0,0:3|0:0,0:0:0:0:
14,284,113171,1,8,1:0:0:0:
115,363,113334,1,8,0:0:0:0:
110,350,113415,1,8,0:0:0:0:
108,338,113496,1,8,0:0:0:0:
109,325,113577,1,8,0:0:0:0:
111,313,113658,1,8,0:3:0:0:
60,162,113820,2,8,P|30:145|10:123,3,50,8|8|8|8,1:0|0:0|0:0|0:0,0:0:0:0:
217,75,114144,6,0,L|315:94,1,100,8|0,0:3|0:0,0:0:0:0:
506,40,114468,1,8,1:0:0:0:
354,2,114630,2,8,P|371:26|379:83,1,50
413,23,114793,2,8,P|415:52|394:105,1,50
384,163,114954,1,8,0:3:0:0:
292,323,115117,2,0,P|297:292|325:261,1,50,8|0,1:0|0:0,0:0:0:0:
153,175,115279,2,0,P|141:145|150:104,1,50,8|0,1:0|0:0,0:0:0:0:
74,353,115442,5,12,1:0:0:0:
26,262,115604,1,0,0:0:0:0:
222,236,115766,1,8,1:0:0:0:
223,249,115847,1,8,0:0:0:0:
220,261,115928,1,8,0:0:0:0:
74,140,116090,1,8,1:0:0:0:
28,238,116252,1,8,0:3:0:0:
198,150,116415,1,8,1:0:0:0:
194,137,116496,1,8,0:0:0:0:
188,126,116577,1,8,0:0:0:0:
311,4,116739,6,0,L|327:103,1,100,8|0,1:0|0:0,0:0:0:0:
413,266,117063,2,8,P|422:248|426:216,1,50,8|8,1:0|0:0,0:0:0:0:
459,295,117225,2,8,P|457:274|445:245,1,50
403,137,117387,1,8,1:0:0:0:
512,189,117549,1,8,0:3:0:0:
327,254,117712,1,8,1:0:0:0:
325,266,117793,1,8,0:0:0:0:
322,278,117874,1,8,0:0:0:0:
146,363,118036,6,0,L|130:264,1,100,8|0,1:0|0:0,0:0:0:0:
107,132,118361,1,8,1:0:0:0:
108,143,118442,1,8,0:0:0:0:
107,155,118523,1,8,0:0:0:0:
105,169,118604,1,8,0:0:0:0:
101,179,118685,1,8,1:0:0:0:
1,136,118845,1,8,0:3:0:0:
195,77,119009,2,8,P|185:48|169:21,3,50,8|8|8|8,1:0|0:0|0:0|0:0,0:0:0:0:
296,173,119334,6,0,L|280:272,1,100,8|0,1:0|0:0,0:0:0:0:
183,379,119658,2,8,P|173:351|173:305,1,50,8|8,1:0|0:0,0:0:0:0:
130,352,119820,2,8,P|136:323|159:283,1,50
198,225,119982,1,8,1:0:0:0:
283,301,120144,1,8,0:3:0:0:
208,94,120307,1,8,1:0:0:0:
206,106,120388,1,0,0:0:0:0:
203,118,120469,1,0,0:0:0:0:
456,170,120631,6,0,P|480:167|523:174,1,50,14|0,0:3|0:0,0:0:0:0:
325,62,120793,2,0,P|322:38|329:-4,1,50,2|0,0:3|0:0,0:0:0:0:
217,193,120955,2,0,P|193:196|150:189,1,50,10|0,0:3|0:0,0:0:0:0:
348,301,121118,2,0,P|351:325|344:368,1,50,2|0,0:3|0:0,0:0:0:0:
364,76,121280,6,0,P|369:55|388:21,1,44.999998626709,10|0,0:3|0:0,0:0:0:0:
231,154,121442,2,0,P|210:149|176:130,1,44.999998626709,2|0,0:3|0:0,0:0:0:0:
309,287,121604,2,0,P|304:308|285:342,1,44.999998626709,10|0,0:3|0:0,0:0:0:0:
442,209,121767,2,0,P|463:214|497:233,1,44.999998626709,2|0,0:3|0:0,0:0:0:0:
221,105,121928,6,0,P|231:88|240:55,1,40,14|8,0:3|0:0,0:0:0:0:
255,237,122090,2,0,P|271:247|304:256,1,40,2|0,0:3|0:0,0:0:0:0:
122,272,122252,2,0,P|111:288|102:321,1,40,10|0,0:3|0:0,0:0:0:0:
88,139,122415,2,0,P|71:128|38:119,1,40,2|0,0:3|0:0,0:0:0:0:
256,204,122577,6,0,P|275:208|311:205,1,34.9999989318848,10|0,2:3|2:0,2:0:0:0:
155,273,122739,2,0,P|151:291|154:323,1,34.9999989318848,2|0,2:3|2:0,2:0:0:0:
84,171,122901,2,0,P|67:167|34:170,1,34.9999989318848,10|0,2:3|2:0,2:0:0:0:
187,101,123064,2,0,P|190:83|188:50,1,34.9999989318848,2|0,2:3|2:0,2:0:0:0:
301,174,123226,5,14,0:3:0:0:
335,175,123307,1,2,0:3:0:0:
370,177,123388,1,10,0:3:0:0:
405,179,123469,1,2,0:3:0:0:
440,181,123550,1,10,0:3:0:0:
475,183,123631,1,2,0:3:0:0:
510,184,123712,2,0,P|513:167|511:144,1,34.9999989318848,10|2,0:3|0:3,0:0:0:0:
512,304,123874,5,14,0:3:0:0:
484,304,123955,1,2,0:3:0:0:
455,305,124036,1,10,0:3:0:0:
427,307,124117,1,2,0:3:0:0:
398,308,124198,1,10,0:3:0:0:
370,310,124279,1,2,0:3:0:0:
341,311,124361,2,0,P|333:290|332:265,1,34.9999989318848,10|2,0:3|0:3,0:0:0:0:
240,376,124523,5,12,0:3:0:0:
218,376,124604,1,8,0:3:0:0:
195,375,124685,1,8,0:3:0:0:
174,373,124766,1,8,0:3:0:0:
151,372,124847,1,12,0:3:0:0:
129,371,124928,1,8,0:3:0:0:
107,370,125009,1,8,0:3:0:0:
85,370,125091,1,8,0:3:0:0:
62,369,125172,1,12,0:3:0:0:
41,367,125253,1,8,0:3:0:0:
18,366,125334,1,8,0:3:0:0:
36,159,125496,5,6,1:3:0:0:
