osu file format v14

[General]
AudioFilename: audio.mp3
AudioLeadIn: 0
PreviewTime: 62252
Countdown: 1
SampleSet: Soft
StackLeniency: 0.5
Mode: 0
LetterboxInBreaks: 0
WidescreenStoryboard: 1

[Editor]
Bookmarks: 11658,22036,42793,53171,58361,63550,84307,105063,115442,120631
DistanceSpacing: 1
BeatDivisor: 4
GridSize: 8
TimelineZoom: 0.9999996

[Metadata]
Title:Spring Signal
TitleUnicode:Spring Signal
Artist:yuki.
ArtistUnicode:yuki.
Creator:pishifat
Version:Normal
Source:
Tags:nyquill
BeatmapID:1513225
BeatmapSetID:716211

[Difficulty]
HPDrainRate:4
CircleSize:3.5
OverallDifficulty:4
ApproachRate:5
SliderMultiplier:0.999999999999999
SliderTickRate:1

[Events]
//Background and Video events
0,0,"spring-signal.jpg",0,0
//Break Periods
2,22236,41593
//Storyboard Layer 0 (Background)
//Storyboard Layer 1 (Fail)
//Storyboard Layer 2 (Pass)
//Storyboard Layer 3 (Foreground)
//Storyboard Sound Samples

[TimingPoints]
1280,324.324324324324,4,2,1,80,1,0
1280,-90.9090909090909,4,2,1,80,0,0
16847,-90.9090909090909,4,2,1,100,0,0
17171,-90.9090909090909,4,2,1,100,0,0
17496,-90.9090909090909,4,2,1,100,0,0
17820,-90.9090909090909,4,2,1,100,0,0
18144,-90.9090909090909,4,2,1,90,0,0
18469,-90.9090909090909,4,2,1,90,0,0
18793,-90.9090909090909,4,2,1,90,0,0
19117,-90.9090909090909,4,2,1,90,0,0
19442,-90.9090909090909,4,2,1,90,0,0
20820,-90.9090909090909,4,2,1,75,0,0
21712,-90.9090909090909,4,2,1,100,0,0
22036,-90.9090909090909,4,2,0,60,0,0
42793,-90.9090909090909,4,2,0,70,0,0
43279,-90.9090909090909,4,2,0,70,0,0
43766,-90.9090909090909,4,2,0,70,0,0
44090,-90.9090909090909,4,2,0,70,0,0
44577,-90.9090909090909,4,2,0,70,0,0
45063,-90.9090909090909,4,2,0,70,0,0
45388,-90.9090909090909,4,2,0,70,0,0
45874,-90.9090909090909,4,2,0,70,0,0
46361,-90.9090909090909,4,2,0,70,0,0
46685,-90.9090909090909,4,2,0,70,0,0
47009,-90.9090909090909,4,2,0,70,0,0
47334,-90.9090909090909,4,2,0,70,0,0
47658,-90.9090909090909,4,2,0,70,0,0
47982,-90.9090909090909,4,2,0,70,0,0
48469,-90.9090909090909,4,2,0,70,0,0
48955,-90.9090909090909,4,2,0,70,0,0
49766,-90.9090909090909,4,2,0,70,0,0
50252,-90.9090909090909,4,2,0,70,0,0
50577,-90.9090909090909,4,2,0,70,0,0
51063,-90.9090909090909,4,2,0,70,0,0
51550,-90.9090909090909,4,2,0,70,0,0
52198,-90.9090909090909,4,2,0,70,0,0
52523,-90.9090909090909,4,2,0,70,0,0
52847,-90.9090909090909,4,2,0,70,0,0
53171,-90.9090909090909,4,2,1,80,0,0
57063,-90.9090909090909,4,2,1,80,0,0
57388,-90.9090909090909,4,2,1,80,0,0
57712,-90.9090909090909,4,2,1,80,0,0
58036,-90.9090909090909,4,2,1,80,0,0
58361,-90.9090909090909,4,2,1,100,0,0
58685,-90.9090909090909,4,2,1,100,0,0
59009,-90.9090909090909,4,2,1,100,0,0
59334,-90.9090909090909,4,2,1,100,0,0
59658,-90.9090909090909,4,2,1,90,0,0
59982,-90.9090909090909,4,2,1,90,0,0
60307,-90.9090909090909,4,2,1,90,0,0
60631,-90.9090909090909,4,2,1,90,0,0
60955,-90.9090909090909,4,2,1,90,0,0
62334,-90.9090909090909,4,2,1,75,0,0
63225,-90.9090909090909,4,2,1,100,0,0
63550,-90.9090909090909,4,2,1,100,0,1
63712,-90.9090909090909,4,2,1,100,0,1
63874,-90.9090909090909,4,2,1,100,0,1
64117,-90.9090909090909,4,2,1,100,0,1
64361,-90.9090909090909,4,2,1,100,0,1
64523,-90.9090909090909,4,2,1,100,0,1
64685,-90.9090909090909,4,2,1,100,0,1
65009,-90.9090909090909,4,2,1,100,0,1
65171,-90.9090909090909,4,2,1,100,0,1
65415,-90.9090909090909,4,2,1,100,0,1
65658,-90.9090909090909,4,2,1,100,0,1
65820,-90.9090909090909,4,2,1,100,0,1
66307,-90.9090909090909,4,2,1,100,0,1
66712,-90.9090909090909,4,2,1,100,0,1
66955,-90.9090909090909,4,2,1,100,0,1
67117,-90.9090909090909,4,2,1,100,0,1
67279,-90.9090909090909,4,2,1,100,0,1
67604,-90.9090909090909,4,2,1,100,0,1
68252,-90.9090909090909,4,2,1,100,0,1
68415,-90.9090909090909,4,2,1,100,0,1
68577,-90.9090909090909,4,2,1,100,0,1
68901,-90.9090909090909,4,2,1,100,0,1
69225,-90.9090909090909,4,2,1,100,0,1
69550,-90.9090909090909,4,2,1,100,0,1
69874,-90.9090909090909,4,2,1,100,0,1
70198,-90.9090909090909,4,2,1,100,0,1
70361,-90.9090909090909,4,2,1,100,0,1
70604,-90.9090909090909,4,2,1,100,0,1
71009,-90.9090909090909,4,2,1,100,0,1
71496,-90.9090909090909,4,2,1,100,0,1
71658,-90.9090909090909,4,2,1,100,0,1
71901,-90.9090909090909,4,2,1,100,0,1
72144,-90.9090909090909,4,2,1,100,0,1
72307,-90.9090909090909,4,2,1,100,0,1
72469,-90.9090909090909,4,2,1,100,0,1
72793,-90.9090909090909,4,2,1,100,0,1
73117,-90.9090909090909,4,2,1,100,0,1
73442,-90.9090909090909,4,2,1,100,0,1
73604,-90.9090909090909,4,2,1,100,0,1
73766,-90.9090909090909,4,2,1,100,0,1
74090,-90.9090909090909,4,2,1,100,0,1
74496,-90.9090909090909,4,2,1,100,0,1
74739,-90.9090909090909,4,2,1,100,0,1
75063,-90.9090909090909,4,2,1,100,0,1
75388,-90.9090909090909,4,2,1,100,0,1
75550,-90.9090909090909,4,2,1,100,0,1
75793,-90.9090909090909,4,2,1,100,0,1
76198,-90.9090909090909,4,2,1,100,0,1
76685,-90.9090909090909,4,2,1,100,0,1
77090,-90.9090909090909,4,2,1,100,0,1
77334,-90.9090909090909,4,2,1,100,0,1
77658,-90.9090909090909,4,2,1,100,0,1
78631,-90.9090909090909,4,2,1,100,0,1
78793,-90.9090909090909,4,2,1,100,0,1
78955,-90.9090909090909,4,2,1,100,0,1
79279,-90.9090909090909,4,2,1,100,0,1
79685,-90.9090909090909,4,2,1,100,0,1
79928,-90.9090909090909,4,2,1,100,0,1
80252,-90.9090909090909,4,2,1,100,0,1
80577,-90.9090909090909,4,2,1,100,0,1
80739,-90.9090909090909,4,2,1,100,0,1
80982,-90.9090909090909,4,2,1,100,0,1
81550,-90.9090909090909,4,2,1,100,0,1
81874,-90.9090909090909,4,2,1,100,0,1
82036,-90.9090909090909,4,2,1,100,0,1
82198,-90.9090909090909,4,2,1,100,0,1
82523,-90.9090909090909,4,2,1,100,0,1
82685,-90.9090909090909,4,2,1,100,0,1
82847,-90.9090909090909,4,2,1,100,0,1
84307,-90.9090909090909,4,2,1,100,0,1
84874,-90.9090909090909,4,2,1,100,0,1
85279,-90.9090909090909,4,2,1,100,0,1
85442,-90.9090909090909,4,2,1,100,0,1
85766,-90.9090909090909,4,2,1,100,0,1
86577,-90.9090909090909,4,2,1,100,0,1
86739,-90.9090909090909,4,2,1,100,0,1
87063,-90.9090909090909,4,2,1,100,0,1
87469,-90.9090909090909,4,2,1,100,0,1
88036,-90.9090909090909,4,2,1,100,0,1
88361,-90.9090909090909,4,2,1,100,0,1
89009,-90.9090909090909,4,2,1,100,0,1
89171,-90.9090909090909,4,2,1,100,0,1
89334,-90.9090909090909,4,2,1,100,0,1
89658,-90.9090909090909,4,2,1,100,0,1
90063,-90.9090909090909,4,2,1,100,0,1
90631,-90.9090909090909,4,2,1,100,0,1
91766,-90.9090909090909,4,2,1,100,0,1
91928,-90.9090909090909,4,2,1,100,0,1
92252,-90.9090909090909,4,2,1,100,0,1
92415,-90.9090909090909,4,2,1,100,0,1
92658,-90.9090909090909,4,2,1,100,0,1
92901,-90.9090909090909,4,2,1,100,0,1
93063,-90.9090909090909,4,2,1,100,0,1
93225,-90.9090909090909,4,2,1,100,0,1
93550,-90.9090909090909,4,2,1,100,0,1
94198,-90.9090909090909,4,2,1,100,0,1
94361,-90.9090909090909,4,2,1,100,0,1
94523,-90.9090909090909,4,2,1,100,0,1
94847,-90.9090909090909,4,2,1,100,0,1
95252,-90.9090909090909,4,2,1,100,0,1
95820,-90.9090909090909,4,2,1,100,0,1
96955,-90.9090909090909,4,2,1,100,0,1
97117,-90.9090909090909,4,2,1,100,0,1
97442,-90.9090909090909,4,2,1,100,0,1
97847,-90.9090909090909,4,2,1,100,0,1
98252,-90.9090909090909,4,2,1,100,0,1
98415,-90.9090909090909,4,2,1,100,0,1
98901,-90.9090909090909,4,2,1,100,0,1
99388,-90.9090909090909,4,2,1,100,0,1
99550,-90.9090909090909,4,2,1,100,0,1
99712,-90.9090909090909,4,2,1,100,0,1
100036,-90.9090909090909,4,2,1,100,0,1
100442,-90.9090909090909,4,2,1,100,0,1
101009,-90.9090909090909,4,2,1,100,0,1
102144,-90.9090909090909,4,2,1,100,0,1
102307,-90.9090909090909,4,2,1,100,0,1
102631,-90.9090909090909,4,2,1,100,0,1
102793,-90.9090909090909,4,2,1,100,0,1
103036,-90.9090909090909,4,2,1,100,0,1
103279,-90.9090909090909,4,2,1,100,0,1
103442,-90.9090909090909,4,2,1,100,0,1
103604,-90.9090909090909,4,2,1,100,0,1
105063,-90.9090909090909,4,2,1,80,0,0
120631,-90.9090909090909,4,2,1,100,0,0
120955,-90.9090909090909,4,2,1,100,0,0
121279,-90.9090909090909,4,2,1,100,0,0
121604,-90.9090909090909,4,2,1,100,0,0
121928,-90.9090909090909,4,2,1,90,0,0
122252,-90.9090909090909,4,2,1,90,0,0
122577,-90.9090909090909,4,2,1,90,0,0
122901,-90.9090909090909,4,2,1,90,0,0
123225,-90.9090909090909,4,2,1,90,0,0
124604,-90.9090909090909,4,2,1,75,0,0
125496,-90.9090909090909,4,2,1,100,0,0

[Colours]
Combo1 : 184,156,207
Combo2 : 66,200,210
Combo3 : 56,130,220
Combo4 : 115,97,220
Combo5 : 167,220,235
Combo6 : 154,168,233

[HitObjects]
69,250,1280,53,4,0:1:0:0:
69,250,1442,2,0,L|81:326,2,55.0000016784668,2|2|2,0:0|1:2|0:0,0:0:0:0:
178,236,2090,2,0,L|186:290,2,55.0000016784668,4|2|2,0:3|1:2|0:0,0:0:0:0:
171,181,2577,1,4,0:3:0:0:
277,206,2901,2,0,P|332:196|377:148,1,110.000003356934,0|0,1:0|0:0,0:0:0:0:
389,108,3388,1,4,0:3:0:0:
389,108,3550,1,0,1:0:0:0:
489,62,3874,5,4,0:3:0:0:
481,171,4198,2,0,L|472:297,1,110.000003356934,0|0,1:0|0:0,0:0:0:0:
473,335,4685,1,4,0:3:0:0:
473,335,4847,1,0,1:0:0:0:
373,288,5171,1,4,0:3:0:0:
299,370,5496,2,0,P|243:360|199:312,1,110.000003356934,0|0,1:0|0:0,0:0:0:0:
187,272,5983,1,4,0:3:0:0:
187,272,6145,1,0,1:0:0:0:
133,175,6469,5,4,0:3:0:0:
133,175,6631,2,0,L|187:165,2,55.0000016784668,2|2|2,0:0|1:2|0:0,0:0:0:0:
113,66,7279,2,0,L|167:56,2,55.0000016784668,4|2|2,0:3|1:2|0:0,0:0:0:0:
58,75,7766,1,4,0:3:0:0:
9,173,8090,2,0,L|25:288,1,110.000003356934,0|0,1:0|0:0,0:0:0:0:
35,335,8577,1,4,0:3:0:0:
35,335,8739,1,0,1:0:0:0:
140,366,9063,53,4,0:3:0:0:
183,264,9388,2,0,P|268:269|295:301,1,110.000003356934,0|0,1:0|0:0,0:0:0:0:
316,326,9874,1,4,0:3:0:0:
316,326,10036,1,0,1:0:0:0:
384,239,10361,1,4,0:3:0:0:
488,271,10685,2,0,L|471:145,1,110.000003356934,0|0,1:0|0:0,0:0:0:0:
468,107,11171,1,4,0:3:0:0:
468,107,11334,1,0,1:0:0:0:
408,14,11658,5,4,0:1:0:0:
408,14,11820,2,0,L|469:-2,2,55.0000016784668,2|2|2,0:0|1:3|0:0,0:0:0:0:
328,89,12469,2,0,L|340:156,2,55.0000016784668,4|2|2,0:3|1:3|0:0,0:0:0:0:
313,35,12955,2,0,P|243:30|201:65,1,110.000003356934,2|2,1:3|1:3,0:0:0:0:
164,149,13604,2,0,L|174:210,1,55.0000016784668,2|6,1:3|0:3,0:0:0:0:
184,256,13928,1,2,1:3:0:0:
122,343,14252,6,0,P|192:345|230:383,1,110.000003356934,2|2,1:3|1:3,0:0:0:0:
329,348,14901,2,0,L|334:287,1,55.0000016784668,2|6,1:3|0:3,0:0:0:0:
338,238,15225,1,2,1:3:0:0:
401,148,15550,2,0,L|282:139,1,110.000003356934,2|2,1:3|1:3,0:0:0:0:
196,84,16198,2,0,L|131:95,1,55.0000016784668,2|6,1:3|0:3,0:0:0:0:
87,104,16523,1,2,1:3:0:0:
14,186,16847,54,0,P|1:218|4:261,2,55.0000016784668,4|2|2,1:3|1:2|1:3,0:0:0:0:
111,236,17496,2,0,P|137:258|179:268,2,55.0000016784668,2|2|2,1:3|1:2|1:3,0:0:0:0:
191,160,18144,2,0,P|220:141|243:104,2,55.0000016784668,4|2|2,1:2|1:2|1:3,0:0:0:0:
138,62,18793,2,0,P|129:28|101:-4,2,55.0000016784668,2|2|2,1:3|1:2|1:3,0:0:0:0:
28,77,19442,6,0,L|23:142,1,55.0000016784668,4|0,1:2|1:0,0:0:0:0:
21,187,19766,1,0,1:0:0:0:
115,242,20090,2,0,L|120:306,1,55.0000016784668,4|0,1:2|1:0,0:0:0:0:
127,351,20415,1,0,1:0:0:0:
235,369,20739,6,0,P|280:328|294:325,1,55.0000016784668,4|4,1:2|1:3,0:0:0:0:
284,277,21063,2,0,P|344:270|357:276,1,55.0000016784668,4|4,1:3|1:3,0:0:0:0:
376,229,21388,2,0,P|428:259|436:271,1,55.0000016784668,4|4,1:3|1:3,0:0:0:0:
452,300,21712,1,2,1:3:0:0:
375,378,22036,53,4,0:1:0:0:
322,106,42793,6,0,P|402:103|478:43,2,165.0000050354,4|2|2,0:0|0:0|0:0,0:0:0:0:
220,63,44090,2,0,L|234:177,1,110.000003356934,2|0,0:3|0:0,0:0:0:0:
268,215,44577,2,0,L|254:329,1,110.000003356934,2|0,0:0|0:0,0:0:0:0:
247,378,45063,1,2,0:0:0:0:
147,330,45388,6,0,P|67:333|-9:393,2,165.0000050354,2|2|2,0:3|0:0|0:0,0:0:0:0:
247,378,46685,2,0,P|308:374|357:339,1,110.000003356934,2|2,0:3|0:0,0:0:0:0:
403,253,47334,2,0,P|399:192|364:143,1,110.000003356934,2|2,0:0|0:0,0:0:0:0:
283,88,47982,54,0,L|465:106,2,165.0000050354,2|2|2,0:3|0:0|0:0,0:0:0:0:
186,35,49279,2,0,P|115:53|88:91,1,110.000003356934,2|0,0:3|0:0,0:0:0:0:
110,131,49766,2,0,P|168:188|169:231,1,110.000003356934,2|0,0:0|0:0,0:0:0:0:
161,266,50252,1,2,0:0:0:0:
250,329,50577,6,0,L|68:311,2,165.0000050354,2|2|2,0:3|0:0|0:0,0:0:0:0:
464,280,52198,1,2,0:0:0:0:
446,171,52523,1,2,0:0:0:0:
429,62,52847,1,2,0:0:0:0:
340,126,53171,6,0,P|296:125|238:86,1,110.000003356934,2|2,1:3|1:3,0:0:0:0:
214,42,53658,1,2,0:0:0:0:
214,42,53820,2,0,P|170:43|112:82,1,110.000003356934,2|2,1:3|1:3,0:0:0:0:
80,181,54469,2,0,L|98:301,1,110.000003356934,2|2,1:3|1:3,0:0:0:0:
106,343,54955,1,2,0:0:0:0:
106,343,55117,2,0,L|214:359,1,110.000003356934,2|2,1:3|1:3,0:0:0:0:
299,288,55766,54,0,P|342:255|417:257,1,110.000003356934,2|2,1:3|1:3,0:0:0:0:
448,267,56252,1,2,0:0:0:0:
448,267,56415,2,0,L|428:144,1,110.000003356934,2|2,1:3|1:3,0:0:0:0:
471,56,57063,1,2,1:3:0:0:
367,17,57388,1,2,1:3:0:0:
323,117,57712,2,0,L|260:108,1,55.0000016784668,2|4,1:3|0:3,0:0:0:0:
214,100,58036,1,2,1:3:0:0:
108,68,58361,6,0,P|81:76|60:96,2,55.0000016784668,4|2|2,1:2|1:2|1:3,0:0:0:0:
137,173,59009,2,0,P|124:197|122:226,2,55.0000016784668,2|2|2,1:3|1:2|1:3,0:0:0:0:
236,219,59658,2,0,P|244:245|264:267,2,55.0000016784668,4|2|2,1:2|1:2|1:3,0:0:0:0:
342,189,60307,2,0,P|366:201|395:203,2,55.0000016784668,2|2|2,1:3|1:2|1:3,0:0:0:0:
395,92,60955,6,0,L|465:79,1,55.0000016784668,4|0,1:2|1:0,0:0:0:0:
502,71,61279,1,0,1:0:0:0:
489,178,61604,2,0,L|502:248,1,55.0000016784668,4|0,1:2|1:0,0:0:0:0:
510,285,61928,1,0,1:0:0:0:
431,362,62252,53,4,1:2:0:0:
340,299,62577,2,0,P|312:301|287:313,1,55.0000016784668,4|4,1:3|1:3,0:0:0:0:
235,330,62901,2,0,P|207:327|182:315,1,55.0000016784668,4|4,1:3|1:3,0:0:0:0:
147,274,63225,1,2,1:3:0:0:
120,167,63550,37,4,1:1:0:0:
201,93,63874,2,0,L|293:102,2,82.5000025177002,2|2|6,1:3|0:3|0:3,0:0:0:0:
154,62,64523,1,2,1:3:0:0:
52,18,64847,2,0,P|20:52|17:133,1,110.000003356934,4|2,0:3|1:3,0:0:0:0:
33,220,65496,2,0,L|112:208,1,55.0000016784668,2|6,0:3|0:3,0:3:0:0:
128,175,65820,1,2,1:3:0:0:
181,270,66144,5,4,0:3:0:0:
76,305,66469,2,0,L|-17:318,2,82.5000025177002,2|2|6,1:3|0:3|0:3,0:0:0:0:
119,339,67117,1,2,1:3:0:0:
225,352,67442,2,0,B|286:378|337:344|311:321|374:292|429:317,1,220.000006713867,4|0,0:3|0:0,0:0:0:0:
472,351,68252,1,6,0:3:0:0:
472,351,68415,1,2,1:3:0:0:
508,247,68739,5,4,0:3:0:0:
439,161,69063,2,0,L|450:57,2,82.5000025177002,2|2|6,1:3|0:3|0:3,0:0:0:0:
406,205,69712,1,2,1:3:0:0:
324,131,70036,2,0,L|335:13,1,110.000003356934,4|2,0:3|1:3,0:0:0:0:
224,12,70685,2,0,L|163:24,1,55.0000016784668,2|6,0:3|0:3,0:0:0:0:
117,39,71009,1,2,1:3:0:0:
210,105,71334,53,4,0:3:0:0:
185,212,71658,2,0,L|202:312,2,82.5000025177002,2|2|6,1:3|0:3|0:3,0:0:0:0:
135,186,72307,2,0,P|103:180|61:185,1,55.0000016784668,2|2,1:3|0:3,0:0:0:0:
24,201,72631,1,4,0:3:0:0:
24,201,72793,1,2,0:3:0:0:
10,311,73117,1,2,0:3:0:0:
117,334,73442,2,0,L|122:277,2,55.0000016784668,6|2|2,0:3|1:3|0:3,0:0:0:0:
143,382,73928,5,4,1:1:0:0:
247,347,74252,2,0,L|349:356,2,82.5000025177002,2|2|6,1:3|0:3|0:3,0:0:0:0:
207,308,74901,1,2,1:3:0:0:
294,242,75225,2,0,P|302:195|269:124,1,110.000003356934,4|2,0:3|1:3,0:0:0:0:
191,202,75874,2,0,L|114:210,1,55.0000016784668,2|6,0:3|0:3,0:0:0:0:
81,210,76198,1,2,1:3:0:0:
145,120,76523,5,4,0:3:0:0:
97,20,76847,2,0,L|4:8,2,82.5000025177002,2|2|6,1:3|0:3|0:3,0:0:0:0:
151,29,77496,1,2,1:3:0:0:
260,17,77820,2,0,P|367:11|414:112,1,220.000006713867,4|0,0:3|0:0,0:0:0:0:
404,154,78631,1,6,0:3:0:0:
404,154,78793,1,2,1:3:0:0:
487,224,79117,53,4,0:3:0:0:
404,297,79442,2,0,L|417:396,2,82.5000025177002,2|2|6,1:3|0:3|0:3,0:0:0:0:
367,256,80090,1,2,1:3:0:0:
268,205,80415,2,0,L|281:95,1,110.000003356934,4|2,0:3|1:3,0:0:0:0:
179,53,81063,2,0,L|171:112,1,55.0000016784668,2|6,0:3|0:3,0:0:0:0:
166,162,81388,1,2,1:3:0:0:
145,269,81712,5,4,0:3:0:0:
37,289,82036,2,0,P|49:327|80:357,2,82.5000025177002,2|2|6,1:3|0:3|0:3,0:0:0:0:
37,233,82685,2,0,L|43:170,1,55.0000016784668,2|2,1:3|0:3,0:0:0:0:
48,123,83009,1,4,0:3:0:0:
48,123,83171,2,0,L|163:109,1,110.000003356934,2|2,0:3|0:3,0:0:0:0:
260,147,83820,2,0,P|268:119|266:89,2,55.0000016784668,6|2|2,0:3|1:3|0:3,0:0:0:0:
230,193,84307,6,0,P|315:211|369:282,1,165.0000050354,4|0,1:1|0:0,0:0:0:0:
381,320,84955,2,0,L|309:330,2,55.0000016784668,0|6|2,0:0|0:3|1:3,0:0:0:0:
483,278,85604,2,0,P|502:235|495:154,1,110.000003356934,4|2,0:3|1:3,0:0:0:0:
482,121,86090,1,0,0:0:0:0:
482,121,86252,2,0,L|491:46,1,55.0000016784668,2|6,0:3|0:3,0:0:0:0:
497,11,86577,1,2,1:3:0:0:
394,50,86901,54,0,L|218:72,1,165.0000050354,4|0,0:3|0:0,0:0:0:0:
177,87,87550,2,0,P|188:144|155:202,1,110.000003356934,0|2,0:0|1:3,0:0:0:0:
57,222,88198,1,4,0:3:0:0:
135,299,88523,1,2,1:3:0:0:
242,274,88847,1,0,0:0:0:0:
324,346,89171,1,2,1:3:0:0:
429,313,89496,6,0,P|433:215|386:151,1,165.0000050354,4|0,0:3|0:0,0:0:0:0:
364,117,90144,2,0,L|440:109,1,55.0000016784668,0|6,0:0|0:3,0:0:0:0:
473,105,90469,1,2,1:3:0:0:
399,23,90793,2,0,L|284:14,1,110.000003356934,4|2,0:3|1:3,0:0:0:0:
237,31,91279,1,0,0:0:0:0:
237,31,91442,2,0,P|250:89|245:102,2,55.0000016784668,2|6|2,0:3|0:3|1:3,0:0:0:0:
127,17,92090,6,0,P|71:66|85:163,1,165.0000050354,4|0,0:3|0:0,0:0:0:0:
121,182,92739,2,0,L|128:250,1,55.0000016784668,0|6,0:0|0:3,0:0:0:0:
132,291,93063,1,2,1:3:0:0:
239,268,93388,1,4,0:3:0:0:
239,268,93550,2,0,L|359:278,1,110.000003356934,2|2,0:3|0:3,0:0:0:0:
405,183,94198,2,0,L|396:128,2,55.0000016784668,6|2|2,0:3|1:3|0:3,0:0:0:0:
454,207,94685,54,0,P|518:251|510:353,1,165.0000050354,4|0,1:1|0:0,0:0:0:0:
483,371,95334,2,0,L|416:381,1,55.0000016784668,0|6,0:0|0:3,0:0:0:0:
377,359,95658,1,2,1:3:0:0:
269,381,95982,2,0,L|150:365,1,110.000003356934,4|2,0:3|1:3,0:0:0:0:
109,344,96469,1,0,0:0:0:0:
109,344,96631,2,0,P|94:317|93:284,1,55.0000016784668,2|6,0:3|0:3,0:0:0:0:
104,239,96955,1,2,1:3:0:0:
51,142,97279,6,0,P|157:140|218:91,1,165.0000050354,4|0,0:3|0:0,0:0:0:0:
230,60,97928,2,0,L|237:-2,2,55.0000016784668,0|6|2,0:0|0:3|1:3,0:0:0:0:
306,139,98577,1,4,0:3:0:0:
401,84,98901,1,2,1:3:0:0:
477,163,99225,1,0,0:0:0:0:
384,222,99550,1,2,1:3:0:0:
450,309,99874,6,0,L|268:333,1,165.0000050354,4|0,0:3|0:0,0:0:0:0:
240,361,100523,2,0,P|194:353|166:335,1,55.0000016784668,0|6,0:0|0:3,0:0:0:0:
146,312,100847,1,2,1:3:0:0:
217,228,101171,2,0,P|202:156|161:118,1,110.000003356934,4|2,0:3|1:3,0:0:0:0:
133,99,101658,1,0,0:0:0:0:
133,99,101820,2,0,L|62:112,1,55.0000016784668,2|6,0:3|0:3,0:0:0:0:
28,86,102144,1,2,1:3:0:0:
94,0,102469,54,0,L|270:22,1,165.0000050354,4|0,0:3|0:0,0:0:0:0:
311,29,103117,2,0,L|321:100,1,55.0000016784668,0|6,0:0|0:3,0:0:0:0:
326,138,103442,1,2,1:3:0:0:
429,100,103766,1,4,0:3:0:0:
429,100,103928,2,0,L|448:235,1,110.000003356934,2|2,0:3|0:3,0:0:0:0:
496,306,104577,2,0,P|443:304|393:344,1,110.000003356934,6|2,0:3|0:3,0:0:0:0:
350,363,105063,37,4,0:1:0:0:
350,363,105225,2,0,L|287:374,2,55.0000016784668,2|2|2,0:0|0:2|0:0,0:0:0:0:
315,258,105873,2,0,L|252:269,2,55.0000016784668,4|2|2,0:3|1:2|0:0,0:0:0:0:
341,209,106360,1,4,0:3:0:0:
235,178,106684,2,0,P|179:187|135:236,1,110.000003356934,0|0,1:0|0:0,0:0:0:0:
123,276,107171,1,4,0:3:0:0:
123,276,107333,1,0,1:3:0:0:
23,322,107657,5,4,0:3:0:0:
31,213,107982,2,0,L|40:87,1,110.000003356934,0|0,1:0|0:0,0:0:0:0:
39,49,108468,1,4,0:3:0:0:
39,49,108630,1,0,1:0:0:0:
139,96,108954,1,4,0:3:0:0:
213,14,109279,2,0,P|268:23|313:72,1,110.000003356934,0|0,1:0|0:0,0:0:0:0:
325,112,109766,1,4,0:3:0:0:
325,112,109928,1,0,1:0:0:0:
379,209,110252,5,4,0:3:0:0:
379,209,110414,2,0,L|324:218,2,55.0000016784668,2|2|2,0:0|1:2|0:0,0:0:0:0:
399,318,111063,2,0,L|344:327,2,55.0000016784668,4|2|2,0:3|1:2|0:0,0:0:0:0:
454,309,111549,1,4,0:3:0:0:
503,211,111873,2,0,L|487:96,1,110.000003356934,0|0,1:0|0:0,0:0:0:0:
477,49,112360,1,4,0:3:0:0:
477,49,112522,1,0,1:0:0:0:
372,18,112846,53,4,0:3:0:0:
329,120,113171,2,0,P|244:115|217:83,1,110.000003356934,0|0,1:0|0:0,0:0:0:0:
196,58,113657,1,4,0:3:0:0:
196,58,113819,1,0,1:0:0:0:
128,145,114144,1,4,0:3:0:0:
24,113,114468,2,0,L|41:239,1,110.000003356934,0|0,1:0|0:0,0:0:0:0:
44,277,114954,1,4,0:3:0:0:
44,277,115117,1,0,1:0:0:0:
104,370,115441,5,4,1:0:0:0:
104,370,115603,2,0,L|43:386,2,55.0000016784668,2|2|0,0:0|1:3|0:0,0:0:0:0:
149,338,116090,1,2,1:3:0:0:
149,338,116252,2,0,L|137:271,2,55.0000016784668,4|2|0,0:3|1:3|0:0,0:0:0:0:
199,362,116738,2,0,P|269:360|307:322,1,110.000003356934,2|2,1:3|1:3,0:0:0:0:
348,239,117387,2,0,L|338:178,1,55.0000016784668,2|6,1:3|0:3,0:0:0:0:
328,132,117711,1,2,1:3:0:0:
390,41,118036,6,0,P|320:39|282:1,1,110.000003356934,2|2,1:3|1:3,0:0:0:0:
183,36,118684,2,0,L|178:97,1,55.0000016784668,2|6,1:3|0:3,0:0:0:0:
174,146,119008,1,2,1:3:0:0:
111,236,119333,2,0,L|230:245,1,110.000003356934,2|2,1:3|1:3,0:0:0:0:
316,300,119981,2,0,L|381:289,1,55.0000016784668,2|6,1:3|0:3,0:0:0:0:
425,280,120306,1,2,1:3:0:0:
498,198,120630,54,0,P|510:165|507:122,2,55.0000016784668,4|0|2,1:2|0:0|1:3,0:0:0:0:
401,148,121279,2,0,P|374:125|332:115,2,55.0000016784668,2|0|2,1:3|0:0|1:3,0:0:0:0:
321,224,121927,2,0,P|291:242|268:279,2,55.0000016784668,4|0|2,1:2|0:0|1:3,0:0:0:0:
374,322,122576,2,0,P|382:355|410:388,2,55.0000016784668,2|0|2,1:3|0:0|1:3,0:0:0:0:
483,306,123225,6,0,L|489:242,1,55.0000016784668,4|0,1:2|1:0,0:0:0:0:
491,197,123549,1,0,1:0:0:0:
397,142,123873,2,0,L|391:77,1,55.0000016784668,4|0,1:2|1:0,0:0:0:0:
385,33,124198,1,0,1:0:0:0:
277,15,124522,6,0,P|232:56|218:59,1,55.0000016784668,4|4,1:2|1:3,0:0:0:0:
228,107,124846,2,0,P|167:113|154:107,1,55.0000016784668,4|4,1:3|1:3,0:0:0:0:
136,155,125171,2,0,P|83:124|75:112,1,55.0000016784668,4|4,1:3|1:3,0:0:0:0:
60,84,125495,1,2,1:3:0:0:
