osu file format v14

[General]
AudioFilename: audio.mp3
AudioLeadIn: 0
PreviewTime: 62252
Countdown: 1
SampleSet: Soft
StackLeniency: 0.5
Mode: 0
LetterboxInBreaks: 0
WidescreenStoryboard: 1

[Editor]
Bookmarks: 11658,22036,42793,53171,58361,63550,84307,105063,115442,120631
DistanceSpacing: 1.5
BeatDivisor: 4
GridSize: 8
TimelineZoom: 1.3

[Metadata]
Title:Spring Signal
TitleUnicode:Spring Signal
Artist:yuki.
ArtistUnicode:yuki.
Creator:pishifat
Version:Hard
Source:
Tags:nyquill
BeatmapID:1513224
BeatmapSetID:716211

[Difficulty]
HPDrainRate:5
CircleSize:4
OverallDifficulty:6.5
ApproachRate:8
SliderMultiplier:0.999999999999999
SliderTickRate:1

[Events]
//Background and Video events
0,0,"spring-signal.jpg",0,0
//Break Periods
2,23371,26475
2,28560,31665
2,33750,36854
2,38939,39611
//Storyboard Layer 0 (Background)
//Storyboard Layer 1 (Fail)
//Storyboard Layer 2 (Pass)
//Storyboard Layer 3 (Foreground)
//Storyboard Sound Samples

[TimingPoints]
1280,324.324324324324,4,2,1,80,1,0
1280,-76.9230769230769,4,2,1,80,0,0
16847,-66.6666666666667,4,2,1,100,0,0
17171,-68.9655172413793,4,2,1,100,0,0
17496,-71.4285714285714,4,2,1,100,0,0
17820,-74.0740740740741,4,2,1,100,0,0
18144,-76.9230769230769,4,2,1,90,0,0
18469,-80,4,2,1,90,0,0
18793,-83.3333333333333,4,2,1,90,0,0
19117,-86.9565217391304,4,2,1,90,0,0
19442,-90.9090909090909,4,2,1,90,0,0
20820,-90.9090909090909,4,2,1,75,0,0
21712,-100,4,2,1,100,0,0
22036,-100,4,2,0,60,0,0
42793,-83.3333333333333,4,2,0,70,0,0
43279,-83.3333333333333,4,2,0,70,0,0
43766,-83.3333333333333,4,2,0,70,0,0
44090,-83.3333333333333,4,2,0,70,0,0
44577,-83.3333333333333,4,2,0,70,0,0
45063,-83.3333333333333,4,2,0,70,0,0
45388,-83.3333333333333,4,2,0,70,0,0
45874,-83.3333333333333,4,2,0,70,0,0
46361,-83.3333333333333,4,2,0,70,0,0
46685,-83.3333333333333,4,2,0,70,0,0
47009,-83.3333333333333,4,2,0,70,0,0
47334,-83.3333333333333,4,2,0,70,0,0
47658,-83.3333333333333,4,2,0,70,0,0
47982,-83.3333333333333,4,2,0,70,0,0
48469,-83.3333333333333,4,2,0,70,0,0
48955,-83.3333333333333,4,2,0,70,0,0
49766,-83.3333333333333,4,2,0,70,0,0
50252,-83.3333333333333,4,2,0,70,0,0
50577,-83.3333333333333,4,2,0,70,0,0
51063,-83.3333333333333,4,2,0,70,0,0
51550,-83.3333333333333,4,2,0,70,0,0
52198,-83.3333333333333,4,2,0,70,0,0
52523,-83.3333333333333,4,2,0,70,0,0
52847,-83.3333333333333,4,2,0,70,0,0
53171,-76.9230769230769,4,2,1,80,0,0
57063,-76.9230769230769,4,2,1,80,0,0
57388,-76.9230769230769,4,2,1,80,0,0
57712,-76.9230769230769,4,2,1,80,0,0
58036,-76.9230769230769,4,2,1,80,0,0
58361,-66.6666666666667,4,2,1,100,0,0
58685,-68.9655172413793,4,2,1,100,0,0
59009,-71.4285714285714,4,2,1,100,0,0
59334,-74.0740740740741,4,2,1,100,0,0
59658,-76.9230769230769,4,2,1,90,0,0
59982,-80,4,2,1,90,0,0
60307,-83.3333333333333,4,2,1,90,0,0
60631,-86.9565217391304,4,2,1,90,0,0
60955,-90.9090909090909,4,2,1,90,0,0
62334,-90.9090909090909,4,2,1,75,0,0
63225,-100,4,2,1,100,0,0
63550,-66.6666666666667,4,2,1,100,0,1
63712,-66.6666666666667,4,2,1,100,0,1
63874,-66.6666666666667,4,2,1,100,0,1
64117,-66.6666666666667,4,2,1,100,0,1
64361,-66.6666666666667,4,2,1,100,0,1
64523,-66.6666666666667,4,2,1,100,0,1
64685,-66.6666666666667,4,2,1,100,0,1
65009,-66.6666666666667,4,2,1,100,0,1
65171,-66.6666666666667,4,2,1,100,0,1
65415,-66.6666666666667,4,2,1,100,0,1
65658,-66.6666666666667,4,2,1,100,0,1
65820,-66.6666666666667,4,2,1,100,0,1
66307,-66.6666666666667,4,2,1,100,0,1
66712,-66.6666666666667,4,2,1,100,0,1
66955,-66.6666666666667,4,2,1,100,0,1
67117,-66.6666666666667,4,2,1,100,0,1
67279,-66.6666666666667,4,2,1,100,0,1
67604,-66.6666666666667,4,2,1,100,0,1
68252,-66.6666666666667,4,2,1,100,0,1
68415,-66.6666666666667,4,2,1,100,0,1
68577,-66.6666666666667,4,2,1,100,0,1
68901,-66.6666666666667,4,2,1,100,0,1
69225,-66.6666666666667,4,2,1,100,0,1
69550,-66.6666666666667,4,2,1,100,0,1
69874,-66.6666666666667,4,2,1,100,0,1
70198,-66.6666666666667,4,2,1,100,0,1
70361,-66.6666666666667,4,2,1,100,0,1
70604,-66.6666666666667,4,2,1,100,0,1
71009,-66.6666666666667,4,2,1,100,0,1
71496,-66.6666666666667,4,2,1,100,0,1
71658,-66.6666666666667,4,2,1,100,0,1
71901,-66.6666666666667,4,2,1,100,0,1
72144,-66.6666666666667,4,2,1,100,0,1
72307,-66.6666666666667,4,2,1,100,0,1
72469,-66.6666666666667,4,2,1,100,0,1
72793,-66.6666666666667,4,2,1,100,0,1
73117,-66.6666666666667,4,2,1,100,0,1
73442,-66.6666666666667,4,2,1,100,0,1
73604,-66.6666666666667,4,2,1,100,0,1
73766,-66.6666666666667,4,2,1,100,0,1
74090,-66.6666666666667,4,2,1,100,0,1
74496,-66.6666666666667,4,2,1,100,0,1
74739,-66.6666666666667,4,2,1,100,0,1
75063,-66.6666666666667,4,2,1,100,0,1
75388,-66.6666666666667,4,2,1,100,0,1
75550,-66.6666666666667,4,2,1,100,0,1
75793,-66.6666666666667,4,2,1,100,0,1
76198,-66.6666666666667,4,2,1,100,0,1
76685,-66.6666666666667,4,2,1,100,0,1
77090,-66.6666666666667,4,2,1,100,0,1
77334,-66.6666666666667,4,2,1,100,0,1
77658,-66.6666666666667,4,2,1,100,0,1
78631,-66.6666666666667,4,2,1,100,0,1
78793,-66.6666666666667,4,2,1,100,0,1
78955,-66.6666666666667,4,2,1,100,0,1
79279,-66.6666666666667,4,2,1,100,0,1
79685,-66.6666666666667,4,2,1,100,0,1
79928,-66.6666666666667,4,2,1,100,0,1
80252,-66.6666666666667,4,2,1,100,0,1
80577,-66.6666666666667,4,2,1,100,0,1
80739,-66.6666666666667,4,2,1,100,0,1
80982,-66.6666666666667,4,2,1,100,0,1
81550,-66.6666666666667,4,2,1,100,0,1
81874,-66.6666666666667,4,2,1,100,0,1
82036,-66.6666666666667,4,2,1,100,0,1
82198,-66.6666666666667,4,2,1,100,0,1
82523,-66.6666666666667,4,2,1,100,0,1
82685,-66.6666666666667,4,2,1,100,0,1
82847,-66.6666666666667,4,2,1,100,0,1
84307,-66.6666666666667,4,2,1,100,0,1
84874,-66.6666666666667,4,2,1,100,0,1
85279,-66.6666666666667,4,2,1,100,0,1
85442,-66.6666666666667,4,2,1,100,0,1
85766,-66.6666666666667,4,2,1,100,0,1
86577,-66.6666666666667,4,2,1,100,0,1
86739,-66.6666666666667,4,2,1,100,0,1
87063,-66.6666666666667,4,2,1,100,0,1
87469,-66.6666666666667,4,2,1,100,0,1
88036,-66.6666666666667,4,2,1,100,0,1
88361,-66.6666666666667,4,2,1,100,0,1
89009,-66.6666666666667,4,2,1,100,0,1
89171,-66.6666666666667,4,2,1,100,0,1
89334,-66.6666666666667,4,2,1,100,0,1
89658,-66.6666666666667,4,2,1,100,0,1
90063,-66.6666666666667,4,2,1,100,0,1
90631,-66.6666666666667,4,2,1,100,0,1
91766,-66.6666666666667,4,2,1,100,0,1
91928,-66.6666666666667,4,2,1,100,0,1
92252,-66.6666666666667,4,2,1,100,0,1
92415,-66.6666666666667,4,2,1,100,0,1
92658,-66.6666666666667,4,2,1,100,0,1
92901,-66.6666666666667,4,2,1,100,0,1
93063,-66.6666666666667,4,2,1,100,0,1
93225,-66.6666666666667,4,2,1,100,0,1
93550,-66.6666666666667,4,2,1,100,0,1
94198,-66.6666666666667,4,2,1,100,0,1
94361,-66.6666666666667,4,2,1,100,0,1
94523,-66.6666666666667,4,2,1,100,0,1
94847,-66.6666666666667,4,2,1,100,0,1
95252,-66.6666666666667,4,2,1,100,0,1
95820,-66.6666666666667,4,2,1,100,0,1
96955,-66.6666666666667,4,2,1,100,0,1
97117,-66.6666666666667,4,2,1,100,0,1
97442,-66.6666666666667,4,2,1,100,0,1
97847,-66.6666666666667,4,2,1,100,0,1
98252,-66.6666666666667,4,2,1,100,0,1
98415,-66.6666666666667,4,2,1,100,0,1
98901,-66.6666666666667,4,2,1,100,0,1
99388,-66.6666666666667,4,2,1,100,0,1
99550,-66.6666666666667,4,2,1,100,0,1
99712,-66.6666666666667,4,2,1,100,0,1
100036,-66.6666666666667,4,2,1,100,0,1
100442,-66.6666666666667,4,2,1,100,0,1
101009,-66.6666666666667,4,2,1,100,0,1
102144,-66.6666666666667,4,2,1,100,0,1
102307,-66.6666666666667,4,2,1,100,0,1
102631,-66.6666666666667,4,2,1,100,0,1
102793,-66.6666666666667,4,2,1,100,0,1
103036,-66.6666666666667,4,2,1,100,0,1
103279,-66.6666666666667,4,2,1,100,0,1
103442,-66.6666666666667,4,2,1,100,0,1
103604,-66.6666666666667,4,2,1,100,0,1
105063,-76.9230769230769,4,2,1,80,0,0
120631,-66.6666666666667,4,2,1,100,0,0
120955,-68.9655172413793,4,2,1,100,0,0
121279,-71.4285714285714,4,2,1,100,0,0
121604,-74.0740740740741,4,2,1,100,0,0
121928,-76.9230769230769,4,2,1,90,0,0
122252,-80,4,2,1,90,0,0
122577,-83.3333333333333,4,2,1,90,0,0
122901,-86.9565217391304,4,2,1,90,0,0
123225,-90.9090909090909,4,2,1,90,0,0
124604,-90.9090909090909,4,2,1,75,0,0
125496,-90.9090909090909,4,2,1,100,0,0

[Colours]
Combo1 : 184,156,207
Combo2 : 66,200,210
Combo3 : 56,130,220
Combo4 : 115,97,220
Combo5 : 167,220,235
Combo6 : 154,168,233

[HitObjects]
130,138,1280,53,4,0:1:0:0:
42,161,1442,2,0,P|18:132|10:92,2,64.9999970245362,2|2|2,0:0|1:2|0:0,0:0:0:0:
165,57,2090,2,0,P|185:25|220:5,2,64.9999970245362,4|2|2,0:3|1:2|0:0,0:0:0:0:
130,138,2577,5,4,0:3:0:0:
130,138,2901,2,0,B|189:161|235:122|215:116|257:84|312:104,1,194.999991073609,0|4,1:0|0:3,0:0:0:0:
379,164,3550,2,0,L|390:248,1,64.9999970245362,0|0,1:0|0:0,0:0:0:0:
470,273,3874,5,4,0:3:0:0:
470,273,4198,2,0,P|370:271|289:340,1,194.999991073609,0|4,1:0|0:3,0:0:0:0:
215,368,4847,2,0,L|204:282,1,64.9999970245362,0|0,1:0|0:0,0:0:0:0:
200,212,5171,53,4,0:3:0:0:
200,212,5496,2,0,P|201:268|120:209,1,194.999991073609,0|4,1:0|0:3,0:0:0:0:
135,149,6144,2,0,L|49:140,1,64.9999970245362,0|0,1:0|0:0,0:0:0:0:
0,91,6469,5,4,0:3:0:0:
55,26,6631,2,0,P|85:34|109:57,2,64.9999970245362,2|2|2,0:0|1:2|0:0,0:0:0:0:
220,141,7279,2,0,P|221:173|207:202,2,64.9999970245362,4|2|2,0:3|1:2|0:0,0:0:0:0:
201,55,7766,5,4,0:3:0:0:
201,55,8090,2,0,P|326:73|369:121,1,194.999991073609,0|4,1:0|0:3,0:0:0:0:
458,106,8739,2,0,L|449:181,1,64.9999970245362,0|0,1:0|0:0,0:0:0:0:
480,257,9063,53,4,0:3:0:0:
480,257,9388,2,0,B|420:280|374:241|394:235|352:203|297:223,1,194.999991073609,0|4,1:0|0:3,0:0:0:0:
217,186,10036,2,0,P|176:225|173:256,1,64.9999970245362,0|0,1:0|0:0,0:0:0:0:
241,291,10361,5,4,0:3:0:0:
241,291,10685,2,0,P|163:261|164:344,1,194.999991073609,0|4,1:0|0:3,0:0:0:0:
251,379,11334,2,0,L|338:372,1,64.9999970245362,0|0,1:0|0:0,0:0:0:0:
407,368,11658,5,4,0:1:0:0:
460,299,11820,1,2,0:0:0:0:
460,299,11982,2,0,B|444:270|444:270|447:238,1,64.9999970245362,2|2,1:3|0:0,0:0:0:0:
473,153,12307,1,0,1:0:0:0:
389,171,12469,1,4,0:3:0:0:
389,171,12631,2,0,B|357:174|357:174|328:158,1,64.9999970245362,2|2,1:3|0:0,0:0:0:0:
263,88,12955,53,2,1:3:0:0:
52,50,13279,1,2,1:3:0:0:
191,49,13604,5,2,1:3:0:0:
122,92,13766,1,6,0:3:0:0:
122,10,13928,1,2,1:3:0:0:
283,229,14252,5,2,1:3:0:0:
122,92,14576,1,2,1:3:0:0:
240,163,14901,53,2,1:3:0:0:
158,161,15063,1,6,0:3:0:0:
201,92,15225,1,2,1:3:0:0:
229,361,15550,5,2,1:3:0:0:
158,161,15874,1,2,1:3:0:0:
226,278,16199,5,2,1:3:0:0:
154,239,16361,1,6,0:3:0:0:
156,320,16523,1,2,1:3:0:0:
319,80,16847,54,0,B|294:50|294:50|258:44,1,75.000002861023,4|2,1:3|1:2,0:0:0:0:
172,101,17171,2,0,B|138:114|138:114|122:146,1,72.5000022125244,2|2,1:3|1:2,0:0:0:0:
148,241,17496,2,0,B|150:276|150:276|174:300,1,69.9999978637695,2|2,1:3|1:2,0:0:0:0:
269,305,17820,2,0,B|302:314|302:314|331:299,1,67.500000257492,2|2,1:3|1:2,0:0:0:0:
363,213,18144,6,0,B|381:186|381:186|376:155,1,64.9999970245362,4|2,1:2|1:2,0:0:0:0:
308,99,18469,2,0,B|288:75|288:75|258:70,1,62.4999999999999,2|2,1:3|1:2,0:0:0:0:
187,117,18793,2,0,B|159:128|159:128|145:154,1,59.9999981689453,2|2,1:3|1:2,0:0:0:0:
167,232,19117,2,0,B|168:261|168:261|188:281,1,57.5000010967254,2|2,1:3|1:2,0:0:0:0:
267,289,19442,6,0,L|308:300,2,27.5000008392334,4|0|0,1:2|1:0|1:0,0:0:0:0:
307,217,19766,2,0,L|330:181,2,27.5000008392334,0|0|0,1:2|1:0|1:0,0:0:0:0:
248,159,20090,2,0,L|221:126,2,27.5000008392334,4|0|0,1:2|1:0|1:0,0:0:0:0:
174,196,20415,2,0,L|134:211,2,27.5000008392334,0|0|0,1:2|1:0|1:0,0:0:0:0:
193,276,20739,54,0,L|195:318,3,27.5000008392334,4|4|4|4,1:2|1:3|1:3|1:3,0:0:0:0:
234,296,21063,2,0,L|260:328,3,27.5000008392334,4|4|4|4,1:3|1:3|1:3|1:3,0:0:0:0:
278,279,21388,2,0,L|318:289,3,27.5000008392334,4|4|4|4,1:3|1:3|1:3|1:3,0:0:0:0:
290,237,21712,1,2,1:3:0:0:
256,32,22036,5,4,0:1:0:0:
175,66,22198,2,0,L|186:135,2,50,2|2|2,0:0|0:0|0:0,0:0:0:0:
337,66,22847,2,0,L|326:135,2,50,2|2|2,0:0|0:0|0:0,0:0:0:0:
256,352,27225,5,2,0:3:0:0:
337,318,27387,2,0,L|326:249,2,50,2|2|2,0:0|0:0|0:0,0:0:0:0:
175,318,28036,2,0,L|186:249,2,50,2|2|2,0:0|0:0|0:0,0:0:0:0:
32,192,32415,53,2,0:3:0:0:
66,273,32577,2,0,L|135:262,2,50,2|2|2,0:0|0:0|0:0,0:0:0:0:
66,111,33226,2,0,L|135:122,2,50,2|0|2,0:0|0:0|0:0,0:0:0:0:
480,192,37604,5,2,0:3:0:0:
446,273,37766,2,0,L|377:262,2,50,2|2|2,0:0|0:0|0:0,0:0:0:0:
446,111,38415,2,0,L|377:122,2,50,2|0|2,0:0|0:0|0:0,0:0:0:0:
256,192,40361,12,0,42469,0:0:0:0:
256,264,42793,6,0,P|204:268|132:221,1,119.999996337891,4|0,0:0|0:0,0:0:0:0:
113,147,43279,2,0,P|134:99|211:62,1,119.999996337891,2|0,0:0|0:0,0:0:0:0:
285,86,43766,1,2,0:0:0:0:
285,86,44090,54,0,L|405:70,1,119.999996337891,2|0,0:3|0:0,0:0:0:0:
447,147,44577,2,0,L|328:162,1,119.999996337891,2|0,0:0|0:0,0:0:0:0:
281,236,45063,1,2,0:0:0:0:
281,236,45388,6,0,P|246:302|258:351,1,119.999996337891,2|0,0:3|0:0,0:0:0:0:
335,384,45874,2,0,P|398:344|412:295,1,119.999996337891,2|0,0:0|0:0,0:0:0:0:
367,225,46361,2,0,L|440:216,1,59.9999981689453,2|0,0:0|0:0,0:0:0:0:
512,211,46685,5,2,0:3:0:0:
357,79,47009,1,2,0:0:0:0:
221,172,47334,1,2,0:0:0:0:
122,67,47658,1,2,0:0:0:0:
24,158,47982,54,0,P|28:235|69:275,1,119.999996337891,2|0,0:3|0:0,0:0:0:0:
128,309,48469,2,0,P|188:261|245:267,1,119.999996337891,2|0,0:0|0:0,0:0:0:0:
314,292,48955,1,2,0:0:0:0:
314,292,49279,6,0,L|449:274,1,119.999996337891,2|0,0:3|0:0,0:0:0:0:
443,184,49766,1,2,0:0:0:0:
443,184,49928,2,0,L|370:195,1,59.9999981689453,2|0,0:3|0:0,0:0:0:0:
302,205,50252,1,2,0:0:0:0:
302,205,50577,6,0,P|274:164|279:93,1,119.999996337891,2|0,0:3|0:0,0:0:0:0:
231,23,51063,2,0,P|172:16|121:47,1,119.999996337891,2|0,0:0|0:0,0:0:0:0:
80,125,51550,2,0,L|90:205,2,59.9999981689453,2|0|2,0:0|0:0|0:3,0:0:0:0:
109,364,52198,53,2,0:0:0:0:
246,260,52523,1,2,0:0:0:0:
410,309,52847,1,2,0:0:0:0:
489,146,53171,6,0,L|481:75,1,64.9999970245362,2|2,1:3|0:0,0:0:0:0:
419,23,53496,1,2,1:3:0:0:
352,75,53658,2,0,L|349:113,2,32.4999985122681,2|2|2,0:0|0:0|1:3,0:0:0:0:
282,16,53982,1,4,0:3:0:0:
282,16,54144,2,0,B|248:20|248:20|215:46,1,64.9999970245362,2|0,1:3|0:0,0:0:0:0:
173,108,54469,6,0,L|95:98,1,64.9999970245362,2|2,1:3|0:0,0:0:0:0:
39,154,54793,1,2,1:3:0:0:
101,232,54955,1,2,0:0:0:0:
101,232,55036,1,2,0:0:0:0:
100,232,55117,2,0,B|86:261|86:261|85:293,1,64.9999970245362,2|4,1:3|0:3,0:0:0:0:
151,355,55442,2,0,B|183:353|183:353|212:339,1,64.9999970245362,2|0,1:3|0:0,0:0:0:0:
273,271,55766,54,0,L|357:279,2,64.9999970245362,2|2|2,1:3|0:0|1:3,0:0:0:0:
217,205,56252,2,0,L|169:210,2,32.4999985122681,2|2|2,0:0|0:0|1:3,0:0:0:0:
278,145,56577,1,4,0:3:0:0:
209,93,56739,2,0,B|195:67|195:67|192:33,1,64.9999970245362,2|2,1:3|0:0,0:0:0:0:
285,46,57063,6,0,L|367:32,1,64.9999970245362,2|0,1:3|0:0,0:0:0:0:
434,84,57388,2,0,L|498:94,1,64.9999970245362,2|2,1:3|0:0,0:0:0:0:
498,94,57631,1,2,0:0:0:0:
498,94,57712,2,0,B|522:114|522:114|537:143,2,64.9999970245362,2|4|2,1:3|0:3|1:3,0:0:0:0:
455,166,58198,1,0,0:0:0:0:
358,147,58361,6,0,B|272:155,1,75.000002861023,4|2,1:2|1:2,0:0:0:0:
302,66,58685,2,0,B|229:59,1,72.5000022125244,2|2,1:3|1:2,0:0:0:0:
190,144,59009,2,0,B|120:150,1,69.9999978637695,2|2,1:3|1:2,0:0:0:0:
110,66,59334,2,0,B|40:59,1,67.500000257492,2|2,1:3|1:2,0:0:0:0:
2,181,59658,54,0,B|8:245,1,64.9999970245362,4|2,1:2|1:2,0:0:0:0:
95,232,59982,2,0,B|89:294,1,62.4999999999999,2|2,1:3|1:2,0:0:0:0:
175,277,60307,2,0,B|181:341,1,59.9999981689453,2|2,1:3|1:2,0:0:0:0:
265,324,60631,2,0,B|259:386,1,57.5000010967254,2|2,1:3|1:2,0:0:0:0:
347,360,60955,6,0,L|389:349,2,27.5000008392334,4|0|0,1:2|1:0|1:0,0:0:0:0:
359,278,61279,2,0,L|385:271,2,27.5000008392334,0|0|0,1:2|1:0|1:0,0:0:0:0:
369,195,61604,2,0,L|395:188,2,27.5000008392334,4|0|0,1:2|1:0|1:0,0:0:0:0:
377,112,61928,2,0,L|403:105,2,27.5000008392334,0|0|0,1:2|1:0|1:0,0:0:0:0:
302,146,62252,6,0,L|275:152,3,27.5000008392334,4|4|4|4,1:2|1:3|1:3|1:3,0:0:0:0:
235,134,62577,2,0,L|215:113,3,27.5000008392334,4|4|4|4,1:3|1:3|1:3|1:3,0:0:0:0:
203,75,62901,2,0,L|210:48,3,27.5000008392334,4|4|4|4,1:3|1:3|1:3|1:3,0:0:0:0:
246,20,63225,1,2,1:3:0:0:
140,174,63550,5,4,1:1:0:0:
70,222,63712,1,2,0:3:0:0:
70,222,63874,2,0,P|37:264|52:344,2,112.500004291534,2|2|6,1:3|0:3|0:3,0:0:0:0:
146,259,64523,2,0,P|209:279|234:268,1,75.000002861023,2|2,1:3|0:3,0:0:0:0:
286,224,64847,5,4,0:3:0:0:
349,281,65009,1,2,0:3:0:0:
425,244,65171,2,0,L|439:151,1,75.000002861023,2|0,1:3|0:0,0:0:0:0:
449,157,65415,2,0,P|432:91|372:63,1,112.500004291534,2|6,0:3|0:3,0:0:0:0:
318,111,65820,2,0,P|270:106|241:82,1,75.000002861023,2|2,1:3|0:3,0:0:0:0:
194,23,66144,5,4,0:3:0:0:
122,73,66307,1,2,0:3:0:0:
122,73,66469,2,0,L|-3:90,2,112.500004291534,2|2|6,1:3|0:3|0:3,0:0:0:0:
175,141,67117,2,0,P|166:177|139:201,1,75.000002861023,2|2,1:3|0:3,0:0:0:0:
57,224,67442,53,4,0:3:0:0:
118,286,67604,1,2,0:3:0:0:
198,264,67766,2,0,L|278:253,1,75.000002861023,2|0,1:3|0:0,0:0:0:0:
283,242,68009,2,0,P|350:250|393:311,1,112.500004291534,2|6,0:3|0:3,0:0:0:0:
458,332,68415,2,0,L|467:252,1,75.000002861023,2|2,1:3|0:3,0:0:0:0:
475,169,68739,5,4,0:3:0:0:
400,123,68901,1,2,0:3:0:0:
400,123,69063,2,0,P|454:82|517:93,2,112.500004291534,2|2|6,1:3|0:3|0:3,0:0:0:0:
320,163,69712,2,0,P|260:148|239:124,1,75.000002861023,2|2,1:3|0:3,0:0:0:0:
201,66,70036,5,4,0:3:0:0:
124,115,70198,1,2,0:3:0:0:
38,86,70361,2,0,L|47:172,1,75.000002861023,2|0,1:3|0:0,0:0:0:0:
37,172,70604,2,0,P|74:214|129:223,1,112.500004291534,2|6,0:3|3:3,0:0:0:0:
212,186,71009,2,0,P|252:186|287:207,1,75.000002861023,2|2,1:3|0:3,0:0:0:0:
348,261,71334,53,4,0:3:0:0:
301,347,71496,1,2,0:3:0:0:
301,347,71658,2,0,L|447:335,2,112.500004291534,2|2|6,1:3|0:3|0:3,0:0:0:0:
229,302,72307,1,2,1:3:0:0:
165,359,72469,1,2,0:3:0:0:
146,273,72631,5,4,0:3:0:0:
64,290,72793,2,0,P|42:249|44:207,1,75.000002861023,2|0,0:3|1:3,0:0:0:0:
0,144,73117,2,0,P|32:110|72:99,1,75.000002861023,2|0,0:3|0:0,0:0:0:0:
124,40,73442,1,6,0:3:0:0:
124,40,73604,2,0,P|165:60|188:95,1,75.000002861023,2|2,1:3|0:3,0:0:0:0:
215,165,73928,5,4,1:1:0:0:
290,118,74090,1,2,0:3:0:0:
290,118,74252,2,0,L|303:-12,2,112.500004291534,2|2|6,1:3|0:3|0:3,0:0:0:0:
325,199,74901,2,0,P|377:219|420:208,1,75.000002861023,2|2,1:3|0:3,0:0:0:0:
479,187,75225,53,4,0:3:0:0:
465,273,75388,1,2,0:3:0:0:
453,359,75550,2,0,L|376:367,1,75.000002861023,2|0,1:3|0:0,0:0:0:0:
366,378,75793,2,0,P|312:382|267:350,1,112.500004291534,2|6,0:3|0:3,0:0:0:0:
233,267,76198,2,0,L|223:173,1,75.000002861023,2|2,1:3|0:3,0:0:0:0:
270,114,76523,5,4,0:3:0:0:
232,26,76685,1,2,0:3:0:0:
232,26,76847,2,0,L|343:41,2,112.500004291534,2|2|6,1:3|0:3|0:3,0:0:0:0:
148,0,77496,2,0,P|90:29|81:46,1,75.000002861023,2|2,1:3|0:3,0:0:0:0:
69,118,77820,5,4,0:3:0:0:
124,183,77982,1,2,0:3:0:0:
70,258,78144,2,0,L|156:271,1,75.000002861023,2|0,1:3|0:0,0:0:0:0:
160,262,78388,2,0,P|225:277|252:324,1,112.500004291534,2|6,0:3|0:3,0:0:0:0:
310,378,78793,2,0,P|368:367|393:341,1,75.000002861023,2|2,1:3|0:3,0:0:0:0:
417,278,79117,53,4,0:3:0:0:
343,238,79279,1,2,0:3:0:0:
343,238,79442,2,0,P|346:177|381:136,2,112.500004291534,2|2|6,1:3|0:3|0:3,0:0:0:0:
417,278,80090,2,0,L|500:289,1,75.000002861023,2|2,1:3|0:3,0:0:0:0:
461,201,80415,5,4,0:3:0:0:
503,124,80577,1,2,0:3:0:0:
503,124,80739,2,0,P|485:68|456:45,1,75.000002861023,2|0,1:3|0:0,0:0:0:0:
460,47,80982,2,0,L|333:38,1,112.500004291534,2|6,0:3|0:3,0:0:0:0:
279,94,81388,2,0,L|203:105,1,75.000002861023,2|2,1:3|0:3,0:0:0:0:
121,70,81712,5,4,0:3:0:0:
74,146,81874,1,2,0:3:0:0:
74,146,82036,2,0,P|33:90|45:26,2,112.500004291534,2|2|6,1:3|0:3|0:3,0:0:0:0:
155,180,82685,2,0,P|146:237|125:260,1,75.000002861023,2|2,1:3|0:3,0:0:0:0:
64,296,83009,53,4,0:3:0:0:
128,357,83171,2,0,L|211:369,1,75.000002861023,2|0,0:3|1:3,0:0:0:0:
239,293,83496,2,0,L|313:304,1,75.000002861023,2|0,0:3|0:0,0:0:0:0:
361,377,83820,1,6,0:3:0:0:
437,355,83982,1,2,1:3:0:0:
512,335,84144,1,2,0:3:0:0:
455,276,84307,6,0,P|456:243|490:199,1,75.000002861023,4|2,1:1|0:3,0:0:0:0:
445,122,84631,2,0,P|407:119|374:136,1,75.000002861023,2|0,1:3|0:0,0:0:0:0:
361,149,84874,2,0,L|238:137,1,112.500004291534,2|6,0:3|0:3,0:0:0:0:
166,174,85279,2,0,P|133:107|144:81,1,75.000002861023,2|2,1:3|0:3,0:0:0:0:
175,38,85604,5,4,0:3:0:0:
87,38,85766,1,2,0:3:0:0:
87,38,85928,2,0,L|6:52,1,75.000002861023,2|0,1:3|0:0,0:0:0:0:
1,62,86171,2,0,P|46:142|37:171,1,112.500004291534,2|6,0:3|0:3,0:0:0:0:
2,235,86577,2,0,P|5:271|28:302,1,75.000002861023,2|2,1:3|0:3,0:0:0:0:
111,322,86901,54,0,L|201:309,1,75.000002861023,4|2,0:3|0:3,0:0:0:0:
266,348,87225,2,0,P|356:373|390:350,2,112.500004291534,2|2|6,1:3|0:3|0:3,0:0:0:0:
257,264,87874,1,2,1:3:0:0:
248,180,88036,1,2,0:3:0:0:
328,214,88198,6,0,P|390:195|414:158,1,75.000002861023,4|2,0:3|0:3,0:0:0:0:
463,113,88523,2,0,P|401:94|377:57,1,75.000002861023,2|0,1:3|0:0,0:0:0:0:
385,73,88766,1,2,0:3:0:0:
375,57,88847,2,0,L|290:48,1,75.000002861023,0|6,0:0|0:3,0:0:0:0:
220,19,89171,2,0,L|145:26,1,75.000002861023,2|2,1:3|0:3,0:0:0:0:
84,93,89496,5,4,0:3:0:0:
170,112,89658,1,2,0:3:0:0:
109,177,89820,2,0,P|81:269|102:301,2,112.500004291534,2|2|6,1:3|0:3|0:3,0:0:0:0:
193,194,90469,2,0,P|225:214|262:217,1,75.000002861023,2|2,1:3|0:3,0:0:0:0:
335,173,90793,53,4,0:3:0:0:
393,236,90955,1,2,0:3:0:0:
319,284,91117,2,0,L|311:366,1,75.000002861023,2|0,1:3|0:0,0:0:0:0:
319,374,91361,2,0,P|349:350|421:349,1,112.500004291534,2|6,0:3|0:3,0:0:0:0:
512,384,91766,2,0,L|499:297,1,75.000002861023,2|2,1:3|0:3,0:0:0:0:
512,221,92090,5,4,0:3:0:0:
463,150,92252,1,2,0:3:0:0:
379,170,92415,2,0,L|392:59,2,112.500004291534,2|2|6,1:3|0:3|0:3,0:0:0:0:
298,192,93063,2,0,P|248:176|217:140,1,75.000002861023,2|2,1:3|0:3,0:0:0:0:
178,88,93388,5,4,0:3:0:0:
90,83,93550,2,0,P|51:119|46:161,1,75.000002861023,2|0,0:3|1:0,0:0:0:0:
0,216,93874,2,0,P|22:264|60:281,1,75.000002861023,2|0,0:3|0:0,0:0:0:0:
80,358,94198,1,6,0:3:0:0:
80,358,94361,2,0,P|132:351|161:320,1,75.000002861023,2|2,1:3|0:3,0:0:0:0:
196,266,94685,53,4,1:1:0:0:
259,330,94847,1,2,0:3:0:0:
341,292,95009,2,0,L|478:275,2,112.500004291534,2|2|6,1:3|0:3|0:3,0:0:0:0:
279,229,95658,2,0,P|277:192|296:158,1,75.000002861023,2|2,1:3|0:3,0:0:0:0:
368,111,95982,5,4,0:3:0:0:
289,74,96144,1,2,0:3:0:0:
215,125,96307,2,0,L|124:136,1,75.000002861023,2|0,1:3|0:0,0:0:0:0:
127,145,96550,2,0,P|73:131|36:77,1,112.500004291534,2|6,0:3|0:3,0:0:0:0:
15,0,96955,2,0,L|106:14,1,75.000002861023,2|2,1:3|0:3,0:0:0:0:
169,46,97279,6,0,P|221:36|256:3,1,75.000002861023,4|2,0:3|0:3,0:0:0:0:
330,11,97604,2,0,P|378:48|386:78,1,75.000002861023,2|0,1:3|0:0,0:0:0:0:
372,75,97847,2,0,L|362:208,1,112.500004291534,2|6,0:3|0:3,0:0:0:0:
303,252,98252,1,2,1:3:0:0:
389,271,98415,1,2,0:3:0:0:
329,335,98577,54,0,P|276:351|246:343,1,75.000002861023,4|2,0:3|0:3,0:0:0:0:
203,278,98901,2,0,P|150:262|120:270,1,75.000002861023,2|0,1:3|0:0,0:0:0:0:
116,275,99144,1,2,0:3:0:0:
106,291,99225,2,0,L|95:198,1,75.000002861023,0|6,0:0|0:3,0:0:0:0:
35,151,99550,2,0,L|46:58,1,75.000002861023,2|2,1:3|0:3,0:0:0:0:
115,22,99874,5,4,0:3:0:0:
168,92,100036,1,2,0:3:0:0:
232,33,100198,2,0,P|296:7|352:20,2,112.500004291534,2|2|6,1:3|0:3|0:3,0:0:0:0:
168,92,100847,2,0,L|179:181,1,75.000002861023,2|2,1:3|0:3,0:0:0:0:
235,229,101171,5,4,0:3:0:0:
312,188,101334,1,2,0:3:0:0:
382,238,101496,2,0,P|434:233|465:209,1,75.000002861023,2|0,1:3|0:0,0:0:0:0:
463,206,101739,2,0,L|454:339,1,112.500004291534,2|6,0:3|0:3,0:0:0:0:
385,373,102144,2,0,P|337:347|301:349,1,75.000002861023,2|2,1:3|0:3,0:0:0:0:
234,366,102469,54,0,L|151:378,1,75.000002861023,4|2,0:3|0:3,0:0:0:0:
100,310,102793,2,0,P|105:266|159:218,2,112.500004291534,2|2|6,1:3|0:3|0:3,0:0:0:0:
21,349,103442,2,0,P|-4:307|1:254,1,75.000002861023,2|2,1:3|0:3,0:0:0:0:
31,200,103766,5,4,0:3:0:0:
31,200,103928,2,0,L|23:116,1,75.000002861023,2|0,0:3|1:3,0:0:0:0:
0,38,104252,2,0,L|74:45,1,75.000002861023,2|0,0:3|0:0,0:0:0:0:
153,97,104577,1,6,0:3:0:0:
153,97,104739,2,0,L|227:89,1,75.000002861023,2|2,1:3|0:3,0:0:0:0:
315,80,105063,21,4,0:1:0:0:
394,119,105225,2,0,P|418:148|426:184,2,64.9999970245362,2|2|2,0:0|0:2|0:0,0:0:0:0:
271,223,105873,2,0,P|251:255|216:275,2,64.9999970245362,4|2|2,0:3|1:2|0:0,0:0:0:0:
303,141,106360,5,4,0:3:0:0:
303,141,106684,2,0,B|248:121|206:153|226:159|180:198|121:175,1,194.999991073609,0|4,1:0|0:3,0:0:0:0:
30,156,107333,2,0,L|41:240,1,64.9999970245362,0|0,1:3|0:0,0:0:0:0:
0,310,107657,5,4,0:3:0:0:
0,310,107982,2,0,P|79:380|181:373,1,194.999991073609,0|4,1:0|0:3,0:0:0:0:
225,321,108630,2,0,L|311:310,1,64.9999970245362,0|0,1:0|0:0,0:0:0:0:
327,232,108955,53,4,0:3:0:0:
327,232,109279,2,0,P|326:288|407:229,1,194.999991073609,0|4,1:0|0:3,0:0:0:0:
391,170,109927,2,0,L|382:84,1,64.9999970245362,0|0,1:0|0:0,0:0:0:0:
330,37,110252,5,4,0:3:0:0:
297,116,110414,2,0,P|271:133|238:137,2,64.9999970245362,2|2|2,0:0|1:2|0:0,0:0:0:0:
102,168,111063,2,0,P|76:148|63:118,2,64.9999970245362,4|2|2,0:3|1:2|0:0,0:0:0:0:
186,208,111549,5,4,0:3:0:0:
186,208,111874,2,0,P|311:226|354:274,1,194.999991073609,0|4,1:0|0:3,0:0:0:0:
393,352,112522,2,0,L|328:359,1,64.9999970245362,0|0,1:0|0:0,0:0:0:0:
244,375,112846,53,4,0:3:0:0:
244,375,113171,2,0,B|184:398|138:359|158:353|116:321|61:341,1,194.999991073609,0|4,1:0|0:3,0:0:0:0:
7,274,113819,2,0,P|22:245|49:228,1,64.9999970245362,0|0,1:0|0:0,0:0:0:0:
140,252,114144,5,4,0:3:0:0:
140,252,114468,2,0,P|96:180|178:166,1,194.999991073609,0|4,1:0|0:3,0:0:0:0:
230,237,115117,2,0,L|317:230,1,64.9999970245362,0|0,1:0|0:0,0:0:0:0:
388,253,115442,5,4,1:0:0:0:
384,165,115604,1,2,0:0:0:0:
384,165,115766,2,0,B|353:153|353:153|334:126,1,64.9999970245362,2|0,1:3|0:0,0:0:0:0:
299,45,116091,1,2,1:3:0:0:
247,113,116253,1,4,0:3:0:0:
247,113,116415,2,0,B|219:129|219:129|186:126,1,64.9999970245362,2|0,1:3|0:0,0:0:0:0:
114,88,116739,53,2,1:3:0:0:
45,293,117063,1,2,1:3:0:0:
113,176,117388,5,2,1:3:0:0:
41,215,117550,1,6,0:3:0:0:
113,176,117712,1,2,1:3:0:0:
268,311,118036,5,2,1:3:0:0:
226,99,118360,1,2,1:3:0:0:
225,235,118685,53,2,1:3:0:0:
268,165,118847,1,6,0:3:0:0:
225,235,119009,1,2,1:3:0:0:
314,44,119334,5,2,1:3:0:0:
456,206,119658,1,2,1:3:0:0:
389,88,119983,5,2,1:3:0:0:
387,170,120145,1,6,0:3:0:0:
389,88,120307,1,2,1:3:0:0:
146,179,120631,54,0,B|116:204|116:204|110:240,1,75.000002861023,4|0,1:2|0:0,0:0:0:0:
166,325,120955,2,0,B|179:359|179:359|210:375,1,72.5000022125244,2|0,1:3|0:0,0:0:0:0:
305,349,121280,2,0,B|339:347|339:347|364:323,1,69.9999978637695,2|0,1:3|0:0,0:0:0:0:
369,228,121604,2,0,B|378:195|378:195|363:166,1,67.500000257492,2|0,1:3|0:0,0:0:0:0:
278,134,121928,6,0,B|250:116|250:116|219:121,1,64.9999970245362,4|0,1:2|0:0,0:0:0:0:
164,190,122253,2,0,B|140:210|140:210|135:240,1,62.4999999999999,2|0,1:3|0:0,0:0:0:0:
182,310,122577,2,0,B|192:338|192:338|218:351,1,59.9999981689453,2|0,1:3|0:0,0:0:0:0:
297,330,122901,2,0,B|325:328|325:328|345:308,1,57.5000010967254,2|0,1:3|0:0,0:0:0:0:
353,231,123226,6,0,L|364:189,2,27.5000008392334,4|0|0,1:2|1:0|1:0,0:0:0:0:
285,183,123550,2,0,L|248:159,2,27.5000008392334,0|0|0,1:2|1:0|1:0,0:0:0:0:
218,232,123874,2,0,L|184:259,2,27.5000008392334,4|0|0,1:2|1:0|1:0,0:0:0:0:
242,310,124198,2,0,L|257:350,2,27.5000008392334,0|0|0,1:2|1:0|1:0,0:0:0:0:
324,308,124523,54,0,L|365:306,3,27.5000008392334,4|4|4|4,1:2|1:3|1:3|1:3,0:0:0:0:
344,266,124847,2,0,L|375:240,3,27.5000008392334,4|4|4|4,1:3|1:3|1:3|1:3,0:0:0:0:
326,222,125172,2,0,L|336:181,3,27.5000008392334,4|4|4|4,1:3|1:3|1:3|1:3,0:0:0:0:
285,210,125496,1,2,1:3:0:0:
