osu file format v14

[General]
AudioFilename: audio.mp3
AudioLeadIn: 0
PreviewTime: 62252
Countdown: 1
SampleSet: Soft
StackLeniency: 0.5
Mode: 0
LetterboxInBreaks: 0
WidescreenStoryboard: 0

[Editor]
Bookmarks: 11658,22036,42793,53171,58361,63550,84307,105063,115442,120631
DistanceSpacing: 0.27
BeatDivisor: 4
GridSize: 8
TimelineZoom: 3.099999

[Metadata]
Title:Spring Signal
TitleUnicode:Spring Signal
Artist:yuki.
ArtistUnicode:yuki.
Creator:pishifat
Version:Extra
Source:
Tags:nyquill
BeatmapID:1513223
BeatmapSetID:716211

[Difficulty]
HPDrainRate:6.5
CircleSize:3.5
OverallDifficulty:8.5
ApproachRate:9.2
SliderMultiplier:2
SliderTickRate:1

[Events]
//Background and Video events
0,0,"spring-signal.jpg",0,0
//Break Periods
//Storyboard Layer 0 (Background)
//Storyboard Layer 1 (Fail)
//Storyboard Layer 2 (Pass)
//Storyboard Layer 3 (Foreground)
//Storyboard Sound Samples

[TimingPoints]
1280,324.324324324324,4,2,1,80,1,0
1280,-133.333333333333,4,2,1,80,0,0
16847,-133.333333333333,4,2,1,100,0,0
18144,-133.333333333333,4,2,1,90,0,0
20820,-133.333333333333,4,2,1,75,0,0
21712,-133.333333333333,4,2,1,100,0,0
22036,-200,4,2,0,60,0,0
26090,-200,4,2,0,40,0,0
27225,-200,4,2,0,60,0,0
31279,-200,4,2,0,40,0,0
32334,-200,4,2,0,60,0,0
36469,-200,4,2,0,40,0,0
37523,-200,4,2,0,60,0,0
42793,-153.846153846154,4,2,0,70,0,0
42799,-153.846153846154,4,2,1,25,0,0
43117,-153.846153846154,4,2,0,70,0,0
43279,-125,4,2,0,70,0,0
43287,-125,4,2,1,40,0,0
43320,-125,4,2,0,50,0,0
43361,-125,4,2,1,55,0,0
43401,-125,4,2,0,65,0,0
43442,-125,4,2,1,70,0,0
43482,-125,4,2,0,80,0,0
43523,-125,4,2,1,90,0,0
43563,-125,4,2,0,75,0,0
43604,-125,4,2,0,70,0,0
43766,-153.846153846154,4,2,0,70,0,0
43773,-153.846153846154,4,2,1,35,0,0
43928,-153.846153846154,4,2,0,70,0,0
44090,-153.846153846154,4,2,0,70,0,0
44098,-153.846153846154,4,2,1,35,0,0
44415,-153.846153846154,4,2,0,70,0,0
44577,-125,4,2,0,70,0,0
44585,-125,4,2,1,30,0,0
44617,-125,4,2,0,35,0,0
44658,-125,4,2,1,45,0,0
44698,-125,4,2,0,55,0,0
44739,-125,4,2,1,60,0,0
44779,-125,4,2,0,69,0,0
44820,-125,4,2,1,77,0,0
44861,-125,4,2,0,70,0,0
44901,-125,4,2,0,70,0,0
45063,-105.263157894737,4,2,0,70,0,0
45070,-105.263157894737,4,2,1,90,0,0
45225,-105.263157894737,4,2,0,70,0,0
45388,-153.846153846154,4,2,0,70,0,0
45395,-153.846153846154,4,2,1,35,0,0
45712,-153.846153846154,4,2,0,70,0,0
45874,-125,4,2,0,70,0,0
45881,-125,4,2,1,33,0,0
45915,-125,4,2,0,37,0,0
45955,-125,4,2,1,45,0,0
45996,-125,4,2,0,57,0,0
46036,-125,4,2,1,67,0,0
46077,-125,4,2,0,77,0,0
46117,-125,4,2,1,88,0,0
46158,-125,4,2,0,33,0,0
46198,-125,4,2,0,70,0,0
46361,-90.9090909090909,4,2,0,70,0,0
46368,-90.9090909090909,4,2,1,100,0,0
46523,-90.9090909090909,4,2,0,70,0,0
46685,-100,4,2,0,70,0,0
46692,-100,4,2,1,80,0,0
46847,-100,4,2,0,80,0,0
47009,-117.647058823529,4,2,0,70,0,0
47016,-117.647058823529,4,2,0,70,0,0
47171,-117.647058823529,4,2,0,70,0,0
47334,-142.857142857143,4,2,0,70,0,0
47341,-142.857142857143,4,2,1,60,0,0
47496,-142.857142857143,4,2,0,70,0,0
47658,-181.818181818182,4,2,0,70,0,0
47665,-181.818181818182,4,2,1,50,0,0
47820,-181.818181818182,4,2,0,70,0,0
47982,-153.846153846154,4,2,0,70,0,0
47988,-153.846153846154,4,2,1,35,0,0
48307,-153.846153846154,4,2,0,70,0,0
48469,-125,4,2,0,70,0,0
48476,-125,4,2,1,35,0,0
48509,-125,4,2,0,40,0,0
48550,-125,4,2,1,50,0,0
48590,-125,4,2,0,55,0,0
48631,-125,4,2,1,65,0,0
48671,-125,4,2,0,70,0,0
48712,-125,4,2,1,80,0,0
48752,-125,4,2,0,70,0,0
48793,-125,4,2,0,70,0,0
48955,-153.846153846154,4,2,0,70,0,0
48962,-153.846153846154,4,2,1,35,0,0
49117,-153.846153846154,4,2,0,70,0,0
49279,-153.846153846154,4,2,0,70,0,0
49287,-153.846153846154,4,2,1,35,0,0
49604,-153.846153846154,4,2,0,70,0,0
49766,-125,4,2,0,70,0,0
49928,-125,4,2,0,70,0,0
49935,-125,4,2,1,45,0,0
50090,-125,4,2,0,70,0,0
50252,-105.263157894737,4,2,0,70,0,0
50577,-153.846153846154,4,2,0,70,0,0
50584,-153.846153846154,4,2,0,35,0,0
50901,-153.846153846154,4,2,0,70,0,0
51063,-125,4,2,0,70,0,0
51070,-125,4,2,1,35,0,0
51104,-125,4,2,0,45,0,0
51144,-125,4,2,1,55,0,0
51185,-125,4,2,0,65,0,0
51225,-125,4,2,1,75,0,0
51266,-125,4,2,0,80,0,0
51307,-125,4,2,1,85,0,0
51347,-125,4,2,0,90,0,0
51388,-125,4,2,0,70,0,0
51550,-105.263157894737,4,2,0,70,0,0
51557,-105.263157894737,4,2,1,100,0,0
51712,-105.263157894737,4,2,0,70,0,0
52198,-105.263157894737,4,2,0,70,0,0
52523,-125,4,2,0,70,0,0
52847,-153.846153846154,4,2,0,70,0,0
53171,-133.333333333333,4,2,1,80,0,0
57063,-100,4,2,1,80,0,0
57388,-116.279069767442,4,2,1,80,0,0
57712,-119.047619047619,4,2,1,80,0,0
58036,-133.333333333333,4,2,1,80,0,0
58361,-133.333333333333,4,2,1,100,0,0
59658,-133.333333333333,4,2,1,90,0,0
62334,-133.333333333333,4,2,1,75,0,0
63225,-133.333333333333,4,2,1,100,0,0
63550,-76.9230769230769,4,2,1,100,0,1
63712,-66.6666666666667,4,2,1,100,0,1
63874,-66.6666666666667,4,2,1,100,0,1
64117,-80,4,2,1,100,0,1
64361,-100,4,2,1,100,0,1
64523,-80,4,2,1,100,0,1
64685,-80,4,2,1,100,0,1
65009,-66.6666666666667,4,2,1,100,0,1
65171,-80,4,2,1,100,0,1
65415,-66.6666666666667,4,2,1,100,0,1
65658,-66.6666666666667,4,2,1,100,0,1
65820,-80,4,2,1,100,0,1
66307,-66.6666666666667,4,2,1,100,0,1
66712,-80,4,2,1,100,0,1
66955,-100,4,2,1,100,0,1
67117,-80,4,2,1,100,0,1
67279,-66.6666666666667,4,2,1,100,0,1
67604,-80,4,2,1,100,0,1
68252,-66.6666666666667,4,2,1,100,0,1
68415,-80,4,2,1,100,0,1
68577,-100,4,2,1,100,0,1
68901,-66.6666666666667,4,2,1,100,0,1
69225,-80,4,2,1,100,0,1
69550,-100,4,2,1,100,0,1
69874,-80,4,2,1,100,0,1
70198,-66.6666666666667,4,2,1,100,0,1
70361,-80,4,2,1,100,0,1
70604,-66.6666666666667,4,2,1,100,0,1
71009,-80,4,2,1,100,0,1
71496,-66.6666666666667,4,2,1,100,0,1
71658,-80,4,2,1,100,0,1
71901,-100,4,2,1,100,0,1
72144,-80,4,2,1,100,0,1
72307,-50,4,2,1,100,0,1
72469,-57.1428571428571,4,2,1,100,0,1
72793,-80,4,2,1,100,0,1
73117,-100,4,2,1,100,0,1
73442,-66.6666666666667,4,2,1,100,0,1
73604,-80,4,2,1,100,0,1
73766,-100,4,2,1,100,0,1
74090,-66.6666666666667,4,2,1,100,0,1
74496,-80,4,2,1,100,0,1
74739,-100,4,2,1,100,0,1
75063,-80,4,2,1,100,0,1
75388,-66.6666666666667,4,2,1,100,0,1
75550,-80,4,2,1,100,0,1
75793,-66.6666666666667,4,2,1,100,0,1
76198,-80,4,2,1,100,0,1
76685,-66.6666666666667,4,2,1,100,0,1
77090,-80,4,2,1,100,0,1
77334,-100,4,2,1,100,0,1
77658,-80,4,2,1,100,0,1
78631,-66.6666666666667,4,2,1,100,0,1
78793,-80,4,2,1,100,0,1
78955,-100,4,2,1,100,0,1
79279,-66.6666666666667,4,2,1,100,0,1
79685,-80,4,2,1,100,0,1
79928,-100,4,2,1,100,0,1
80252,-80,4,2,1,100,0,1
80577,-66.6666666666667,4,2,1,100,0,1
80739,-80,4,2,1,100,0,1
80982,-66.6666666666667,4,2,1,100,0,1
81550,-80,4,2,1,100,0,1
81874,-66.6666666666667,4,2,1,100,0,1
82036,-80,4,2,1,100,0,1
82198,-100,4,2,1,100,0,1
82523,-80,4,2,1,100,0,1
82685,-50,4,2,1,100,0,1
82847,-57.1428571428571,4,2,1,100,0,1
84307,-66.6666666666667,4,2,1,100,0,1
84874,-80,4,2,1,100,0,1
85279,-100,4,2,1,100,0,1
85442,-80,4,2,1,100,0,1
85766,-66.6666666666667,4,2,1,100,0,1
86577,-80,4,2,1,100,0,1
86739,-100,4,2,1,100,0,1
87063,-66.6666666666667,4,2,1,100,0,1
87469,-80,4,2,1,100,0,1
88036,-66.6666666666667,4,2,1,100,0,1
88361,-80,4,2,1,100,0,1
89009,-66.6666666666667,4,2,1,100,0,1
89171,-80,4,2,1,100,0,1
89334,-100,4,2,1,100,0,1
89658,-66.6666666666667,4,2,1,100,0,1
90063,-80,4,2,1,100,0,1
90631,-66.6666666666667,4,2,1,100,0,1
91766,-80,4,2,1,100,0,1
91928,-100,4,2,1,100,0,1
92252,-66.6666666666667,4,2,1,100,0,1
92415,-80,4,2,1,100,0,1
92658,-100,4,2,1,100,0,1
92901,-80,4,2,1,100,0,1
93063,-50,4,2,1,100,0,1
93225,-57.1428571428571,4,2,1,100,0,1
93550,-80,4,2,1,100,0,1
94198,-66.6666666666667,4,2,1,100,0,1
94361,-80,4,2,1,100,0,1
94523,-100,4,2,1,100,0,1
94847,-66.6666666666667,4,2,1,100,0,1
95252,-80,4,2,1,100,0,1
95820,-66.6666666666667,4,2,1,100,0,1
96955,-80,4,2,1,100,0,1
97117,-100,4,2,1,100,0,1
97442,-66.6666666666667,4,2,1,100,0,1
97847,-80,4,2,1,100,0,1
98252,-80,4,2,1,100,0,1
98415,-66.6666666666667,4,2,1,100,0,1
98901,-80,4,2,1,100,0,1
99388,-66.6666666666667,4,2,1,100,0,1
99550,-80,4,2,1,100,0,1
99712,-100,4,2,1,100,0,1
100036,-66.6666666666667,4,2,1,100,0,1
100442,-80,4,2,1,100,0,1
101009,-66.6666666666667,4,2,1,100,0,1
102144,-80,4,2,1,100,0,1
102307,-100,4,2,1,100,0,1
102631,-66.6666666666667,4,2,1,100,0,1
102793,-80,4,2,1,100,0,1
103036,-100,4,2,1,100,0,1
103279,-80,4,2,1,100,0,1
103442,-50,4,2,1,100,0,1
103604,-57.1428571428571,4,2,1,100,0,1
105063,-133.333333333333,4,2,1,80,0,0
120631,-133.333333333333,4,2,1,100,0,0
121928,-133.333333333333,4,2,1,90,0,0
124604,-133.333333333333,4,2,1,75,0,0
125496,-133.333333333333,4,2,1,100,0,0

[Colours]
Combo1 : 184,156,207
Combo2 : 255,43,48
Combo3 : 66,200,210
Combo4 : 56,130,220
Combo5 : 115,97,220
Combo6 : 255,43,48
Combo7 : 167,220,235
Combo8 : 154,168,233

[HitObjects]
256,383,1280,5,4,0:1:0:0:
53,338,1442,85,2,0:0:0:0:
104,269,1604,1,2,1:2:0:0:
188,302,1766,2,0,P|245:294|293:251,1,112.500004291535,2|0,0:0|0:0,0:0:0:0:
296,247,2090,1,4,0:3:0:0:
347,317,2252,1,2,1:2:0:0:
431,284,2415,1,2,0:0:0:0:
384,192,2577,85,4,0:3:0:0:
30,58,2820,5,2,0:0:0:0:
38,47,2901,2,0,P|70:28|107:21,1,75.0000028610231,0|2,1:0|0:0,0:0:0:0:
192,54,3225,1,2,0:0:0:0:
206,58,3306,1,2,0:0:0:0:
220,61,3387,1,4,0:3:0:0:
302,18,3550,2,0,L|312:100,1,75.0000028610231,0|0,1:0|0:0,0:0:0:0:
384,192,3874,101,4,0:3:0:0:
17,153,4117,21,2,0:0:0:0:
27,163,4198,1,0,1:0:0:0:
102,114,4361,2,0,P|143:122|187:156,1,75.0000028610231,2|2,0:0|0:0,0:0:0:0:
180,150,4604,1,2,0:0:0:0:
186,163,4685,1,4,0:3:0:0:
157,255,4847,2,0,L|239:245,1,75.0000028610231,0|0,1:0|0:0,0:0:0:0:
384,192,5171,85,4,0:3:0:0:
8,351,5415,37,2,0:0:0:0:
14,337,5496,2,0,P|46:318|83:311,1,75.0000028610231,0|2,1:0|0:0,0:0:0:0:
167,346,5820,1,2,0:0:0:0:
170,360,5901,1,2,0:0:0:0:
172,374,5982,1,4,0:3:0:0:
258,343,6144,2,0,L|267:268,1,75.0000028610231,0|0,1:0|0:0,0:0:0:0:
384,192,6469,69,4,0:3:0:0:
445,99,6631,21,2,0:0:0:0:
362,68,6793,1,2,1:2:0:0:
296,127,6955,2,0,P|227:128|178:90,1,112.500004291535,2|0,0:0|0:0,0:0:0:0:
182,93,7279,1,4,0:3:0:0:
95,68,7441,1,2,1:2:0:0:
34,134,7604,1,2,0:0:0:0:
128,192,7766,85,4,0:3:0:0:
494,344,8009,5,2,0:0:0:0:
480,337,8090,2,0,L|405:348,1,75.0000028610231,0|2,1:0|0:0,0:0:0:0:
305,285,8415,1,2,0:0:0:0:
319,289,8496,1,2,0:0:0:0:
331,298,8577,1,4,0:3:0:0:
276,366,8739,2,0,P|238:364|205:348,1,75.0000028610231,0|0,1:0|0:0,0:0:0:0:
128,192,9063,101,4,0:3:0:0:
498,233,9307,21,2,0:0:0:0:
489,245,9388,1,0,1:0:0:0:
426,185,9550,2,0,L|351:173,1,75.0000028610231,2|2,0:0|0:0,0:0:0:0:
337,171,9793,1,2,0:0:0:0:
322,169,9874,1,4,0:3:0:0:
375,267,10036,2,0,P|341:283|304:284,1,75.0000028610231,0|0,1:0|0:0,0:0:0:0:
128,192,10361,85,4,0:3:0:0:
500,44,10604,37,2,0:0:0:0:
486,37,10685,2,0,L|411:48,1,75.0000028610231,0|2,1:0|0:0,0:0:0:0:
333,91,11009,1,2,0:0:0:0:
324,78,11090,1,2,0:0:0:0:
321,64,11171,1,4,0:3:0:0:
410,138,11334,2,0,P|408:175|392:208,1,75.0000028610231,0|0,1:0|0:0,0:0:0:0:
256,384,11658,5,4,0:1:0:0:
177,237,11820,85,2,0:0:0:0:
97,279,11982,1,2,1:3:0:0:
122,365,12144,1,2,0:0:0:0:
256,384,12307,85,0,1:0:0:0:
335,237,12469,21,4,0:3:0:0:
415,279,12631,1,2,1:3:0:0:
390,365,12793,1,2,0:0:0:0:
256,384,12955,102,0,P|261:337|275:308,1,75.0000028610231,2|0,1:3|0:0,0:0:0:0:
177,237,13279,2,0,P|213:207|244:196,1,75.0000028610231,2|0,1:3|0:0,0:0:0:0:
225,77,13604,1,2,1:3:0:0:
225,77,13685,1,2,0:0:0:0:
225,77,13766,1,6,0:3:0:0:
225,77,13847,1,2,0:0:0:0:
225,77,13928,2,0,P|271:82|301:96,1,75.0000028610231,2|0,1:3|0:0,0:0:0:0:
464,180,14252,6,0,L|480:91,1,75.0000028610231,2|0,1:3|0:0,0:0:0:0:
367,240,14577,2,0,L|315:165,1,75.0000028610231,2|0,1:3|0:0,0:0:0:0:
340,351,14901,1,2,1:3:0:0:
340,351,14982,1,2,0:0:0:0:
340,351,15063,1,6,0:3:0:0:
340,351,15144,1,2,0:0:0:0:
340,351,15226,2,0,L|251:335,1,75.0000028610231,2|0,1:3|0:0,0:0:0:0:
75,277,15550,6,0,P|28:305|6:346,1,75.0000028610231,2|0,1:3|0:0,0:0:0:0:
181,180,15874,2,0,P|128:166|83:180,1,75.0000028610231,2|0,1:3|0:0,0:0:0:0:
324,186,16198,1,2,1:3:0:0:
324,186,16279,1,2,0:0:0:0:
324,186,16361,1,6,0:3:0:0:
324,186,16442,1,2,0:0:0:0:
324,186,16523,2,0,P|295:139|254:117,1,75.0000028610231,2|0,1:3|0:0,0:0:0:0:
0,67,16847,85,4,1:3:0:0:
142,4,17009,1,2,1:2:0:0:
13,137,17171,5,2,1:3:0:0:
130,60,17333,1,2,1:2:0:0:
38,200,17496,5,2,1:3:0:0:
129,112,17658,1,2,1:3:0:0:
68,249,17820,101,2,1:3:0:0:
136,159,17982,1,2,1:2:0:0:
184,266,18144,101,4,1:2:0:0:
229,173,18306,1,2,1:2:0:0:
220,294,18469,5,2,1:3:0:0:
247,207,18631,1,2,1:2:0:0:
257,314,18793,5,2,1:3:0:0:
268,233,18955,1,2,1:3:0:0:
295,328,19117,101,2,1:3:0:0:
291,254,19279,1,2,1:2:0:0:
389,305,19442,101,4,1:2:0:0:
384,290,19523,1,0,1:0:0:0:
386,275,19604,1,0,1:0:0:0:
393,262,19685,1,0,1:0:0:0:
405,253,19766,1,0,1:0:0:0:
419,248,19848,1,0,1:0:0:0:
434,250,19929,1,0,1:0:0:0:
447,257,20010,1,0,1:0:0:0:
450,266,20091,5,4,1:2:0:0:
454,277,20172,1,0,1:0:0:0:
453,288,20253,1,0,1:0:0:0:
448,298,20334,1,0,1:0:0:0:
439,305,20415,1,0,1:0:0:0:
428,309,20496,1,0,1:0:0:0:
416,307,20577,1,0,1:0:0:0:
407,301,20658,1,0,1:0:0:0:
408,294,20739,5,4,1:2:0:0:
410,287,20821,1,4,1:3:0:0:
408,279,20902,1,4,1:3:0:0:
405,272,20983,1,4,1:3:0:0:
399,267,21064,1,4,1:3:0:0:
392,265,21145,1,4,1:3:0:0:
384,265,21226,1,4,1:3:0:0:
377,269,21307,1,4,1:3:0:0:
373,275,21388,1,4,1:3:0:0:
371,283,21469,1,4,1:3:0:0:
371,290,21550,1,4,1:3:0:0:
374,298,21631,1,4,1:3:0:0:
379,303,21712,1,2,1:3:0:0:
256,192,22036,5,4,0:1:0:0:
165,251,22198,85,2,0:0:0:0:
78,207,22361,1,2,0:0:0:0:
33,291,22523,1,2,0:0:0:0:
33,291,22847,1,2,0:0:0:0:
78,207,23009,1,2,0:0:0:0:
165,251,23172,1,2,0:0:0:0:
256,320,23334,85,2,0:3:0:0:
341,302,23496,6,0,L|397:309,4,50
374,218,24307,2,0,L|424:212,1,50,0|2,0:0|0:0,0:0:0:0:
256,320,24631,101,2,0:3:0:0:
171,302,24793,22,0,L|115:309,4,50
88,212,25604,2,0,L|137:218,1,50,2|0,0:0|0:0,0:0:0:0:
256,320,25928,85,2,0:3:0:0:
256,235,26090,37,2,0:0:0:0:
256,235,26415,1,2,0:0:0:0:
256,320,26739,101,2,0:0:0:0:
256,235,26901,1,2,0:0:0:0:
256,149,27063,1,2,0:0:0:0:
256,64,27225,85,2,0:3:0:0:
347,133,27388,21,2,0:0:0:0:
434,177,27550,1,2,0:0:0:0:
479,93,27713,1,2,0:0:0:0:
479,93,28037,1,2,0:0:0:0:
434,177,28198,1,2,0:0:0:0:
347,133,28362,1,2,0:0:0:0:
256,64,28523,85,2,0:3:0:0:
171,82,28685,6,0,L|115:75,2,50
136,166,29171,2,0,L|86:172,1,50,2|0,0:3|0:0,0:0:0:0:
119,258,29496,2,0,L|169:252,1,50,0|2,0:0|0:0,0:0:0:0:
256,64,29820,101,2,0:3:0:0:
341,82,29982,22,0,L|397:75,4,50
424,172,30793,2,0,L|375:166,1,50,2|0,0:0|0:0,0:0:0:0:
256,64,31117,85,2,0:3:0:0:
256,149,31279,37,2,0:0:0:0:
256,149,31604,1,2,0:0:0:0:
256,64,31928,101,2,0:0:0:0:
256,149,32090,1,2,0:0:0:0:
192,208,32252,1,2,0:0:0:0:
106,192,32414,85,2,0:3:0:0:
28,284,32577,21,2,0:0:0:0:
50,384,32740,1,2,0:0:0:0:
125,312,32902,1,2,0:0:0:0:
125,312,33225,1,2,0:0:0:0:
50,384,33387,1,2,0:0:0:0:
28,284,33550,1,2,0:0:0:0:
106,192,33712,85,2,0:3:0:0:
135,111,33874,6,0,L|125:46,4,50
219,70,34685,2,0,L|227:21,1,50,0|2,0:0|0:0,0:0:0:0:
106,192,35009,101,2,0:3:0:0:
135,273,35171,22,0,L|125:338,4,50
227,363,35982,2,0,L|219:313,1,50,2|0,0:0|0:0,0:0:0:0:
106,192,36307,85,2,0:3:0:0:
207,192,36469,37,0,0:0:0:0:
207,192,36793,1,0,0:0:0:0:
106,192,37117,101,0,0:0:0:0:
207,192,37279,1,0,0:0:0:0:
305,192,37442,1,0,0:0:0:0:
406,192,37604,85,2,0:3:0:0:
484,100,37766,21,2,0:0:0:0:
462,0,37929,1,2,0:0:0:0:
387,72,38091,1,2,0:0:0:0:
387,72,38414,1,2,0:0:0:0:
462,0,38576,1,2,0:0:0:0:
484,100,38739,1,2,0:0:0:0:
406,192,38901,85,2,0:3:0:0:
377,273,39063,6,0,L|387:338,4,50
292,313,39874,2,0,L|285:363,1,50,0|2,0:0|0:0,0:0:0:0:
406,192,40198,101,2,0:3:0:0:
377,111,40361,22,0,L|387:46,4,50
285,21,41171,2,0,L|292:70,1,50,2|0,0:0|0:0,0:0:0:0:
406,192,41496,85,2,0:3:0:0:
256,192,41658,12,0,42631,0:0:0:0:
9,316,42793,6,2,P|54:271|116:277,1,129.999994049073,4|0,0:0|0:0,1:3:0:0:
50,135,43279,2,2,P|127:140|172:203,1,160,2|0,0:0|0:0,0:3:0:0:
262,213,43766,2,2,P|276:184|278:152,1,64.9999970245363,2|0,0:0|0:0,0:3:0:0:
217,309,44090,6,2,L|366:289,1,129.999994049073,2|0,0:3|0:0,0:3:0:0:
262,213,44577,2,2,L|414:164,1,160,2|0,0:0|0:0,0:3:0:0:
385,59,45063,2,2,L|301:104,1,94.9999974632264,2|0,0:0|0:0,0:3:0:0:
187,130,45388,6,2,P|133:92|128:9,1,129.999994049073,2|0,0:3|0:0,0:3:0:0:
144,211,45874,2,2,P|81:256|5:239,1,160,2|0,0:0|0:0,0:3:0:0:
190,377,46361,2,2,P|216:329|207:276,1,110.000003356934,2|0,0:0|0:0,0:3:0:0:
159,112,46685,86,2,L|142:224,1,100,2|0,0:3|0:0,0:3:0:0:
274,88,47009,2,2,L|237:195,1,85.0000016212464,2|0,0:0|0:0,0:3:0:0:
388,84,47334,2,2,L|340:169,1,69.9999978637696,2|0,0:0|0:0,0:3:0:0:
493,103,47658,2,2,L|453:151,1,55.0000016784668,2|0,0:3|0:0,0:3:0:0:
321,337,47982,6,2,P|377:368|439:354,1,129.999994049073,2|0,0:3|0:0,0:3:0:0:
346,253,48469,2,2,P|420:229|449:157,1,160,2|0,0:0|0:0,0:3:0:0:
331,122,48955,2,2,P|325:154|304:181,1,64.9999970245363,2|0,0:0|0:0,0:3:0:0:
175,220,49279,6,2,L|159:90,1,129.999994049073,2|0,0:3|0:0,0:3:0:0:
205,12,49766,1,2,0:0:0:0:
205,12,49928,2,2,L|285:23,1,80,2|0,0:3|0:0,0:3:0:0:
93,30,50252,2,2,L|7:70,1,94.9999974632264,2|0,0:0|0:0,0:3:0:0:
48,298,50577,86,2,P|87:248|81:184,1,129.999994049073,2|0,0:3|0:0,0:3:0:0:
179,250,51063,2,2,P|241:258|315:195,1,160,2|0,0:0|0:0,0:3:0:0:
425,174,51550,2,2,P|389:144|377:99,1,94.9999974632264,2|0,0:0|0:0,0:3:0:0:
391,11,51874,5,2,0:3:0:0:
256,192,52198,12,0,53009,0:0:0:0:
111,215,53171,5,2,1:3:0:0:
186,264,53334,1,2,0:0:0:0:
163,145,53496,1,2,1:3:0:0:
240,190,53658,1,2,0:0:0:0:
258,190,53739,1,2,0:0:0:0:
276,185,53820,1,2,1:3:0:0:
293,176,53901,1,2,0:0:0:0:
307,164,53982,1,4,0:3:0:0:
327,0,54144,2,0,L|316:98,1,75.0000028610231,2|0,1:3|0:0,0:0:0:0:
371,250,54469,85,2,1:3:0:0:
418,176,54631,1,2,0:0:0:0:
445,299,54793,1,2,1:3:0:0:
371,250,54955,2,0,L|302:264,1,37.5000014305115,2|2,0:0|0:0,0:0:0:0:
198,281,55117,1,2,1:3:0:0:
283,362,55279,1,4,0:3:0:0:
248,176,55442,2,0,P|189:162|158:171,1,75.0000028610231,2|0,1:3|0:0,0:0:0:0:
35,212,55766,5,2,1:3:0:0:
122,235,55928,1,2,0:0:0:0:
0,293,56090,1,2,1:3:0:0:
85,315,56252,1,2,0:0:0:0:
98,328,56333,1,2,0:0:0:0:
107,344,56414,1,2,1:3:0:0:
113,362,56495,1,2,0:0:0:0:
114,380,56576,1,4,0:3:0:0:
35,212,56739,1,2,1:3:0:0:
221,272,56901,1,2,0:0:0:0:
35,212,57063,6,0,P|40:152|65:114,1,100,2|0,1:3|0:0,0:0:0:0:
235,171,57388,2,0,P|180:196|135:194,1,86.0000013122559,2|2,1:3|0:0,0:0:0:0:
138,193,57631,1,2,0:0:0:0:
123,185,57712,1,2,1:3:0:0:
218,87,57874,1,4,0:3:0:0:
325,180,58036,2,0,P|304:236|270:266,1,75.0000028610231,2|0,1:3|0:0,0:0:0:0:
0,347,58361,85,4,1:2:0:0:
151,384,58523,1,2,1:2:0:0:
1,275,58685,5,2,1:3:0:0:
130,331,58847,1,2,1:2:0:0:
15,209,59010,5,2,1:3:0:0:
120,280,59172,1,2,1:3:0:0:
36,155,59334,101,2,1:3:0:0:
118,232,59496,1,2,1:2:0:0:
238,58,59658,101,4,1:2:0:0:
196,151,59820,1,2,1:2:0:0:
282,67,59983,5,2,1:3:0:0:
233,143,60145,1,2,1:2:0:0:
322,82,60307,5,2,1:3:0:0:
267,142,60469,1,2,1:3:0:0:
357,102,60631,101,2,1:3:0:0:
298,148,60793,1,2,1:2:0:0:
345,278,60955,101,4,1:2:0:0:
342,255,61036,1,0,1:0:0:0:
345,233,61117,1,0,1:0:0:0:
356,213,61198,1,0,1:0:0:0:
371,197,61279,1,0,1:0:0:0:
391,186,61360,1,0,1:0:0:0:
413,182,61441,1,0,1:0:0:0:
436,184,61522,1,0,1:0:0:0:
456,193,61603,5,4,1:2:0:0:
473,208,61684,1,0,1:0:0:0:
485,227,61765,1,0,1:0:0:0:
490,249,61846,1,0,1:0:0:0:
489,271,61927,1,0,1:0:0:0:
482,292,62009,1,0,1:0:0:0:
468,310,62090,1,0,1:0:0:0:
450,323,62171,1,0,1:0:0:0:
434,311,62252,5,4,1:2:0:0:
453,300,62333,1,4,1:3:0:0:
467,283,62414,1,4,1:3:0:0:
473,262,62495,1,4,1:3:0:0:
471,240,62576,1,4,1:3:0:0:
462,221,62657,1,4,1:3:0:0:
446,206,62738,1,4,1:3:0:0:
425,199,62819,1,4,1:3:0:0:
404,199,62900,1,4,1:3:0:0:
384,208,62981,1,4,1:3:0:0:
368,223,63062,1,4,1:3:0:0:
359,243,63143,1,4,1:3:0:0:
359,264,63224,1,2,1:3:0:0:
256,192,63550,5,4,1:1:0:0:
20,303,63712,6,0,P|27:266|51:238,1,75.0000028610231,2|0,0:3|0:0,0:0:0:0:
157,206,63874,2,0,P|137:273|194:344,1,150.000005722046,2|0,1:3|0:0,0:0:0:0:
268,372,64117,2,0,P|271:319|321:270,1,125,2|0,0:3|0:0,0:0:0:0:
379,339,64361,2,0,P|382:363|399:387,1,50,6|0,0:3|0:0,0:0:0:0:
484,371,64523,1,2,1:3:0:0:
495,363,64604,1,0,0:0:0:0:
506,353,64685,2,0,P|496:309|455:276,1,62.5,2|0,0:3|0:0,0:0:0:0:
256,192,64847,101,4,0:3:0:0:
492,41,65009,22,0,P|495:66|446:132,1,75.0000028610231,2|0,0:3|0:0,0:0:0:0:
391,179,65171,2,0,P|371:96|307:65,1,125,2|0,1:3|0:0,0:0:0:0:
235,22,65415,2,0,P|238:91|171:100,1,150.000005722046,2|0,0:3|0:0,0:0:0:0:
50,0,65658,2,0,P|85:9|105:43,1,75.0000028610231,6|0,0:3|0:0,0:0:0:0:
80,161,65820,1,2,1:3:0:0:
67,169,65901,1,0,0:0:0:0:
53,172,65982,2,0,P|82:129|120:124,1,62.5,2|0,0:3|0:0,0:0:0:0:
256,192,66144,85,4,0:3:0:0:
82,357,66307,6,0,P|126:350|159:324,1,75.0000028610231,2|0,0:3|0:0,0:0:0:0:
298,273,66469,2,0,P|226:274|170:220,1,150.000005722046,2|0,1:3|0:0,0:0:0:0:
53,172,66712,2,0,P|128:150|153:74,1,125,2|0,0:3|0:0,0:0:0:0:
227,47,66955,2,0,P|202:40|182:26,1,50,6|0,0:3|0:0,0:0:0:0:
101,0,67117,1,2,1:3:0:0:
87,5,67198,1,0,0:0:0:0:
76,16,67279,2,0,P|66:94|79:111,1,75.0000028610231,2|0,0:3|0:0,0:0:0:0:
256,192,67442,101,4,0:3:0:0:
403,0,67604,22,0,P|335:40|328:65,1,62.5,2|0,0:3|0:0,0:0:0:0:
301,95,67766,1,2,1:3:0:0:
507,152,67928,1,0,0:0:0:0:
512,139,68009,2,0,P|456:90|368:99,1,125,2|0,0:3|0:0,0:0:0:0:
360,158,68252,2,0,P|390:177|412:223,1,75.0000028610231,6|0,0:3|0:0,0:0:0:0:
278,355,68415,2,0,P|326:347|362:317,1,62.5,2|0,1:3|0:0,0:0:0:0:
327,238,68577,2,0,P|311:258|289:270,1,50,2|0,0:3|0:0,0:0:0:0:
256,192,68739,85,4,0:3:0:0:
507,175,68901,6,0,P|506:203|487:247,1,75.0000028610231,2|0,0:3|0:0,0:0:0:0:
427,333,69063,2,0,P|402:276|309:238,1,150.000005722046,2|0,1:3|0:0,0:0:0:0:
252,277,69307,2,0,P|241:338|167:378,1,125,2|0,0:3|0:0,0:0:0:0:
164,291,69550,2,0,P|118:265|96:268,1,50,6|0,0:3|0:0,0:0:0:0:
25,349,69712,1,2,1:3:0:0:
36,360,69793,1,0,0:0:0:0:
47,366,69874,2,0,P|71:367|105:353,1,62.5,2|0,0:3|0:0,0:0:0:0:
256,192,70036,101,4,0:3:0:0:
48,208,70198,22,0,P|28:176|31:139,1,75.0000028610231,2|0,0:3|0:0,0:0:0:0:
102,68,70361,2,0,P|154:143|217:138,1,125,2|0,1:3|0:0,0:0:0:0:
261,103,70604,2,0,P|235:40|298:15,1,150.000005722046,2|0,0:3|0:0,0:0:0:0:
347,89,70847,2,0,P|372:115|408:126,1,75.0000028610231,6|0,3:3|0:0,0:0:0:0:
502,19,71009,1,2,1:3:0:0:
488,14,71090,1,0,0:0:0:0:
474,14,71171,2,0,P|437:28|412:51,1,62.5,2|0,0:3|0:0,0:0:0:0:
256,192,71334,85,4,0:3:0:0:
422,385,71496,6,0,P|407:352|347:322,1,75.0000028610231,2|0,0:3|0:0,0:0:0:0:
225,342,71658,2,0,P|276:277|343:270,1,125,2|0,1:3|0:0,0:0:0:0:
480,271,71901,2,0,P|422:231|373:236,1,100,2|0,0:3|0:0,0:0:0:0:
297,118,72144,2,0,P|321:134|337:162,1,62.5,6|0,0:3|0:0,0:0:0:0:
505,123,72307,2,0,P|458:112|424:146,1,100,2|0,1:3|0:0,0:0:0:0:
344,5,72469,2,0,P|380:22|358:70,1,87.500000834465,2|0,0:3|0:0,0:0:0:0:
256,192,72631,101,4,0:3:0:0:
41,52,72793,22,0,P|3:122|12:199,1,125,2|0,0:3|1:2,0:0:0:0:
3,165,73117,2,0,P|48:106|118:83,1,150,2|0,0:3|0:0,0:0:0:0:
153,162,73442,2,0,P|128:195|126:232,1,75.0000028610231,6|0,0:3|0:0,0:0:0:0:
90,307,73604,2,0,P|110:331|138:346,1,62.5,2|0,1:3|0:0,0:0:0:0:
251,275,73766,2,0,P|226:271|205:260,1,50,2|0,0:3|0:0,0:0:0:0:
256,192,73928,85,4,1:1:0:0:
4,302,74090,6,0,P|30:245|50:232,1,75.0000028610231,2|0,0:3|0:0,0:0:0:0:
125,227,74252,2,0,P|128:300|191:348,1,150.000005722046,2|0,1:3|0:0,0:0:0:0:
267,379,74496,2,0,P|293:315|376:299,1,125,2|0,0:3|0:0,0:0:0:0:
404,360,74739,2,0,P|424:373|449:379,1,50,6|0,0:3|0:0,0:0:0:0:
510,243,74901,1,2,1:3:0:0:
500,254,74982,1,0,0:0:0:0:
487,265,75063,2,0,P|459:276|421:273,1,62.5,2|0,0:3|0:0,0:0:0:0:
256,192,75225,101,4,0:3:0:0:
446,190,75388,22,0,P|444:152|424:121,1,75.0000028610231,2|0,0:3|0:0,0:0:0:0:
354,15,75550,2,0,P|330:105|303:119,1,125,2|0,1:3|0:0,0:0:0:0:
211,116,75793,2,0,P|219:48|152:36,1,150.000005722046,2|0,0:3|0:0,0:0:0:0:
24,164,76036,2,0,P|55:183|92:184,1,75.0000028610231,6|0,0:3|0:0,0:0:0:0:
73,8,76198,1,2,1:3:0:0:
61,17,76279,1,0,0:0:0:0:
52,30,76361,2,0,P|60:83|83:102,1,62.5,2|0,0:3|0:0,0:0:0:0:
256,192,76523,85,4,0:3:0:0:
9,354,76685,6,0,P|33:325|67:311,1,75.0000028610231,2|0,0:3|0:0,0:0:0:0:
257,325,76847,2,0,P|197:260|114:268,1,150.000005722046,2|0,1:3|0:0,0:0:0:0:
0,241,77090,2,0,P|32:192|92:183,1,125,2|0,0:3|0:0,0:0:0:0:
207,115,77334,2,0,P|170:115|132:147,1,50,6|0,0:3|0:0,0:0:0:0:
25,44,77496,1,2,1:3:0:0:
36,35,77577,1,0,0:0:0:0:
52,30,77658,2,0,P|116:55|127:79,1,62.5,2|0,0:3|0:0,0:0:0:0:
256,192,77820,101,4,0:3:0:0:
502,45,77982,22,0,P|476:27|446:20,1,62.5,2|0,0:3|0:0,0:0:0:0:
363,3,78144,1,2,1:3:0:0:
440,195,78307,1,0,0:0:0:0:
450,184,78388,2,0,P|436:124|390:83,1,125,2|0,0:3|0:0,0:0:0:0:
306,66,78631,2,0,P|266:67|229:94,1,75.0000028610231,6|0,0:3|0:0,0:0:0:0:
181,231,78793,2,0,P|200:256|228:271,1,62.5,2|0,1:3|0:0,0:0:0:0:
339,195,78955,2,0,P|338:170|327:144,1,50,2|0,0:3|0:0,0:0:0:0:
256,192,79117,85,4,0:3:0:0:
447,381,79279,6,0,P|474:355|490:321,1,75.0000028610231,2|0,0:3|0:0,0:0:0:0:
339,195,79442,2,0,P|389:248|382:321,1,150.000005722046,2|0,1:3|0:0,0:0:0:0:
299,355,79685,2,0,P|281:297|227:270,1,125,2|0,0:3|0:0,0:0:0:0:
174,335,79928,2,0,P|121:370|96:370,1,50,6|0,0:3|0:0,0:0:0:0:
36,230,80090,1,2,1:3:0:0:
40,244,80171,1,0,0:0:0:0:
48,257,80252,2,0,P|116:282|130:278,1,62.5,2|0,0:3|0:0,0:0:0:0:
256,192,80415,101,4,0:3:0:0:
41,22,80577,22,0,P|40:59|55:92,1,75.0000028610231,2|0,0:3|0:0,0:0:0:0:
143,165,80739,2,0,P|149:83|186:55,1,125,2|0,1:3|0:0,0:0:0:0:
288,25,80982,2,0,P|283:103|355:83,1,150.000005722046,2|0,0:3|0:0,0:0:0:0:
450,0,81225,2,0,P|418:79|434:102,1,75.0000028610231,6|0,0:3|0:0,0:0:0:0:
460,175,81388,1,2,1:3:0:0:
472,185,81469,1,0,0:0:0:0:
487,189,81550,2,0,P|479:152|450:131,1,62.5,2|0,0:3|0:0,0:0:0:0:
256,192,81712,85,4,0:3:0:0:
377,303,81874,6,0,P|351:275|318:258,1,75.0000028610231,2|0,0:3|0:0,0:0:0:0:
149,367,82036,2,0,P|180:278|239:251,1,125,2|0,1:3|0:0,0:0:0:0:
169,183,82279,2,0,P|119:183|79:212,1,100,2|0,0:3|0:0,0:0:0:0:
3,171,82523,2,0,P|20:104|42:87,1,62.5,6|0,0:3|0:0,0:0:0:0:
188,34,82685,2,0,P|224:63|217:112,1,100,2|0,1:3|0:0,0:0:0:0:
50,33,82847,2,0,P|67:-3|105:10,1,87.500000834465,2|0,0:3|0:0,0:0:0:0:
256,192,83009,37,4,0:3:0:0:
256,192,83171,12,2,84144,0:3:0:0:
256,192,84307,53,4,1:1:0:0:
80,383,84469,38,0,P|56:339|58:278,1,75.0000028610231,2|0,0:3|0:0,0:0:0:0:
172,216,84631,2,0,P|132:295|139:323,1,75.0000028610231,2|0,1:3|0:0,0:0:0:0:
168,360,84793,1,0,0:0:0:0:
179,368,84874,2,0,P|267:363|309:316,1,125,2|0,0:3|0:0,0:0:0:0:
366,243,85117,1,6,0:3:0:0:
358,256,85198,1,0,0:0:0:0:
356,271,85279,2,0,P|410:314|430:314,1,50,2|0,1:3|0:0,0:0:0:0:
463,358,85442,2,0,P|482:342|498:305,1,62.5,2|0,0:3|0:0,0:0:0:0:
256,192,85604,69,4,0:3:0:0:
437,10,85766,22,0,P|486:48|494:87,1,75.0000028610231,2|0,0:3|0:0,0:0:0:0:
404,131,85928,1,2,1:3:0:0:
395,117,86009,1,0,0:0:0:0:
399,101,86090,1,0,0:0:0:0:
411,91,86171,2,0,P|375:166|318:112,1,150.000005722046,2|0,0:3|0:0,0:0:0:0:
292,69,86415,2,0,P|254:47|213:48,1,75.0000028610231,6|0,0:3|0:0,0:0:0:0:
145,165,86577,2,0,P|181:143|201:107,1,62.5,2|0,1:3|0:0,0:0:0:0:
134,12,86739,2,0,P|134:54|155:89,1,50,2|0,0:3|0:0,0:0:0:0:
256,192,86901,85,4,0:3:0:0:
7,332,87063,38,0,P|39:350|76:353,1,75.0000028610231,2|0,0:3|0:0,0:0:0:0:
211,265,87225,2,0,P|177:296|136:305,1,75.0000028610231,2|0,1:3|0:0,0:0:0:0:
71,268,87388,1,0,0:0:0:0:
61,257,87469,2,0,P|51:212|101:135,1,125,2|0,0:3|0:0,0:0:0:0:
165,108,87712,1,6,0:3:0:0:
179,105,87793,1,0,0:0:0:0:
191,97,87874,2,0,P|209:36|201:12,1,62.5,2|0,1:3|0:0,0:0:0:0:
36,0,88036,2,0,P|19:33|19:70,1,75.0000028610231,2|0,0:3|0:0,0:0:0:0:
256,192,88198,69,4,0:3:0:0:
323,35,88361,22,0,P|347:17|393:11,1,62.5,2|0,0:3|0:0,0:0:0:0:
493,144,88523,2,0,P|429:98|363:104,1,125,2|0,1:3|0:0,0:0:0:0:
327,238,88766,2,0,P|371:180|390:176,1,62.5,2|0,0:3|0:0,0:0:0:0:
442,213,88928,1,0,0:0:0:0:
451,224,89009,2,0,P|446:284|422:307,1,75.0000028610231,6|0,0:3|0:0,0:0:0:0:
292,324,89171,2,0,P|268:303|253:276,1,62.5,2|0,1:3|0:0,0:0:0:0:
347,103,89334,2,0,P|320:109|298:128,1,50,2|0,0:3|0:0,0:0:0:0:
256,192,89496,85,4,0:3:0:0:
478,352,89658,38,0,P|431:290|405:285,1,75.0000028610231,2|0,0:3|0:0,0:0:0:0:
351,283,89820,2,0,P|289:329|284:355,1,75.0000028610231,2|0,1:3|0:0,0:0:0:0:
197,371,89982,1,0,0:0:0:0:
209,378,90063,2,0,P|182:298|128:274,1,125,2|0,0:3|0:0,0:0:0:0:
100,350,90307,1,6,0:3:0:0:
86,356,90388,1,0,0:0:0:0:
71,358,90469,2,0,P|35:348|3:306,1,62.5,2|0,1:3|0:0,0:0:0:0:
0,246,90631,2,0,P|18:214|66:190,1,75.0000028610231,2|0,0:3|0:0,0:0:0:0:
256,192,90793,69,4,0:3:0:0:
19,7,90955,22,0,P|18:44|31:78,1,75.0000028610231,2|0,0:3|0:0,0:0:0:0:
127,110,91117,1,2,1:3:0:0:
140,102,91198,1,0,0:0:0:0:
149,87,91279,1,0,0:0:0:0:
146,71,91361,2,0,P|115:130|177:155,1,150.000005722046,2|0,0:3|0:0,0:0:0:0:
249,108,91604,2,0,P|282:88|324:91,1,75.0000028610231,6|0,0:3|0:0,0:0:0:0:
468,195,91766,2,0,P|442:177|428:149,1,62.5,2|0,1:3|0:0,0:0:0:0:
421,25,91928,2,0,P|416:49|402:69,1,50,2|0,0:3|0:0,0:0:0:0:
256,192,92090,85,4,0:3:0:0:
506,307,92252,38,0,P|474:282|412:280,1,75.0000028610231,2|0,0:3|0:0,0:0:0:0:
350,375,92415,2,0,P|377:302|391:292,1,62.5,2|0,1:3|0:0,0:0:0:0:
468,195,92577,1,0,0:0:0:0:
455,189,92658,2,0,P|406:197|368:229,1,100,2|0,0:3|0:0,0:0:0:0:
333,140,92901,2,0,P|373:76|391:71,1,62.5,6|0,0:3|0:0,0:0:0:0:
441,274,93063,2,0,P|413:314|358:313,1,100,2|0,1:3|0:0,0:0:0:0:
421,24,93225,2,0,P|459:50|433:84,1,87.500000834465,2|0,0:3|0:0,0:0:0:0:
256,192,93388,69,4,0:3:0:0:
119,28,93550,22,0,P|65:59|33:111,1,125,2|0,0:3|1:2,0:0:0:0:
33,112,93874,2,0,B|127:134|77:198|173:224,1,187.5,2|0,0:3|0:0,0:0:0:0:
21,202,94198,2,0,P|4:236|4:273,1,75.0000028610231,6|0,0:3|0:0,0:0:0:0:
188,363,94361,2,0,P|220:344|239:318,1,62.5,2|0,1:3|0:0,0:0:0:0:
181,89,94523,2,0,P|179:118|191:148,1,50,2|0,0:3|0:0,0:0:0:0:
256,192,94685,85,4,1:1:0:0:
42,335,94847,38,0,P|5:278|8:231,1,75.0000028610231,2|0,0:3|0:0,0:0:0:0:
171,245,95009,2,0,P|142:268|126:302,1,75.0000028610231,2|0,1:3|0:0,0:0:0:0:
188,363,95171,1,0,0:0:0:0:
202,372,95252,2,0,P|255:367|308:296,1,125,2|0,0:3|0:0,0:0:0:0:
329,235,95496,1,6,0:3:0:0:
341,227,95577,1,0,0:0:0:0:
355,221,95658,2,0,P|422:237|442:270,1,62.5,2|0,1:3|0:3,0:0:0:0:
482,328,95820,2,0,P|448:343|411:343,1,75.0000028610231,2|0,0:3|0:0,0:0:0:0:
256,192,95982,69,4,0:3:0:0:
500,94,96144,22,0,P|450:142|396:143,1,75.0000028610231,2|0,0:3|0:0,0:0:0:0:
362,90,96307,1,2,1:3:0:0:
347,97,96388,1,0,0:0:0:0:
342,113,96469,1,0,0:0:0:0:
348,128,96550,2,0,P|354:45|277:63,1,150.000005722046,2|0,0:3|0:0,0:0:0:0:
226,5,96793,2,0,P|197:83|217:110,1,75.0000028610231,6|0,0:3|0:0,0:0:0:0:
148,205,96955,2,0,P|121:230|84:234,1,62.5,2|0,1:3|0:0,0:0:0:0:
83,94,97117,2,0,P|100:111|123:121,1,50,2|0,0:3|0:0,0:0:0:0:
256,192,97279,85,4,0:3:0:0:
0,384,97442,38,0,P|6:342|33:312,1,75.0000028610231,2|0,0:3|0:0,0:0:0:0:
97,235,97604,2,0,P|103:277|130:307,1,75.0000028610231,2|0,1:3|0:0,0:0:0:0:
193,363,97766,1,0,0:0:0:0:
199,348,97847,2,0,P|240:303|301:302,1,125,2|0,0:3|0:0,0:0:0:0:
355,371,98090,1,6,0:3:0:0:
369,379,98171,1,0,0:0:0:0:
384,384,98252,2,0,P|422:378|459:346,1,62.5,2|0,1:3|0:0,0:0:0:0:
506,303,98415,2,0,P|484:273|426:252,1,75.0000028610231,2|0,0:3|0:0,0:0:0:0:
256,192,98577,69,4,0:3:0:0:
440,55,98739,22,0,P|435:91|416:123,1,75.0000028610231,2|0,0:3|0:0,0:0:0:0:
340,168,98901,2,0,P|297:113|236:107,1,125,2|0,1:3|0:0,0:0:0:0:
143,164,99144,2,0,P|109:176|70:170,1,62.5,2|0,0:3|0:0,0:0:0:0:
17,88,99307,1,0,0:0:0:0:
28,79,99388,2,0,P|64:74|99:88,1,75.0000028610231,6|0,0:3|0:0,0:0:0:0:
232,21,99550,2,0,P|169:74|169:96,1,62.5,2|0,1:3|0:0,0:0:0:0:
249,276,99712,2,0,P|224:271|202:259,1,50,2|0,0:3|0:0,0:0:0:0:
256,192,99874,85,4,0:3:0:0:
471,313,100036,38,0,P|446:340|412:356,1,75.0000028610231,2|0,0:3|0:0,0:0:0:0:
326,239,100198,2,0,P|355:261|391:271,1,75.0000028610231,2|0,1:3|0:0,0:0:0:0:
472,228,100361,1,0,0:0:0:0:
481,215,100442,2,0,P|483:153|444:107,1,125,2|0,0:3|0:0,0:0:0:0:
362,117,100685,1,6,0:3:0:0:
347,124,100766,1,0,0:0:0:0:
331,127,100847,2,0,P|297:118|257:74,1,62.5,2|0,1:3|0:0,0:0:0:0:
405,8,101009,2,0,P|362:19|322:63,1,75.0000028610231,2|0,0:3|0:0,0:0:0:0:
256,192,101171,69,4,0:3:0:0:
9,0,101334,22,0,P|45:5|76:26,1,75.0000028610231,2|0,0:3|0:0,0:0:0:0:
117,116,101496,1,2,1:3:0:0:
110,131,101577,1,0,0:0:0:0:
94,136,101658,1,0,0:0:0:0:
79,130,101739,2,0,P|161:123|143:200,1,150.000005722046,2|0,0:3|0:0,0:0:0:0:
92,219,101982,2,0,P|72:252|72:299,1,75.0000028610231,6|0,0:3|0:0,0:0:0:0:
191,369,102144,2,0,P|165:350|148:324,1,62.5,2|0,1:3|0:0,0:0:0:0:
0,352,102307,2,0,P|27:365|58:369,1,50,2|0,0:3|0:0,0:0:0:0:
256,192,102469,85,4,0:3:0:0:
425,348,102631,38,0,P|397:372|361:384,1,75.0000028610231,2|0,0:3|0:0,0:0:0:0:
300,264,102793,2,0,P|323:284|351:297,1,62.5,2|0,1:3|0:0,0:0:0:0:
483,284,102955,1,0,0:0:0:0:
491,271,103036,2,0,P|490:221|465:178,1,100,2|0,0:3|0:0,0:0:0:0:
381,153,103279,2,0,P|320:133|305:113,1,62.5,6|0,0:3|0:0,0:0:0:0:
218,0,103442,2,0,P|248:2|263:73,1,100,2|0,1:3|0:0,0:0:0:0:
140,122,103604,2,0,P|141:84|191:87,1,87.500000834465,2|0,0:3|0:0,0:0:0:0:
256,192,103766,5,4,0:3:0:0:
256,192,103928,12,2,104901,0:3:0:0:
256,1,105063,53,4,0:1:0:0:
119,30,105225,85,2,0:0:0:0:
188,81,105387,1,2,0:2:0:0:
155,165,105549,2,0,P|163:222|206:269,1,112.500004291535,2|0,0:0|0:0,0:0:0:0:
210,271,105873,1,4,0:3:0:0:
294,238,106036,1,2,1:2:0:0:
345,308,106198,1,2,0:0:0:0:
256,368,106360,85,4,0:3:0:0:
83,47,106603,5,2,0:0:0:0:
72,55,106684,2,0,P|53:87|46:124,1,75.0000028610231,0|2,1:0|0:0,0:0:0:0:
91,203,107008,1,2,0:0:0:0:
94,217,107089,1,2,0:0:0:0:
98,231,107170,1,4,0:3:0:0:
54,316,107333,2,0,L|158:331,1,75.0000028610231,0|0,1:3|0:0,0:0:0:0:
256,368,107657,101,4,0:3:0:0:
299,24,107900,21,2,0:0:0:0:
309,34,107981,1,0,1:0:0:0:
240,90,108144,2,0,P|199:98|155:132,1,75.0000028610231,2|2,0:0|0:0,0:0:0:0:
162,126,108387,1,2,0:0:0:0:
156,139,108468,1,4,0:3:0:0:
238,179,108631,2,0,L|248:280,1,75.0000028610231,0|0,1:0|0:0,0:0:0:0:
256,368,108954,85,4,0:3:0:0:
477,107,109198,37,2,0:0:0:0:
468,97,109279,2,0,P|436:78|399:71,1,75.0000028610231,0|2,1:0|0:0,0:0:0:0:
325,125,109603,1,2,0:0:0:0:
328,139,109684,1,2,0:0:0:0:
330,153,109765,1,4,0:3:0:0:
391,218,109927,2,0,L|382:293,1,75.0000028610231,0|0,1:0|0:0,0:0:0:0:
256,368,110252,69,4,0:3:0:0:
42,253,110414,21,2,0:0:0:0:
125,222,110576,1,2,1:2:0:0:
191,281,110738,2,0,P|260:282|309:244,1,112.500004291535,2|0,0:0|0:0,0:0:0:0:
305,247,111062,1,4,0:3:0:0:
272,162,111224,1,2,1:2:0:0:
335,98,111387,1,2,0:0:0:0:
256,16,111550,85,4,0:3:0:0:
54,354,111792,5,2,0:0:0:0:
47,340,111873,2,0,L|58:265,1,75.0000028610231,0|2,1:0|0:0,0:0:0:0:
168,129,112198,1,2,0:0:0:0:
182,133,112279,1,2,0:0:0:0:
194,142,112360,1,4,0:3:0:0:
97,184,112522,2,0,P|80:150|79:113,1,75.0000028610231,0|0,1:0|0:0,0:0:0:0:
256,16,112846,101,4,0:3:0:0:
198,346,113090,21,2,0:0:0:0:
189,358,113171,1,0,1:0:0:0:
137,269,113333,2,0,L|212:257,1,75.0000028610231,2|2,0:0|0:0,0:0:0:0:
226,255,113576,1,2,0:0:0:0:
241,253,113657,1,4,0:3:0:0:
331,235,113819,2,0,P|346:201|348:164,1,75.0000028610231,0|0,1:0|0:0,0:0:0:0:
256,16,114144,85,4,0:3:0:0:
458,344,114387,37,2,0:0:0:0:
465,330,114468,2,0,L|454:255,1,75.0000028610231,0|2,1:0|0:0,0:0:0:0:
376,214,114792,1,2,0:0:0:0:
367,227,114873,1,2,0:0:0:0:
364,241,114954,1,4,0:3:0:0:
453,167,115117,2,0,P|469:133|471:96,1,75.0000028610231,0|0,1:0|0:0,0:0:0:0:
256,192,115441,5,4,1:0:0:0:
111,239,115603,85,2,0:0:0:0:
86,154,115765,1,2,1:3:0:0:
166,112,115927,1,2,0:0:0:0:
256,192,116090,85,2,1:3:0:0:
401,239,116252,21,4,0:3:0:0:
426,154,116414,1,2,1:3:0:0:
346,112,116576,1,2,0:0:0:0:
256,192,116738,102,0,P|241:226|239:263,1,75.0000028610231,2|0,1:3|0:0,0:0:0:0:
188,135,117062,2,0,P|153:149|126:174,1,75.0000028610231,2|0,1:3|0:0,0:0:0:0:
196,46,117387,1,2,1:3:0:0:
196,46,117468,1,2,0:0:0:0:
196,46,117549,1,6,0:3:0:0:
196,46,117630,1,2,0:0:0:0:
196,46,117711,2,0,P|161:32|124:29,1,75.0000028610231,2|0,1:3|0:0,0:0:0:0:
39,171,118035,6,0,L|25:244,1,75.0000028610231,2|0,1:3|0:0,0:0:0:0:
161,219,118360,2,0,L|203:280,1,75.0000028610231,2|0,1:3|0:0,0:0:0:0:
292,185,118684,1,2,1:3:0:0:
292,185,118765,1,2,0:0:0:0:
292,185,118846,1,6,0:3:0:0:
292,185,118927,1,2,0:0:0:0:
292,185,119009,2,0,L|365:198,1,75.0000028610231,2|0,1:3|0:0,0:0:0:0:
224,358,119334,6,0,P|189:373|152:374,1,75.0000028610231,2|0,1:3|0:0,0:0:0:0:
223,256,119657,2,0,P|187:243|160:218,1,75.0000028610231,2|0,1:3|0:0,0:0:0:0:
292,185,119981,1,2,1:3:0:0:
292,185,120062,1,2,0:0:0:0:
292,185,120144,1,6,0:3:0:0:
292,185,120225,1,2,0:0:0:0:
290,184,120307,2,0,P|274:150|273:112,1,75.0000028610231,2|0,1:3|0:0,0:0:0:0:
512,85,120630,85,4,1:2:0:0:
468,234,120792,1,2,1:2:0:0:
450,49,120954,5,2,1:3:0:0:
433,189,121116,1,2,1:2:0:0:
385,28,121279,5,2,1:3:0:0:
394,154,121441,1,2,1:3:0:0:
328,20,121603,101,2,1:3:0:0:
354,130,121765,1,2,1:2:0:0:
241,98,121927,101,4,1:2:0:0:
283,192,122089,1,2,1:2:0:0:
196,107,122252,5,2,1:3:0:0:
245,184,122414,1,2,1:2:0:0:
157,123,122576,5,2,1:3:0:0:
212,183,122738,1,2,1:3:0:0:
122,143,122900,101,2,1:3:0:0:
181,187,123062,1,2,1:2:0:0:
93,253,123225,101,4,1:2:0:0:
107,258,123306,1,0,1:0:0:0:
117,269,123387,1,0,1:0:0:0:
123,283,123468,1,0,1:0:0:0:
122,298,123549,1,0,1:0:0:0:
117,312,123631,1,0,1:0:0:0:
106,322,123712,1,0,1:0:0:0:
92,328,123793,1,0,1:0:0:0:
83,324,123874,5,4,1:2:0:0:
72,320,123955,1,0,1:0:0:0:
64,312,124036,1,0,1:0:0:0:
60,302,124117,1,0,1:0:0:0:
60,291,124198,1,0,1:0:0:0:
64,280,124279,1,0,1:0:0:0:
73,273,124360,1,0,1:0:0:0:
82,269,124441,1,0,1:0:0:0:
92,271,124522,5,4,1:2:0:0:
85,274,124604,1,4,1:3:0:0:
80,280,124685,1,4,1:3:0:0:
77,287,124766,1,4,1:3:0:0:
77,295,124847,1,4,1:3:0:0:
80,302,124928,1,4,1:3:0:0:
85,308,125009,1,4,1:3:0:0:
92,311,125090,1,4,1:3:0:0:
100,310,125171,1,4,1:3:0:0:
106,306,125252,1,4,1:3:0:0:
110,301,125333,1,4,1:3:0:0:
113,295,125414,1,4,1:3:0:0:
115,288,125496,1,2,1:3:0:0:
