osu file format v14

[General]
AudioFilename: audio.mp3
AudioLeadIn: 0
PreviewTime: 62252
Countdown: 1
SampleSet: Soft
StackLeniency: 0.5
Mode: 0
LetterboxInBreaks: 0
WidescreenStoryboard: 1

[Editor]
Bookmarks: 11658,22036,42793,53171,58361,63550,84307,105063,115442,120631
DistanceSpacing: 1
BeatDivisor: 4
GridSize: 8
TimelineZoom: 1.2

[Metadata]
Title:Spring Signal
TitleUnicode:Spring Signal
Artist:yuki.
ArtistUnicode:yuki.
Creator:pishifat
Version:Easy
Source:
Tags:nyquill
BeatmapID:1513222
BeatmapSetID:716211

[Difficulty]
HPDrainRate:2
CircleSize:3
OverallDifficulty:2
ApproachRate:3
SliderMultiplier:0.999999999999999
SliderTickRate:1

[Events]
//Background and Video events
0,0,"spring-signal.jpg",0,0
//Break Periods
2,22236,41353
//Storyboard Layer 0 (Background)
//Storyboard Layer 1 (Fail)
//Storyboard Layer 2 (Pass)
//Storyboard Layer 3 (Foreground)
//Storyboard Sound Samples

[TimingPoints]
1280,324.324324324324,4,2,1,80,1,0
1280,-111.111111111111,4,2,1,80,0,0
16847,-111.111111111111,4,2,1,100,0,0
17171,-111.111111111111,4,2,1,100,0,0
17496,-111.111111111111,4,2,1,100,0,0
17820,-111.111111111111,4,2,1,100,0,0
18144,-111.111111111111,4,2,1,90,0,0
18469,-111.111111111111,4,2,1,90,0,0
18793,-111.111111111111,4,2,1,90,0,0
19117,-111.111111111111,4,2,1,90,0,0
19442,-111.111111111111,4,2,1,90,0,0
20820,-111.111111111111,4,2,1,75,0,0
21712,-111.111111111111,4,2,1,100,0,0
22036,-111.111111111111,4,2,0,60,0,0
42793,-111.111111111111,4,2,0,70,0,0
43279,-111.111111111111,4,2,0,70,0,0
43766,-111.111111111111,4,2,0,70,0,0
44090,-111.111111111111,4,2,0,70,0,0
44577,-111.111111111111,4,2,0,70,0,0
45063,-111.111111111111,4,2,0,70,0,0
45388,-111.111111111111,4,2,0,70,0,0
45874,-111.111111111111,4,2,0,70,0,0
46361,-111.111111111111,4,2,0,70,0,0
46685,-111.111111111111,4,2,0,70,0,0
47009,-111.111111111111,4,2,0,70,0,0
47334,-111.111111111111,4,2,0,70,0,0
47658,-111.111111111111,4,2,0,70,0,0
47982,-111.111111111111,4,2,0,70,0,0
48469,-111.111111111111,4,2,0,70,0,0
48955,-111.111111111111,4,2,0,70,0,0
49766,-111.111111111111,4,2,0,70,0,0
50252,-111.111111111111,4,2,0,70,0,0
50577,-111.111111111111,4,2,0,70,0,0
51063,-111.111111111111,4,2,0,70,0,0
51550,-111.111111111111,4,2,0,70,0,0
52198,-111.111111111111,4,2,0,70,0,0
52523,-111.111111111111,4,2,0,70,0,0
52847,-111.111111111111,4,2,0,70,0,0
53171,-111.111111111111,4,2,1,80,0,0
57063,-111.111111111111,4,2,1,80,0,0
57388,-111.111111111111,4,2,1,80,0,0
57712,-111.111111111111,4,2,1,80,0,0
58036,-111.111111111111,4,2,1,80,0,0
58361,-111.111111111111,4,2,1,100,0,0
58685,-111.111111111111,4,2,1,100,0,0
59009,-111.111111111111,4,2,1,100,0,0
59334,-111.111111111111,4,2,1,100,0,0
59658,-111.111111111111,4,2,1,90,0,0
59982,-111.111111111111,4,2,1,90,0,0
60307,-111.111111111111,4,2,1,90,0,0
60631,-111.111111111111,4,2,1,90,0,0
60955,-111.111111111111,4,2,1,90,0,0
62334,-111.111111111111,4,2,1,75,0,0
63225,-111.111111111111,4,2,1,100,0,0
63550,-111.111111111111,4,2,1,100,0,1
63712,-111.111111111111,4,2,1,100,0,1
63874,-111.111111111111,4,2,1,100,0,1
64117,-111.111111111111,4,2,1,100,0,1
64361,-111.111111111111,4,2,1,100,0,1
64523,-111.111111111111,4,2,1,100,0,1
64685,-111.111111111111,4,2,1,100,0,1
65009,-111.111111111111,4,2,1,100,0,1
65171,-111.111111111111,4,2,1,100,0,1
65415,-111.111111111111,4,2,1,100,0,1
65658,-111.111111111111,4,2,1,100,0,1
65820,-111.111111111111,4,2,1,100,0,1
66307,-111.111111111111,4,2,1,100,0,1
66712,-111.111111111111,4,2,1,100,0,1
66955,-111.111111111111,4,2,1,100,0,1
67117,-111.111111111111,4,2,1,100,0,1
67279,-111.111111111111,4,2,1,100,0,1
67604,-111.111111111111,4,2,1,100,0,1
68252,-111.111111111111,4,2,1,100,0,1
68415,-111.111111111111,4,2,1,100,0,1
68577,-111.111111111111,4,2,1,100,0,1
68901,-111.111111111111,4,2,1,100,0,1
69225,-111.111111111111,4,2,1,100,0,1
69550,-111.111111111111,4,2,1,100,0,1
69874,-111.111111111111,4,2,1,100,0,1
70198,-111.111111111111,4,2,1,100,0,1
70361,-111.111111111111,4,2,1,100,0,1
70604,-111.111111111111,4,2,1,100,0,1
71009,-111.111111111111,4,2,1,100,0,1
71496,-111.111111111111,4,2,1,100,0,1
71658,-111.111111111111,4,2,1,100,0,1
71901,-111.111111111111,4,2,1,100,0,1
72144,-111.111111111111,4,2,1,100,0,1
72307,-111.111111111111,4,2,1,100,0,1
72469,-111.111111111111,4,2,1,100,0,1
72793,-111.111111111111,4,2,1,100,0,1
73117,-111.111111111111,4,2,1,100,0,1
73442,-111.111111111111,4,2,1,100,0,1
73604,-111.111111111111,4,2,1,100,0,1
73766,-111.111111111111,4,2,1,100,0,1
74090,-111.111111111111,4,2,1,100,0,1
74496,-111.111111111111,4,2,1,100,0,1
74739,-111.111111111111,4,2,1,100,0,1
75063,-111.111111111111,4,2,1,100,0,1
75388,-111.111111111111,4,2,1,100,0,1
75550,-111.111111111111,4,2,1,100,0,1
75793,-111.111111111111,4,2,1,100,0,1
76198,-111.111111111111,4,2,1,100,0,1
76685,-111.111111111111,4,2,1,100,0,1
77090,-111.111111111111,4,2,1,100,0,1
77334,-111.111111111111,4,2,1,100,0,1
77658,-111.111111111111,4,2,1,100,0,1
78631,-111.111111111111,4,2,1,100,0,1
78793,-111.111111111111,4,2,1,100,0,1
78955,-111.111111111111,4,2,1,100,0,1
79279,-111.111111111111,4,2,1,100,0,1
79685,-111.111111111111,4,2,1,100,0,1
79928,-111.111111111111,4,2,1,100,0,1
80252,-111.111111111111,4,2,1,100,0,1
80577,-111.111111111111,4,2,1,100,0,1
80739,-111.111111111111,4,2,1,100,0,1
80982,-111.111111111111,4,2,1,100,0,1
81550,-111.111111111111,4,2,1,100,0,1
81874,-111.111111111111,4,2,1,100,0,1
82036,-111.111111111111,4,2,1,100,0,1
82198,-111.111111111111,4,2,1,100,0,1
82523,-111.111111111111,4,2,1,100,0,1
82685,-111.111111111111,4,2,1,100,0,1
82847,-111.111111111111,4,2,1,100,0,1
84307,-111.111111111111,4,2,1,100,0,1
84874,-111.111111111111,4,2,1,100,0,1
85279,-111.111111111111,4,2,1,100,0,1
85442,-111.111111111111,4,2,1,100,0,1
85766,-111.111111111111,4,2,1,100,0,1
86577,-111.111111111111,4,2,1,100,0,1
86739,-111.111111111111,4,2,1,100,0,1
87063,-111.111111111111,4,2,1,100,0,1
87469,-111.111111111111,4,2,1,100,0,1
88036,-111.111111111111,4,2,1,100,0,1
88361,-111.111111111111,4,2,1,100,0,1
89009,-111.111111111111,4,2,1,100,0,1
89171,-111.111111111111,4,2,1,100,0,1
89334,-111.111111111111,4,2,1,100,0,1
89658,-111.111111111111,4,2,1,100,0,1
90063,-111.111111111111,4,2,1,100,0,1
90631,-111.111111111111,4,2,1,100,0,1
91766,-111.111111111111,4,2,1,100,0,1
91928,-111.111111111111,4,2,1,100,0,1
92252,-111.111111111111,4,2,1,100,0,1
92415,-111.111111111111,4,2,1,100,0,1
92658,-111.111111111111,4,2,1,100,0,1
92901,-111.111111111111,4,2,1,100,0,1
93063,-111.111111111111,4,2,1,100,0,1
93225,-111.111111111111,4,2,1,100,0,1
93550,-111.111111111111,4,2,1,100,0,1
94198,-111.111111111111,4,2,1,100,0,1
94361,-111.111111111111,4,2,1,100,0,1
94523,-111.111111111111,4,2,1,100,0,1
94847,-111.111111111111,4,2,1,100,0,1
95252,-111.111111111111,4,2,1,100,0,1
95820,-111.111111111111,4,2,1,100,0,1
96955,-111.111111111111,4,2,1,100,0,1
97117,-111.111111111111,4,2,1,100,0,1
97442,-111.111111111111,4,2,1,100,0,1
97847,-111.111111111111,4,2,1,100,0,1
98252,-111.111111111111,4,2,1,100,0,1
98415,-111.111111111111,4,2,1,100,0,1
98901,-111.111111111111,4,2,1,100,0,1
99388,-111.111111111111,4,2,1,100,0,1
99550,-111.111111111111,4,2,1,100,0,1
99712,-111.111111111111,4,2,1,100,0,1
100036,-111.111111111111,4,2,1,100,0,1
100442,-111.111111111111,4,2,1,100,0,1
101009,-111.111111111111,4,2,1,100,0,1
102144,-111.111111111111,4,2,1,100,0,1
102307,-111.111111111111,4,2,1,100,0,1
102631,-111.111111111111,4,2,1,100,0,1
102793,-111.111111111111,4,2,1,100,0,1
103036,-111.111111111111,4,2,1,100,0,1
103279,-111.111111111111,4,2,1,100,0,1
103442,-111.111111111111,4,2,1,100,0,1
103604,-111.111111111111,4,2,1,100,0,1
105063,-111.111111111111,4,2,1,80,0,0
120631,-111.111111111111,4,2,1,100,0,0
120955,-111.111111111111,4,2,1,100,0,0
121279,-111.111111111111,4,2,1,100,0,0
121604,-111.111111111111,4,2,1,100,0,0
121928,-111.111111111111,4,2,1,90,0,0
122252,-111.111111111111,4,2,1,90,0,0
122577,-111.111111111111,4,2,1,90,0,0
122901,-111.111111111111,4,2,1,90,0,0
123225,-111.111111111111,4,2,1,90,0,0
124604,-111.111111111111,4,2,1,75,0,0
125496,-111.111111111111,4,2,1,100,0,0

[Colours]
Combo1 : 184,156,207
Combo2 : 66,200,210
Combo3 : 56,130,220
Combo4 : 115,97,220
Combo5 : 167,220,235
Combo6 : 154,168,233

[HitObjects]
148,90,1280,54,0,P|217:45|284:50,2,134.999995880127,4|2|2,0:1|0:0|1:2,0:0:0:0:
118,175,2577,1,4,0:3:0:0:
156,256,2901,2,0,B|285:240|285:240|335:268,1,179.999994506836,0|0,1:0|1:0,0:0:0:0:
364,347,3874,5,4,0:3:0:0:
451,327,4198,2,0,B|512:283|506:216|506:216|460:188,1,179.999994506836,0|0,1:0|1:0,0:0:0:0:
422,109,5171,1,4,0:3:0:0:
338,142,5496,2,0,B|206:130|206:130|160:89,1,179.999994506836,0|0,1:0|1:0,0:0:0:0:
123,21,6469,6,0,P|47:17|-9:61,2,134.999995880127,4|2|2,0:3|0:0|1:2,0:0:0:0:
171,98,7766,2,0,L|156:205,1,89.999997253418,4|0,0:3|1:0,0:0:0:0:
127,362,8739,1,0,1:0:0:0:
216,349,9063,54,0,L|313:332,1,89.999997253418,4|0,0:3|1:0,0:0:0:0:
462,246,10036,1,0,1:0:0:0:
454,156,10361,2,0,L|443:50,1,89.999997253418,4|0,0:3|1:0,0:0:0:0:
306,181,11334,1,0,1:0:0:0:
244,115,11658,6,0,B|207:91|207:91|144:99,1,89.999997253418,4|2,0:1|1:3,0:0:0:0:
84,143,12307,2,0,B|60:180|60:180|68:243,1,89.999997253418,0|2,1:0|1:3,0:0:0:0:
121,295,12955,2,0,B|221:311,2,89.999997253418,2|2|2,1:3|1:3|1:3,0:0:0:0:
65,225,13928,1,2,1:3:0:0:
153,207,14252,6,0,B|253:223,2,89.999997253418,2|2|2,1:3|1:3|1:3,0:0:0:0:
123,121,15225,1,2,1:3:0:0:
91,36,15550,2,0,B|2:21,2,89.999997253418,2|2|2,1:3|1:3|1:3,0:0:0:0:
180,48,16523,1,2,1:3:0:0:
266,22,16847,54,0,B|305:0|305:0|349:5,1,89.999997253418,4|2,1:3|1:3,0:0:0:0:
418,63,17496,2,0,L|471:56,2,44.999998626709,0|0|0,1:0|1:0|1:0,1:0:0:0:
387,145,18144,2,0,B|392:189|392:189|370:228,1,89.999997253418,4|2,1:2|1:3,0:0:0:0:
282,261,18793,2,0,L|272:209,2,44.999998626709,0|0|0,1:0|1:0|1:0,1:0:0:0:
232,337,19442,5,4,1:2:0:0:
144,355,19766,1,0,1:0:0:0:
57,329,20090,1,4,1:2:0:0:
0,258,20415,1,0,1:0:0:0:
0,168,20739,2,0,B|62:159|62:159|112:181|112:181|185:169,1,179.999994506836,4|4,1:2|1:3,0:0:0:0:
242,111,21712,1,2,1:3:0:0:
256,24,22036,5,4,0:1:0:0:
200,64,42793,54,0,P|116:42|147:168,1,269.999991760254,4|2,0:0|0:0,0:0:0:0:
208,227,44090,2,0,P|213:294|185:355,2,134.999995880127,2|2|2,0:3|0:0|0:0,0:0:0:0:
266,158,45388,6,0,P|369:143|483:261,1,269.999991760254,2|2,0:3|0:0,0:0:0:0:
464,339,46685,2,0,L|368:328,1,89.999997253418,2|2,0:3|0:0,0:0:0:0:
286,347,47334,1,2,0:0:0:0:
197,364,47658,1,2,0:0:0:0:
109,341,47982,6,0,B|62:281|96:199|131:233|172:163|124:83,1,269.999991760254,2|2,0:3|0:0,0:0:0:0:
70,24,49279,2,0,P|11:50|-13:119,2,134.999995880127,2|2|2,0:3|0:0|0:0,0:0:0:0:
129,92,50577,54,0,L|417:121,1,269.999991760254,2|2,0:3|0:0,0:0:0:0:
492,280,52198,2,0,L|507:371,2,89.999997253418,2|2|2,0:0|0:0|0:0,0:0:0:0:
422,222,53171,6,0,B|374:216|374:216|323:249,1,89.999997253418,2|2,1:3|1:3,0:0:0:0:
274,302,53820,2,0,B|226:308|226:308|191:285,1,89.999997253418,2|2,1:3|1:3,0:0:0:0:
130,218,54469,2,0,L|119:113,2,89.999997253418,2|2|2,1:3|1:3|1:3,0:0:0:0:
78,292,55442,1,2,1:3:0:0:
12,229,55766,6,0,L|1:122,1,89.999997253418,2|2,1:3|1:3,0:0:0:0:
8,49,56415,2,0,L|109:39,1,89.999997253418,2|2,1:3|1:3,0:0:0:0:
183,68,57063,1,2,1:3:0:0:
266,34,57388,1,2,1:3:0:0:
338,86,57712,1,2,1:3:0:0:
419,48,58036,1,2,1:3:0:0:
485,115,58361,54,0,B|489:160|489:160|466:208,1,89.999997253418,4|2,1:2|1:3,0:0:0:0:
380,215,59009,1,2,1:3:0:0:
291,229,59334,1,2,1:3:0:0:
218,176,59658,2,0,B|173:172|173:172|125:195,1,89.999997253418,4|2,1:2|1:3,0:0:0:0:
58,243,60307,2,0,L|68:345,1,89.999997253418,2|2,1:3|1:3,0:0:0:0:
146,374,60955,5,4,1:2:0:0:
234,361,61279,1,0,1:0:0:0:
323,348,61604,1,4,1:2:0:0:
411,335,61928,1,0,1:0:0:0:
500,323,62252,2,0,B|494:260|494:260|464:220|464:220|457:140,1,179.999994506836,4|4,1:2|1:3,0:0:0:0:
496,72,63225,1,2,1:3:0:0:
420,22,63550,22,0,P|363:28|274:120,1,179.999994506836,4|0,1:1|0:0,0:0:0:0:
257,194,64523,1,2,1:3:0:0:
171,165,64847,2,0,P|146:103|146:65,1,89.999997253418,4|2,0:3|1:3,0:0:0:0:
60,48,65496,2,0,P|35:110|35:148,1,89.999997253418,0|2,0:0|1:3,0:0:0:0:
12,219,66144,6,0,P|99:240|167:323,1,179.999994506836,4|0,0:3|0:0,0:0:0:0:
232,357,67117,1,2,1:3:0:0:
308,309,67442,2,0,P|326:243|327:216,2,89.999997253418,4|2|0,0:3|1:3|0:0,0:0:0:0:
370,374,68415,1,2,1:3:0:0:
446,326,68739,6,0,P|428:211|381:145,1,179.999994506836,4|0,0:3|0:0,0:0:0:0:
329,96,69712,1,2,1:3:0:0:
261,155,70036,2,0,P|192:148|165:135,1,89.999997253418,4|2,0:3|1:3,0:0:0:0:
109,76,70685,1,0,0:0:0:0:
87,163,71009,1,2,1:3:0:0:
65,250,71334,54,0,P|141:295|230:311,1,179.999994506836,4|0,0:3|0:0,0:0:0:0:
297,250,72307,1,2,1:3:0:0:
346,325,72631,2,0,L|357:183,2,134.999995880127,4|2|2,0:3|0:3|1:3,0:0:0:0:
426,364,73928,6,0,P|472:312|491:189,1,179.999994506836,4|0,1:1|0:0,0:0:0:0:
470,118,74901,1,2,1:3:0:0:
395,68,75225,2,0,P|318:77|293:91,1,89.999997253418,4|2,0:3|1:3,0:0:0:0:
249,150,75874,2,0,P|172:141|147:127,1,89.999997253418,0|2,0:0|1:3,0:0:0:0:
84,89,76523,6,0,P|136:148|161:254,1,179.999994506836,4|0,0:3|0:0,0:0:0:0:
148,333,77496,1,2,1:3:0:0:
64,366,77820,2,0,P|32:317|21:267,2,89.999997253418,4|2|0,0:3|1:3|0:0,0:0:0:0:
148,333,78793,1,2,1:3:0:0:
232,364,79117,54,0,P|323:337|394:276,1,179.999994506836,4|0,0:3|0:0,0:0:0:0:
425,201,80090,1,2,1:3:0:0:
334,205,80415,2,0,P|279:184|248:156,1,89.999997253418,4|2,0:3|1:3,0:0:0:0:
234,76,81063,2,0,P|289:55|320:27,1,89.999997253418,0|2,0:0|1:3,0:0:0:0:
398,7,81712,6,0,P|479:86|496:153,1,179.999994506836,4|0,0:3|0:0,0:0:0:0:
423,199,82685,1,2,1:3:0:0:
348,244,83009,2,0,L|484:269,2,134.999995880127,4|2|2,0:3|0:3|1:3,0:0:0:0:
277,188,84307,6,0,P|217:217|243:275,2,134.999995880127,4|0|2,1:1|0:0|1:3,0:0:0:0:
356,145,85604,2,0,P|343:86|303:64,1,89.999997253418,4|2,0:3|1:3,0:0:0:0:
242,27,86252,2,0,P|172:51|167:79,1,89.999997253418,0|2,0:0|1:3,0:0:0:0:
144,145,86901,54,0,P|57:128|63:96,2,134.999995880127,4|0|2,0:3|0:0|1:3,0:0:0:0:
232,129,88198,1,4,0:3:0:0:
292,195,88523,1,2,1:3:0:0:
255,277,88847,1,0,0:0:0:0:
316,342,89171,1,2,1:3:0:0:
386,285,89496,6,0,P|448:295|435:363,2,134.999995880127,4|0|2,0:3|0:0|1:3,0:0:0:0:
316,342,90793,2,0,P|274:338|239:297,1,89.999997253418,4|2,0:3|1:3,0:0:0:0:
199,226,91442,2,0,P|157:229|122:271,1,89.999997253418,0|2,0:0|1:3,0:0:0:0:
152,347,92090,6,0,P|98:377|62:326,2,134.999995880127,4|0|2,0:3|0:0|1:3,0:0:0:0:
125,261,93388,2,0,B|103:67|103:67|129:30|167:37,1,269.999991760254,4|2,0:3|0:3,0:0:0:0:
239,92,94685,54,0,P|283:95|284:15,2,134.999995880127,4|0|2,1:1|0:0|1:3,0:0:0:0:
156,128,95982,2,0,P|194:190|217:192,1,89.999997253418,4|2,0:3|1:3,0:0:0:0:
277,244,96631,2,0,P|320:236|344:200,1,89.999997253418,0|2,0:0|1:3,0:0:0:0:
399,129,97279,6,0,P|457:133|454:202,2,134.999995880127,4|0|2,0:3|0:0|1:3,0:0:0:0:
344,199,98577,1,4,0:3:0:0:
329,286,98901,1,2,1:3:0:0:
259,343,99225,1,0,0:0:0:0:
168,337,99550,1,2,1:3:0:0:
109,268,99874,6,0,P|54:298|76:356,2,134.999995880127,4|0|2,0:3|0:0|1:3,0:0:0:0:
197,249,101171,2,0,P|226:213|215:166,1,89.999997253418,4|2,0:3|1:3,0:0:0:0:
178,91,101820,2,0,P|201:51|249:45,1,89.999997253418,0|2,0:0|1:3,0:0:0:0:
297,115,102469,54,0,P|351:84|329:26,2,134.999995880127,4|0|2,0:3|0:0|1:3,0:0:0:0:
242,43,103766,2,0,B|48:28|48:28|6:53|15:109,1,269.999991760254,4|2,0:3|0:3,0:0:0:0:
52,171,105063,38,0,P|46:245|0:309,2,134.999995880127,4|2|2,0:1|0:0|1:2,0:0:0:0:
126,119,106360,1,4,0:3:0:0:
191,180,106685,2,0,B|320:196|320:196|363:171,1,179.999994506836,0|0,1:0|1:3,0:0:0:0:
384,83,107657,5,4,0:3:0:0:
472,98,107982,2,0,B|533:142|527:209|527:209|481:237,1,179.999994506836,0|0,1:0|1:0,0:0:0:0:
442,314,108954,1,4,0:3:0:0:
363,268,109279,2,0,B|231:280|231:280|185:321,1,179.999994506836,0|0,1:0|1:0,0:0:0:0:
123,365,110252,6,0,P|47:369|-9:325,2,134.999995880127,4|2|2,0:3|0:0|1:2,0:0:0:0:
195,311,111549,2,0,L|183:204,1,89.999997253418,4|0,0:3|1:0,0:0:0:0:
165,42,112523,1,0,1:0:0:0:
246,79,112847,54,0,P|290:79|329:58,1,89.999997253418,4|0,0:3|1:0,0:0:0:0:
507,105,113820,1,0,1:0:0:0:
448,174,114144,2,0,L|437:280,1,89.999997253418,4|0,0:3|1:0,0:0:0:0:
260,220,115117,1,0,1:0:0:0:
318,148,115441,6,0,B|281:124|281:124|218:132,1,89.999997253418,4|2,1:0|1:3,0:0:0:0:
172,196,116090,2,0,B|166:241|166:241|190:278,1,89.999997253418,2|2,1:3|1:3,0:0:0:0:
176,368,116739,2,0,B|87:382,2,89.999997253418,2|2|2,1:3|1:3|1:3,0:0:0:0:
259,335,117711,1,2,1:3:0:0:
344,305,118036,6,0,B|432:319,2,89.999997253418,2|2|2,1:3|1:3|1:3,0:0:0:0:
274,247,119008,1,2,1:3:0:0:
200,195,119333,2,0,B|111:210,2,89.999997253418,2|2|2,1:3|1:3|1:3,0:0:0:0:
265,132,120306,1,2,1:3:0:0:
326,65,120631,54,0,B|370:59|370:59|409:81,1,89.999997253418,4|2,1:2|1:3,0:0:0:0:
434,167,121279,2,0,L|369:175,2,44.999998626709,0|0|0,1:0|1:0|1:0,1:0:0:0:
450,255,121927,2,0,B|405:261|405:261|373:293,1,89.999997253418,4|2,1:2|1:3,0:0:0:0:
294,337,122577,2,0,L|301:396,2,44.999998626709,0|0|0,1:0|1:0|1:0,1:0:0:0:
265,251,123225,5,4,1:2:0:0:
284,163,123549,1,0,1:0:0:0:
264,75,123873,1,4,1:2:0:0:
196,14,124198,1,0,1:0:0:0:
106,10,124522,2,0,B|97:72|97:72|118:122|118:122|107:194,1,179.999994506836,4|4,1:2|1:3,0:0:0:0:
100,274,125495,1,2,1:3:0:0:
