osu file format v14

[General]
AudioFilename: audio.mp3
AudioLeadIn: 0
PreviewTime: 62252
Countdown: 1
SampleSet: Soft
StackLeniency: 0.5
Mode: 0
LetterboxInBreaks: 0
WidescreenStoryboard: 1

[Editor]
Bookmarks: 11658,22036,42793,53171,58361,63550,84307,105063,115361,120631
DistanceSpacing: 1
BeatDivisor: 4
GridSize: 8
TimelineZoom: 1.7

[Metadata]
Title:Spring Signal
TitleUnicode:Spring Signal
Artist:yuki.
ArtistUnicode:yuki.
Creator:pishifat
Version:Collab Insane
Source:
Tags:nyquill
BeatmapID:1517665
BeatmapSetID:716211

[Difficulty]
HPDrainRate:6
CircleSize:3.8
OverallDifficulty:8
ApproachRate:9
SliderMultiplier:1.8
SliderTickRate:1

[Events]
//Background and Video events
0,0,"spring-signal.jpg",0,0
//Break Periods
//Storyboard Layer 0 (Background)
//Storyboard Layer 1 (Fail)
//Storyboard Layer 2 (Pass)
//Storyboard Layer 3 (Foreground)
//Storyboard Sound Samples

[TimingPoints]
1280,324.324324324324,4,2,1,80,1,0
1280,-111.111111111111,4,2,1,80,0,0
1847,-111.111111111111,4,2,1,33,0,0
1928,-111.111111111111,4,2,1,80,0,0
7036,-111.111111111111,4,2,1,33,0,0
7117,-111.111111111111,4,2,1,80,0,0
11658,-125,4,2,1,80,0,0
16847,-100,4,2,1,100,0,0
17171,-105.263157894737,4,2,1,100,0,0
17496,-111.111111111111,4,2,1,100,0,0
17820,-117.647058823529,4,2,1,100,0,0
18144,-125,4,2,1,90,0,0
18469,-133.333333333333,4,2,1,90,0,0
18793,-142.857142857143,4,2,1,90,0,0
19117,-153.846153846154,4,2,1,90,0,0
20820,-153.846153846154,4,2,1,75,0,0
21712,-153.846153846154,4,2,1,100,0,0
22036,-153.846153846154,4,2,0,60,0,0
42793,-133.333333333333,4,2,0,70,0,0
52198,-153.846153846153,4,2,0,70,0,0
52847,-105.263157894737,4,2,0,70,0,0
53171,-100,4,2,1,80,0,0
58361,-100,4,2,1,100,0,0
58685,-105.263157894737,4,2,1,100,0,0
59009,-111.111111111111,4,2,1,100,0,0
59334,-117.647058823529,4,2,1,100,0,0
59658,-125,4,2,1,90,0,0
59982,-133.333333333333,4,2,1,90,0,0
60307,-142.857142857143,4,2,1,90,0,0
60631,-153.846153846154,4,2,1,90,0,0
62334,-153.846153846154,4,2,1,75,0,0
63225,-153.846153846154,4,2,1,100,0,0
63550,-83.3333333333333,4,2,1,100,0,1
72307,-71.4285714285714,4,2,1,100,0,1
72631,-83.3333333333333,4,2,1,100,0,1
82685,-71.4285714285714,4,2,1,100,0,1
83009,-83.3333333333333,4,2,1,100,0,1
93063,-71.4285714285714,4,2,1,100,0,1
93388,-83.3333333333333,4,2,1,100,0,1
103442,-71.4285714285714,4,2,1,100,0,1
103766,-83.3333333333333,4,2,1,100,0,1
105063,-111.111111111111,4,2,1,80,0,0
105631,-111.111111111111,4,2,1,33,0,0
105712,-111.111111111111,4,2,1,80,0,0
110820,-111.111111111111,4,2,1,33,0,0
110901,-111.111111111111,4,2,1,80,0,0
115442,-125,4,2,1,80,0,0
120631,-100,4,2,1,100,0,0
120955,-105.263157894737,4,2,1,100,0,0
121279,-111.111111111111,4,2,1,100,0,0
121604,-117.647058823529,4,2,1,100,0,0
121928,-125,4,2,1,90,0,0
122252,-133.333333333333,4,2,1,90,0,0
122577,-142.857142857143,4,2,1,90,0,0
122901,-153.846153846154,4,2,1,90,0,0
124604,-153.846153846154,4,2,1,75,0,0
125496,-153.846153846154,4,2,1,100,0,0

[Colours]
Combo1 : 184,156,207
Combo2 : 66,200,210
Combo3 : 56,130,220
Combo4 : 115,97,220
Combo5 : 167,220,235
Combo6 : 154,168,233

[HitObjects]
153,217,1280,54,0,L|235:209,1,80.9999975280763,4|2,0:1|0:0,0:0:0:0:
381,132,1604,2,0,L|365:264,1,121.499996292114,2|0,1:2|0:0,0:0:0:0:
365,267,1928,2,0,P|419:269|469:251,1,80.9999975280763,0|4,0:0|0:3,0:0:0:0:
303,336,2252,1,2,1:2:0:0:
224,200,2415,1,2,0:0:0:0:
64,304,2577,6,0,L|196:288,1,121.499996292114,4|2,0:3|0:0,0:0:0:0:
198,289,2901,2,0,P|199:335|209:379,1,80.9999975280763,0|2,1:0|0:0,0:0:0:0:
312,232,3225,1,2,0:0:0:0:
315,220,3307,1,2,0:0:0:0:
316,207,3388,1,4,0:3:0:0:
316,194,3469,1,0,0:0:0:0:
314,183,3550,2,0,L|410:170,1,80.9999975280763,0|0,1:0|0:0,0:0:0:0:
459,331,3874,6,0,L|360:321,1,80.9999975280763,4|0,0:3|0:0,0:0:0:0:
225,200,4198,1,0,1:0:0:0:
288,320,4361,1,2,0:0:0:0:
152,314,4523,1,2,0:0:0:0:
159,304,4604,1,2,0:0:0:0:
166,294,4685,1,4,0:3:0:0:
173,284,4766,1,0,0:0:0:0:
179,273,4847,2,0,L|81:284,1,80.9999975280763,0|0,1:0|0:0,0:0:0:0:
45,118,5171,54,0,L|147:110,1,80.9999975280763,4|0,0:3|0:0,0:0:0:0:
252,75,5496,1,0,1:0:0:0:
225,200,5658,1,2,0:0:0:0:
352,164,5820,1,2,0:0:0:0:
343,157,5901,1,2,0:0:0:0:
334,150,5982,1,4,0:3:0:0:
325,143,6063,1,0,0:0:0:0:
316,135,6144,2,0,L|423:142,1,80.9999975280763,0|0,1:0|0:0,0:0:0:0:
336,311,6469,6,0,P|308:249|303:210,1,80.9999975280763,4|2,0:3|0:0,0:0:0:0:
273,34,6793,2,0,P|228:100|179:122,1,121.499996292114,2|0,1:2|0:0,0:0:0:0:
180,123,7117,1,0,0:0:0:0:
206,276,7279,1,4,0:3:0:0:
60,222,7442,1,2,1:2:0:0:
148,205,7604,1,2,0:0:0:0:
139,339,7766,6,0,L|-9:318,1,121.499996292114,4|2,0:3|0:0,0:0:0:0:
6,320,8090,2,0,P|12:256|9:227,1,80.9999975280763,0|2,1:0|0:0,0:0:0:0:
116,102,8415,1,2,0:0:0:0:
115,112,8496,1,2,0:0:0:0:
115,122,8577,1,4,0:3:0:0:
117,132,8658,1,0,0:0:0:0:
120,142,8739,2,0,P|161:153|196:173,1,80.9999975280763,0|0,1:0|0:0,0:0:0:0:
267,317,9063,54,0,P|252:247|255:214,1,80.9999975280763,4|0,0:3|0:0,0:0:0:0:
328,89,9388,2,0,P|289:149|266:165,1,80.9999975280763,0|2,1:0|0:0,0:0:0:0:
119,228,9712,1,2,0:0:0:0:
116,217,9793,1,2,0:0:0:0:
114,206,9874,1,4,0:3:0:0:
114,195,9955,1,0,0:0:0:0:
116,185,10036,2,0,P|181:178|220:146,1,80.9999975280763,0|0,1:0|0:0,0:0:0:0:
336,94,10361,6,0,P|287:145|275:185,1,80.9999975280763,4|0,0:3|0:0,0:0:0:0:
263,317,10685,2,0,P|262:265|248:229,1,80.9999975280763,0|2,1:0|0:0,0:0:0:0:
116,102,11009,1,2,0:0:0:0:
115,112,11090,1,2,0:0:0:0:
115,122,11171,1,4,0:3:0:0:
117,132,11252,1,0,0:0:0:0:
120,142,11333,2,0,P|161:153|196:173,1,80.9999975280763,0|0,1:0|0:0,0:0:0:0:
400,178,11658,6,0,L|307:188,1,72,4|2,0:1|0:0,0:0:0:0:
334,309,11982,2,0,L|234:319,1,72,2|2,1:3|0:0,0:0:0:0:
308,100,12307,2,0,L|240:107,1,36,0|0,1:0|0:0,0:0:0:0:
206,167,12469,1,4,0:3:0:0:
108,39,12631,2,0,P|131:91|132:138,1,72,2|2,1:3|0:0,0:0:0:0:
41,246,12955,54,0,P|59:206|82:177,1,72,2|0,1:3|0:0,0:0:0:0:
195,299,13279,2,0,P|166:322|134:334,1,72,2|0,1:3|0:0,0:0:0:0:
206,167,13604,2,0,L|268:178,1,36,2|2,1:3|0:0,0:0:0:0:
302,238,13766,1,6,0:3:0:0:
373,103,13928,2,0,L|364:174,1,72,2|0,1:3|0:0,0:0:0:0:
397,331,14252,6,0,L|388:254,1,72,2|0,1:3|0:0,0:0:0:0:
199,238,14577,2,0,L|188:155,1,72,2|0,1:3|0:0,0:0:0:0:
473,86,14901,2,0,L|466:37,1,36,2|2,1:3|0:0,0:0:0:0:
403,134,15063,1,6,0:3:0:0:
256,110,15225,2,0,P|291:99|327:98,1,72,2|0,1:3|0:0,0:0:0:0:
412,219,15550,6,0,P|404:254|387:285,1,72,2|0,1:3|0:0,0:0:0:0:
244,292,15874,2,0,P|217:267|198:237,1,72,2|0,1:3|0:0,0:0:0:0:
291,99,16198,2,0,P|309:96|327:98,1,36,2|2,1:3|0:0,0:0:0:0:
403,134,16361,1,6,0:3:0:0:
302,215,16523,1,2,1:3:0:0:
205,130,16685,1,0,0:0:0:0:
106,247,16847,54,0,L|106:337,1,90,4|2,1:3|1:2,0:0:0:0:
208,217,17171,2,0,L|214:329,1,85.4999977169037,2|2,1:3|1:2,0:0:0:0:
302,180,17496,2,0,L|324:291,1,80.9999975280763,2|2,1:3|1:2,0:0:0:0:
387,120,17820,2,0,L|415:199,1,76.5000014591217,2|2,1:3|1:2,0:0:0:0:
101,48,18144,6,0,L|97:137,1,72,4|2,1:2|1:2,0:0:0:0:
200,99,18469,2,0,L|204:179,1,67.5000025749208,2|2,1:3|1:2,0:0:0:0:
306,150,18793,2,0,L|318:221,1,62.9999980773926,2|2,1:3|1:2,0:0:0:0:
413,192,19117,2,0,L|440:255,1,58.4999973220826,2|2,1:3|1:2,0:0:0:0:
148,281,19442,6,0,L|140:313,3,29.2499986610413,4|0|0|0,1:2|1:0|1:0|1:0,0:0:0:0:
228,345,19766,2,0,L|220:377,3,29.2499986610413,0|0|0|0,1:0|1:0|1:0|1:0,0:0:0:0:
316,281,20090,2,0,L|308:233,3,29.2499986610413,4|0|0|0,1:2|1:0|1:0|1:0,0:0:0:0:
396,225,20415,2,0,L|388:177,3,29.2499986610413,0|0|0|0,1:0|1:0|1:0|1:0,0:0:0:0:
460,305,20739,53,4,1:2:0:0:
462,297,20820,1,4,1:3:0:0:
463,289,20901,1,4,1:3:0:0:
464,281,20982,1,4,1:3:0:0:
465,273,21063,1,4,1:3:0:0:
466,265,21144,1,4,1:3:0:0:
467,257,21225,1,4,1:3:0:0:
468,249,21307,1,4,1:3:0:0:
469,241,21388,1,4,1:3:0:0:
470,233,21469,1,4,1:3:0:0:
471,225,21550,1,4,1:3:0:0:
472,217,21631,1,4,1:3:0:0:
473,209,21712,1,2,1:3:0:0:
473,209,22036,5,4,0:1:0:0:
397,232,22198,1,2,0:0:0:0:
327,197,22361,1,2,0:0:0:0:
318,120,22523,1,2,0:0:0:0:
318,120,22847,1,2,0:0:0:0:
327,197,23009,1,2,0:0:0:0:
269,252,23171,1,2,0:0:0:0:
193,238,23334,5,2,0:3:0:0:
220,312,23496,2,0,L|227:371,1,58.4999973220826,0|0,0:0|0:0,0:0:0:0:
118,218,23820,2,0,L|111:159,1,58.4999973220826,0|0,0:0|0:0,0:0:0:0:
141,298,24144,1,0,0:0:0:0:
141,298,24307,1,0,0:0:0:0:
176,100,24469,1,2,0:0:0:0:
176,100,24793,53,0,0:0:0:0:
127,164,24955,1,0,0:0:0:0:
203,175,25117,1,0,0:0:0:0:
253,113,25279,1,0,0:0:0:0:
231,40,25442,1,0,0:0:0:0:
154,23,25604,1,2,0:0:0:0:
102,84,25766,1,0,0:0:0:0:
253,113,26090,5,0,0:0:0:0:
136,161,26414,1,0,0:0:0:0:
154,23,26739,1,0,0:0:0:0:
178,95,26901,1,0,0:0:0:0:
253,113,27063,1,0,0:0:0:0:
178,95,27225,5,2,0:3:0:0:
136,161,27388,1,2,0:0:0:0:
169,232,27550,1,2,0:0:0:0:
246,234,27712,1,2,0:0:0:0:
246,234,28036,1,2,0:0:0:0:
169,232,28198,1,2,0:0:0:0:
127,298,28361,1,2,0:0:0:0:
161,368,28523,54,0,L|235:358,1,58.4999973220826,2|0,0:3|0:0,0:0:0:0:
300,350,28847,1,0,0:0:0:0:
300,350,29009,1,0,0:0:0:0:
380,215,29171,2,0,L|303:224,1,58.4999973220826,2|0,0:3|0:0,0:0:0:0:
246,234,29496,1,0,0:0:0:0:
246,234,29658,1,2,0:0:0:0:
397,356,29820,6,0,L|391:286,1,58.4999973220826,2|0,0:3|0:0,0:0:0:0:
376,141,30144,1,0,0:0:0:0:
376,141,30307,1,0,0:0:0:0:
329,206,30469,1,0,0:0:0:0:
407,214,30631,1,0,0:0:0:0:
452,147,30793,1,2,0:0:0:0:
420,74,30955,1,0,0:0:0:0:
485,215,31279,5,0,0:0:0:0:
329,206,31604,1,0,0:0:0:0:
420,74,31928,1,0,0:0:0:0:
452,147,32090,1,0,0:0:0:0:
407,214,32252,1,0,0:0:0:0:
329,206,32415,53,2,0:3:0:0:
269,158,32577,1,2,0:0:0:0:
195,178,32739,1,2,0:0:0:0:
177,254,32901,1,2,0:0:0:0:
177,254,33225,1,2,0:0:0:0:
195,178,33388,1,2,0:0:0:0:
149,112,33550,1,2,0:0:0:0:
73,119,33712,6,0,P|42:99|28:73,1,58.4999973220826,2|0,0:3|0:0,0:0:0:0:
115,183,34036,2,0,P|119:223|106:254,1,58.4999973220826,0|0,0:0|0:0,0:0:0:0:
35,351,34361,2,0,P|70:316|102:310,1,58.4999973220826,0|0,0:0|0:0,0:0:0:0:
195,242,34685,1,0,0:0:0:0:
162,313,34847,1,2,0:0:0:0:
162,313,35171,5,0,0:0:0:0:
219,366,35334,1,0,0:0:0:0:
287,328,35496,1,0,0:0:0:0:
271,251,35658,1,0,0:0:0:0:
370,293,35820,1,0,0:0:0:0:
353,369,35982,1,2,0:0:0:0:
472,330,36144,1,0,0:0:0:0:
271,251,36469,53,0,0:0:0:0:
353,369,36793,1,0,0:0:0:0:
332,202,37117,1,0,0:0:0:0:
271,251,37279,1,0,0:0:0:0:
204,217,37441,1,0,0:0:0:0:
204,141,37604,5,2,0:3:0:0:
128,140,37766,1,2,0:0:0:0:
81,198,37928,1,2,0:0:0:0:
106,272,38090,1,2,0:0:0:0:
106,272,38415,1,2,0:0:0:0:
81,198,38577,1,2,0:0:0:0:
7,186,38739,1,2,0:0:0:0:
28,258,38901,6,0,P|19:304|13:333,1,58.4999973220826,2|0,0:3|0:0,0:0:0:0:
157,214,39225,2,0,L|171:143,1,58.4999973220826,0|0,0:0|0:0,0:0:0:0:
158,294,39550,2,0,L|91:280,1,58.4999973220826,0|0,0:0|0:0,0:0:0:0:
22,181,39874,2,0,L|89:195,1,58.4999973220826,0|2,0:0|0:0,0:0:0:0:
258,258,40198,54,0,L|338:246,1,58.4999973220826,2|0,0:3|0:0,0:0:0:0:
410,135,40523,2,0,L|338:146,1,58.4999973220826,0|0,0:0|0:0,0:0:0:0:
252,90,40847,2,0,L|260:166,1,58.4999973220826,0|0,0:0|0:0,0:0:0:0:
396,229,41171,2,0,L|405:305,1,58.4999973220826,2|0,0:0|0:0,0:0:0:0:
241,269,41496,5,2,0:3:0:0:
180,216,41658,2,0,L|166:85,2,116.999994644165,0|0|0,0:0|0:0|0:0,0:0:0:0:
123,280,42469,1,0,0:0:0:0:
123,280,42631,1,0,0:0:0:0:
0,384,42793,6,0,B|24:358|24:358|58:366|58:366|78:349|78:349|120:366|120:366,1,135.000005149842,4|0,0:0|0:0,0:0:0:0:
202,327,43279,2,0,B|237:341|237:341|257:324|257:324|291:332|291:332|315:306,1,135.000005149842,2|0,0:0|0:0,0:0:0:0:
390,348,43766,2,0,B|404:316|404:316|402:272,1,67.5000025749208,2|0,0:0|0:0,0:0:0:0:
437,172,44090,54,0,B|413:198|413:198|379:190|379:190|359:207|359:207|317:190|317:190,1,135.000005149842,4|0,0:0|0:0,0:0:0:0:
235,229,44576,2,0,B|241:231|199:214|199:214|179:231|179:231|145:223|145:223|121:249,1,135.000005149842,2|0,0:0|0:0,0:0:0:0:
256,143,45063,2,0,B|270:111|270:111|268:67,1,67.5000025749208,2|0,0:0|0:0,0:0:0:0:
71,70,45388,6,0,B|94:101|94:101|117:91|117:91|138:113|138:113|184:96,1,135.000005149842,4|0,0:0|0:0,0:0:0:0:
268,78,45874,2,0,B|288:46|288:46|320:49|320:49|333:27|333:27|370:39,1,135.000005149842,2|0,0:0|0:0,0:0:0:0:
331,204,46361,2,0,B|341:174|341:174|333:127,1,67.5000025749208,2|0,0:0|0:0,0:0:0:0:
198,262,46685,6,0,P|156:292|209:287,1,135.000005149842,2|2,0:0|0:0,0:0:0:0:
478,279,47334,2,0,P|508:332|461:298,1,135.000005149842,2|2,0:0|0:0,0:0:0:0:
277,273,47982,54,0,B|301:290|304:320|304:320|321:302|334:294|334:294|350:309|355:330|355:330|366:295|406:283,2,202.500007724762,2|2|2,0:0|0:0|0:0,0:0:0:0:
67,149,49279,6,0,B|77:105|77:105|95:111|95:111|103:93|103:93|160:114,1,135.000005149842,2|0,0:0|0:0,0:0:0:0:
154,202,49766,1,0,0:0:0:0:
226,69,49928,2,0,B|259:72|259:72|275:102|275:102|307:106|307:106|316:150,1,135.000005149842,2|0,0:0|0:0,0:0:0:0:
245,207,50415,1,0,0:0:0:0:
395,146,50577,6,0,B|406:182|406:182|397:208|397:208|404:238|404:238|386:286,1,135.000005149842,2|0,0:0|0:0,0:0:0:0:
331,375,51063,2,0,B|297:355|297:355|266:356|266:356|242:343|242:343|205:348,1,135.000005149842,2|0,0:0|0:0,0:0:0:0:
123,208,51550,1,2,0:0:0:0:
123,208,52198,54,0,P|159:175|167:150,1,58.4999973220826,2|0,0:0|0:0,0:0:0:0:
82,280,52523,2,0,P|114:298|144:298,1,58.4999973220826,2|0,0:0|0:0,0:0:0:0:
54,367,52847,2,0,L|194:352,1,128.249996575356,2|0,0:0|0:0,0:0:0:0:
195,351,53171,6,0,P|216:301|209:268,1,90,2|2,1:3|0:0,0:0:0:0:
285,94,53496,2,0,P|274:158|284:180,1,90,2|2,1:3|0:0,0:0:0:0:
283,178,53739,1,2,0:0:0:0:
283,178,53820,2,0,P|331:180|380:182,1,90,2|4,1:3|0:3,0:0:0:0:
466,279,54144,2,0,P|465:220|473:114,1,135,2|0,1:3|0:0,0:0:0:0:
473,131,54469,5,2,1:3:0:0:
281,264,54631,1,2,0:0:0:0:
331,339,54793,2,0,P|379:339|444:347,1,90,2|2,1:3|0:0,0:0:0:0:
420,343,55036,1,2,0:0:0:0:
420,343,55117,2,0,P|434:286|422:254,1,90,2|4,1:3|0:3,0:0:0:0:
239,114,55442,2,0,P|268:168|338:192,1,135,2|0,1:3|0:0,0:0:0:0:
346,189,55766,54,0,P|396:181|441:176,1,90,2|2,1:3|0:0,0:0:0:0:
311,352,56090,2,0,P|276:347|232:305,1,90,2|2,1:3|0:0,0:0:0:0:
235,312,56334,1,2,0:0:0:0:
235,312,56415,2,0,P|239:253|238:212,1,90,2|4,1:3|0:3,0:0:0:0:
14,332,56739,2,0,P|70:365|145:341,1,135,2|0,1:3|0:0,0:0:0:0:
144,342,57063,5,2,1:3:0:0:
85,274,57225,1,0,0:0:0:0:
169,156,57388,1,2,1:3:0:0:
161,241,57550,1,2,0:0:0:0:
11,236,57712,1,2,1:3:0:0:
88,189,57874,1,4,0:3:0:0:
11,161,58036,2,0,L|-2:318,1,135,0|0,1:0|0:0,0:0:0:0:
0,296,58361,6,0,L|99:309,1,90,4|2,1:2|1:2,0:0:0:0:
272,344,58685,2,0,L|184:336,1,85.4999977169037,2|2,1:3|1:2,0:0:0:0:
96,216,59009,2,0,L|192:224,1,80.9999975280763,2|2,1:3|1:2,0:0:0:0:
352,264,59334,2,0,L|248:256,1,76.5000014591217,2|2,1:3|1:2,0:0:0:0:
88,120,59658,54,0,L|167:127,1,72,4|2,1:2|1:2,0:0:0:0:
370,178,59982,2,0,L|298:171,1,67.5000025749208,2|2,1:3|1:2,0:0:0:0:
176,40,60307,2,0,L|264:48,1,62.9999980773926,2|2,1:3|1:2,0:0:0:0:
416,96,60631,2,0,L|344:88,1,58.4999973220826,2|2,1:3|1:2,0:0:0:0:
168,218,60955,5,4,1:2:0:0:
175,220,61036,1,0,1:0:0:0:
182,221,61117,1,0,1:0:0:0:
189,223,61198,1,0,1:0:0:0:
196,225,61279,1,0,1:0:0:0:
203,227,61361,1,0,1:0:0:0:
210,229,61442,1,0,1:0:0:0:
217,231,61523,1,0,1:0:0:0:
224,233,61604,1,4,1:2:0:0:
231,235,61685,1,0,1:0:0:0:
238,237,61766,1,0,1:0:0:0:
245,239,61847,1,0,1:0:0:0:
252,241,61928,1,0,1:0:0:0:
259,243,62009,1,0,1:0:0:0:
266,245,62090,1,0,1:0:0:0:
273,247,62171,1,0,1:0:0:0:
280,249,62252,6,0,L|325:242,3,29.2499986610413,4|4|4|4,1:2|1:3|1:3|1:3,0:0:0:0:
371,336,62577,2,4,L|364:308,3,29.2499986610413,4|4|4|4,1:3|1:3|1:3|1:3,1:3:0:0:
449,242,62901,2,0,L|414:251,3,29.2499986610413,4|4|4|4,1:3|1:3|1:3|1:3,0:0:0:0:
367,188,63225,1,2,1:3:0:0:
367,188,63550,5,4,1:1:0:0:
493,79,63712,2,0,L|439:72,1,53.9999983520508,2|0,0:3|0:0,0:0:0:0:
367,107,63874,2,0,L|218:88,1,107.999996704102,2|0,1:3|0:0,0:0:0:0:
222,23,64117,2,0,L|114:9,1,107.999996704102,2|0,0:3|0:0,0:0:0:0:
104,7,64361,1,6,0:3:0:0:
153,154,64523,2,0,L|206:160,2,53.9999983520508,2|0|2,1:3|0:0|0:3,0:0:0:0:
22,138,64847,5,4,0:3:0:0:
93,322,65009,2,0,P|135:301|154:275,1,53.9999983520508,2|0,0:3|0:0,0:0:0:0:
209,336,65171,2,0,P|239:266|230:193,1,107.999996704102,2|0,1:3|0:0,0:0:0:0:
320,228,65415,2,0,P|303:153|252:99,1,107.999996704102,2|0,0:3|0:0,0:0:0:0:
277,121,65658,1,6,0:3:0:0:
387,48,65820,1,2,1:3:0:0:
487,151,65982,1,2,0:3:0:0:
487,151,66063,1,0,0:0:0:0:
487,151,66144,5,4,0:3:0:0:
277,121,66307,2,0,L|223:127,1,53.9999983520508,2|0,0:3|0:0,0:0:0:0:
237,208,66469,2,0,L|129:221,1,107.999996704102,2|0,1:3|0:0,0:0:0:0:
161,298,66712,2,0,L|53:311,1,107.999996704102,2|0,0:3|0:0,0:0:0:0:
43,312,66955,1,6,0:3:0:0:
189,374,67117,2,0,L|243:367,2,53.9999983520508,2|0|2,1:3|0:0|0:3,0:0:0:0:
43,312,67442,53,4,0:3:0:0:
304,276,67604,2,0,P|350:317|356:344,1,53.9999983520508,2|0,0:3|0:0,0:0:0:0:
423,338,67766,2,0,P|438:273|408:177,2,161.999995056153,2|2|6,1:3|0:3|0:3,0:0:0:0:
232,176,68415,2,0,P|317:190|354:223,1,107.999996704102,2|2,1:3|0:3,0:0:0:0:
333,202,68658,1,0,0:0:0:0:
333,202,68739,5,4,0:3:0:0:
179,284,68901,2,0,L|172:230,1,53.9999983520508,2|0,0:3|0:0,0:0:0:0:
232,176,69063,1,2,1:3:0:0:
94,282,69225,1,0,0:0:0:0:
93,271,69307,2,0,L|80:163,1,107.999996704102,2|0,0:3|0:0,0:0:0:0:
79,153,69550,1,6,0:3:0:0:
17,322,69712,2,0,L|10:268,2,53.9999983520508,2|0|2,1:3|0:0|0:3,0:0:0:0:
255,344,70036,5,4,0:3:0:0:
172,230,70198,2,0,P|198:235|221:249,1,53.9999983520508,2|0,0:3|0:0,0:0:0:0:
280,196,70361,2,0,P|317:233|337:287,1,107.999996704102,2|0,1:3|0:0,0:0:0:0:
413,263,70604,2,0,P|415:316|395:366,1,107.999996704102,2|0,0:3|0:0,0:0:0:0:
388,374,70847,1,6,3:3:0:0:
488,244,71009,1,2,1:3:0:0:
407,106,71171,1,2,0:3:0:0:
407,106,71252,1,0,0:0:0:0:
407,106,71334,53,4,0:3:0:0:
280,196,71496,2,0,L|226:189,1,53.9999983520508,2|0,0:3|0:0,0:0:0:0:
147,177,71658,1,2,1:3:0:0:
260,112,71820,1,0,0:0:0:0:
249,110,71901,2,0,L|141:97,1,107.999996704102,2|0,0:3|0:0,0:0:0:0:
131,96,72144,1,6,0:3:0:0:
41,321,72307,6,0,P|14:253|25:232,1,62.9999980773926,2|0,1:3|0:0,0:0:0:0:
85,233,72469,2,0,P|106:255|114:285,1,62.9999980773926,2|0,0:3|0:0,0:0:0:0:
109,364,72631,5,4,0:3:0:0:
296,270,72793,2,0,P|243:273|183:303,1,107.999996704102,2|0,0:3|1:3,0:0:0:0:
486,188,73117,2,0,P|432:184|383:162,1,107.999996704102,2|0,0:3|0:0,0:0:0:0:
446,350,73442,2,0,P|443:318|430:291,1,53.9999983520508,6|0,0:3|0:0,0:0:0:0:
375,245,73604,1,2,1:3:0:0:
271,357,73766,1,2,0:3:0:0:
271,357,73847,1,0,0:0:0:0:
271,357,73928,53,4,1:1:0:0:
117,286,74090,2,0,L|110:232,1,53.9999983520508,2|0,0:3|0:0,0:0:0:0:
189,231,74252,2,0,L|176:122,1,107.999996704102,2|0,1:3|0:0,0:0:0:0:
258,146,74496,2,0,L|245:37,1,107.999996704102,2|0,0:3|0:0,0:0:0:0:
244,28,74739,1,6,0:3:0:0:
93,99,74901,2,0,L|100:153,2,53.9999983520508,2|0|2,1:3|0:0|0:3,0:0:0:0:
258,146,75225,5,4,0:3:0:0:
73,255,75388,2,0,P|139:289|161:286,1,53.9999983520508,2|0,0:3|0:0,0:0:0:0:
169,344,75550,2,0,P|254:320|286:279,1,107.999996704102,2|0,1:3|0:0,0:0:0:0:
345,326,75793,2,0,P|378:244|365:193,1,107.999996704102,2|0,0:3|0:0,0:0:0:0:
374,216,76036,1,6,0:3:0:0:
322,99,76198,1,2,1:3:0:0:
416,32,76361,1,2,0:3:0:0:
416,32,76442,1,0,0:0:0:0:
416,32,76523,5,4,0:3:0:0:
304,177,76685,2,0,L|250:184,1,53.9999983520508,2|0,0:3|0:0,0:0:0:0:
236,107,76847,2,0,L|128:119,1,107.999996704102,2|0,1:3|0:0,0:0:0:0:
144,40,77090,2,0,L|36:52,1,107.999996704102,2|0,0:3|0:0,0:0:0:0:
26,56,77334,1,6,0:3:0:0:
243,26,77496,2,0,L|297:19,2,53.9999983520508,2|0|2,1:3|0:0|0:3,0:0:0:0:
129,119,77821,53,4,0:3:0:0:
357,240,77982,2,0,P|383:179|379:155,1,53.9999983520508,2|0,0:3|0:0,0:0:0:0:
404,51,78144,2,0,P|457:118|456:221,2,161.999995056153,2|2|6,1:3|0:3|0:3,0:0:0:0:
198,215,78793,2,0,P|289:190|317:156,1,107.999996704102,2|2,1:3|0:3,0:0:0:0:
296,182,79036,1,0,0:0:0:0:
296,182,79117,5,4,0:3:0:0:
106,57,79279,2,0,L|113:111,1,53.9999983520508,2|0,0:3|0:0,0:0:0:0:
124,189,79442,1,2,1:3:0:0:
180,6,79604,1,0,0:0:0:0:
181,16,79685,2,0,L|193:124,1,107.999996704102,2|0,0:3|0:0,0:0:0:0:
194,134,79928,1,6,0:3:0:0:
265,53,80090,2,0,L|258:-1,2,53.9999983520508,2|0|2,1:3|0:0|0:3,0:0:0:0:
241,227,80414,5,4,0:3:0:0:
467,107,80577,2,0,P|411:139|392:136,1,53.9999983520508,2|0,0:3|0:0,0:0:0:0:
407,216,80739,2,0,P|331:200|285:157,1,107.999996704102,2|0,1:3|0:0,0:0:0:0:
241,227,80982,2,0,P|198:162|196:99,1,107.999996704102,2|0,0:3|0:0,0:0:0:0:
195,120,81225,1,6,0:3:0:0:
78,186,81388,1,2,1:3:0:0:
83,54,81550,1,2,0:3:0:0:
83,54,81631,1,0,0:0:0:0:
83,54,81712,53,4,0:3:0:0:
195,120,81874,2,0,L|249:113,1,53.9999983520508,2|0,0:3|0:0,0:0:0:0:
286,43,82036,2,0,L|394:31,1,107.999996704102,2|0,1:3|0:0,0:0:0:0:
382,111,82279,2,0,L|490:99,1,107.999996704102,2|0,0:3|0:0,0:0:0:0:
500,98,82523,1,6,0:3:0:0:
368,296,82685,6,0,P|347:272|337:242,1,62.9999980773926,2|0,1:3|0:0,0:0:0:0:
447,180,82847,2,0,P|436:209|416:233,1,62.9999980773926,2|0,0:3|0:0,0:0:0:0:
274,304,83009,5,4,0:3:0:0:
306,67,83171,2,0,P|295:150|272:191,1,107.999996704102,2|2,0:3|1:3,0:0:0:0:
81,331,83496,2,0,P|14:279|-9:239,1,107.999996704102,2|0,0:3|0:0,0:0:0:0:
206,49,83820,2,0,P|228:103|226:130,1,53.9999983520508,6|0,0:3|0:0,0:0:0:0:
91,240,83982,1,2,1:3:0:0:
150,105,84144,1,2,0:3:0:0:
284,171,84307,54,0,L|392:183,1,107.999996704102,4|2,1:1|0:3,0:0:0:0:
430,267,84550,1,0,0:0:0:0:
419,266,84631,2,0,L|311:254,1,107.999996704102,2|0,1:3|0:0,0:0:0:0:
268,328,84874,2,0,L|376:340,1,107.999996704102,2|0,0:3|0:0,0:0:0:0:
385,342,85117,1,6,0:3:0:0:
284,171,85279,2,0,L|338:178,2,53.9999983520508,2|0|2,1:3|0:0|0:3,0:0:0:0:
273,170,85522,1,0,0:0:0:0:
262,169,85604,6,0,P|227:210|219:281,1,107.999996704102,4|2,0:3|0:3,0:0:0:0:
147,299,85847,1,0,0:0:0:0:
138,293,85928,2,0,P|103:251|95:180,1,107.999996704102,2|0,1:3|0:0,0:0:0:0:
45,136,86171,2,0,P|72:89|136:57,1,107.999996704102,2|0,0:3|0:0,0:0:0:0:
128,59,86415,1,6,0:3:0:0:
253,92,86577,1,2,1:3:0:0:
356,13,86739,1,2,0:3:0:0:
356,13,86820,1,0,0:0:0:0:
356,13,86901,6,0,L|368:121,1,107.999996704102,4|2,0:3|0:3,0:0:0:0:
422,181,87144,1,0,0:0:0:0:
424,191,87225,2,0,L|434:281,1,53.9999983520508,2|0,1:3|0:0,0:0:0:0:
313,287,87388,1,0,0:0:0:0:
311,276,87469,2,0,L|299:168,1,107.999996704102,2|0,0:3|0:0,0:0:0:0:
298,157,87712,1,6,0:3:0:0:
488,346,87874,2,0,P|432:342|377:290,1,107.999996704102,2|2,1:3|0:3,0:0:0:0:
254,92,88198,54,0,P|200:95|156:125,1,107.999996704102,4|2,0:3|0:3,0:0:0:0:
80,144,88442,1,0,0:0:0:0:
75,153,88523,2,0,P|61:204|76:255,1,107.999996704102,2|0,1:3|0:0,0:0:0:0:
78,336,88766,1,2,0:3:0:0:
84,344,88847,2,0,P|128:372|182:374,1,107.999996704102,0|6,0:0|0:3,0:0:0:0:
285,292,89171,1,2,1:3:0:0:
236,185,89334,1,2,0:3:0:0:
236,185,89415,1,0,0:0:0:0:
236,185,89496,6,0,L|344:173,1,107.999996704102,4|2,0:3|0:3,0:0:0:0:
382,88,89739,1,0,0:0:0:0:
371,89,89820,2,0,L|263:101,1,107.999996704102,2|0,1:3|0:0,0:0:0:0:
199,56,90063,2,0,L|91:68,1,107.999996704102,2|0,0:3|0:0,0:0:0:0:
80,69,90307,1,6,0:3:0:0:
236,185,90469,2,0,L|290:178,2,53.9999983520508,2|0|2,1:3|0:0|0:3,0:0:0:0:
225,187,90712,1,0,0:0:0:0:
214,190,90794,6,0,P|179:231|171:302,1,107.999996704102,4|2,0:3|0:3,0:0:0:0:
211,356,91036,1,0,0:0:0:0:
217,349,91117,2,0,P|261:319|314:315,1,107.999996704102,2|0,1:3|0:0,0:0:0:0:
365,253,91361,2,0,P|414:272|448:314,1,107.999996704102,2|0,0:3|0:0,0:0:0:0:
450,324,91604,1,6,0:3:0:0:
512,213,91766,1,2,1:3:0:0:
415,141,91928,1,2,0:3:0:0:
415,141,92009,1,0,0:0:0:0:
415,141,92090,54,0,L|403:33,1,107.999996704102,4|2,0:3|0:3,0:0:0:0:
319,14,92334,1,0,0:0:0:0:
321,24,92415,2,0,L|331:114,1,53.9999983520508,2|0,1:3|0:0,0:0:0:0:
257,177,92577,1,0,0:0:0:0:
256,166,92658,2,0,L|244:58,1,107.999996704102,2|0,0:3|0:0,0:0:0:0:
243,47,92901,1,6,0:3:0:0:
95,103,93063,6,0,P|67:87|48:63,1,62.9999980773926,2|0,1:3|0:0,0:0:0:0:
101,1,93225,2,0,P|128:16|147:40,1,62.9999980773926,2|0,0:3|0:0,0:0:0:0:
172,117,93388,5,4,0:3:0:0:
48,356,93550,2,0,P|58:303|85:257,1,107.999996704102,2|0,0:3|1:0,0:0:0:0:
357,217,93874,2,0,P|346:164|319:118,1,107.999996704102,2|0,0:3|0:0,0:0:0:0:
135,333,94198,2,0,P|166:345|203:343,1,53.9999983520508,6|0,0:3|0:0,0:0:0:0:
273,194,94361,1,2,1:3:0:0:
181,268,94523,1,2,0:3:0:0:
334,299,94685,54,0,L|442:287,1,107.999996704102,4|2,1:1|0:3,0:0:0:0:
475,204,94928,1,0,0:0:0:0:
464,205,95009,2,0,L|356:217,1,107.999996704102,2|0,1:3|0:0,0:0:0:0:
373,135,95252,2,0,L|481:123,1,107.999996704102,2|0,0:3|0:0,0:0:0:0:
491,122,95496,1,6,0:3:0:0:
349,58,95658,2,0,L|403:51,2,53.9999983520508,2|0|2,1:3|0:3|0:3,0:0:0:0:
338,60,95901,1,0,0:0:0:0:
327,63,95983,6,0,P|276:52|222:4,1,107.999996704102,4|2,0:3|0:3,0:0:0:0:
159,42,96225,1,0,0:0:0:0:
158,52,96307,2,0,P|169:103|217:157,1,107.999996704102,2|0,1:3|0:0,0:0:0:0:
216,224,96550,2,0,P|264:244|335:235,1,107.999996704102,2|0,0:3|0:0,0:0:0:0:
329,238,96793,1,6,0:3:0:0:
258,345,96955,1,2,1:3:0:0:
130,320,97117,1,2,0:3:0:0:
130,320,97198,1,0,0:0:0:0:
130,320,97279,6,0,L|22:308,1,107.999996704102,4|2,0:3|0:3,0:0:0:0:
0,223,97523,1,0,0:0:0:0:
10,226,97604,2,0,L|63:231,1,53.9999983520508,2|0,1:3|0:0,0:0:0:0:
127,180,97766,1,0,0:0:0:0:
137,181,97847,2,0,L|245:193,1,107.999996704102,2|0,0:3|0:0,0:0:0:0:
254,195,98090,1,6,0:3:0:0:
28,38,98252,2,0,P|32:94|84:149,1,107.999996704102,2|2,1:3|0:3,0:0:0:0:
488,143,98577,54,0,P|439:118|386:122,1,107.999996704102,4|2,0:3|0:3,0:0:0:0:
312,100,98821,1,0,0:0:0:0:
304,105,98902,2,0,P|266:142|253:193,1,107.999996704102,2|0,1:3|0:0,0:0:0:0:
212,263,99145,1,2,0:3:0:0:
213,273,99226,2,0,P|237:319|282:347,1,107.999996704102,0|6,0:0|0:3,0:0:0:0:
485,307,99550,1,2,1:3:0:0:
375,229,99712,1,2,0:3:0:0:
375,229,99793,1,0,0:0:0:0:
375,229,99874,6,0,L|387:121,1,107.999996704102,4|2,0:3|0:3,0:0:0:0:
318,53,100117,1,0,0:0:0:0:
317,63,100198,2,0,L|305:171,1,107.999996704102,2|0,1:3|0:0,0:0:0:0:
225,196,100442,2,0,L|237:88,1,107.999996704102,2|0,0:3|0:0,0:0:0:0:
239,78,100685,1,6,0:3:0:0:
146,168,100847,2,0,L|139:222,2,53.9999983520508,2|0|2,1:3|0:0|0:3,0:0:0:0:
148,157,101090,1,0,0:0:0:0:
150,146,101172,6,0,P|122:106|58:75,1,107.999996704102,4|2,0:3|0:3,0:0:0:0:
6,128,101415,1,0,0:0:0:0:
13,135,101496,2,0,P|33:184|29:237,1,107.999996704102,2|0,1:3|0:0,0:0:0:0:
79,302,101739,2,0,P|54:349|10:380,1,107.999996704102,2|0,0:3|0:0,0:0:0:0:
0,384,101982,1,6,0:3:0:0:
29,237,102144,1,2,1:3:0:0:
182,267,102307,1,2,0:3:0:0:
182,267,102388,1,0,0:0:0:0:
182,267,102469,54,0,L|290:255,1,107.999996704102,4|2,0:3|0:3,0:0:0:0:
328,171,102712,1,0,0:0:0:0:
318,173,102793,2,0,L|228:183,1,53.9999983520508,2|0,1:3|0:0,0:0:0:0:
205,122,102955,1,0,0:0:0:0:
194,123,103036,2,0,L|86:135,1,107.999996704102,2|0,0:3|0:0,0:0:0:0:
76,136,103279,1,6,0:3:0:0:
133,6,103442,6,0,P|106:31|97:81,1,62.9999980773926,2|0,1:3|0:0,0:0:0:0:
0,153,103604,2,0,P|12:181|36:201,1,62.9999980773926,2|0,0:3|0:0,0:0:0:0:
185,234,103766,5,4,0:3:0:0:
125,383,103928,2,0,P|109:299|78:259,1,107.999996704102,2|2,0:3|1:3,0:0:0:0:
328,174,104252,2,0,P|304:222|300:275,1,107.999996704102,2|0,0:3|0:0,0:0:0:0:
137,121,104577,2,0,P|195:146|231:144,1,53.9999983520508,6|0,0:3|0:0,0:0:0:0:
362,14,104739,1,2,1:3:0:0:
274,78,104901,1,2,0:3:0:0:
412,108,105063,6,0,P|458:104|514:80,1,80.9999975280763,4|2,0:1|0:0,0:0:0:0:
448,346,105388,2,0,L|432:203,1,121.499996292114,2|0,0:2|0:0,0:0:0:0:
432,213,105712,2,0,P|393:200|353:197,1,80.9999975280763,0|0,0:0|0:0,0:0:0:0:
215,245,106036,1,2,1:2:0:0:
309,300,106198,1,2,0:0:0:0:
253,148,106361,6,0,L|126:134,1,121.499996292114,4|0,0:3|0:0,0:0:0:0:
120,134,106685,2,0,P|107:95|104:55,1,80.9999975280763,0|2,1:0|0:0,0:0:0:0:
111,217,107009,1,2,0:0:0:0:
102,225,107090,1,2,0:0:0:0:
92,232,107171,1,4,0:3:0:0:
81,237,107252,1,0,0:0:0:0:
69,241,107334,2,0,P|33:222|2:195,1,80.9999975280763,0|0,1:3|0:0,0:0:0:0:
188,257,107658,6,0,L|198:341,1,80.9999975280763,4|0,0:3|0:0,0:0:0:0:
383,286,107982,2,0,L|392:205,1,80.9999975280763,0|2,1:0|0:0,0:0:0:0:
205,155,108307,1,2,0:0:0:0:
210,165,108388,1,2,0:0:0:0:
217,175,108469,1,4,0:3:0:0:
226,184,108550,1,0,0:0:0:0:
236,191,108632,2,0,P|276:185|313:171,1,80.9999975280763,0|0,1:0|0:0,0:0:0:0:
495,47,108955,54,0,L|414:37,1,80.9999975280763,4|0,0:3|0:0,0:0:0:0:
257,15,109279,1,0,1:0:0:0:
328,79,109442,1,2,0:0:0:0:
155,105,109604,1,2,0:0:0:0:
143,105,109685,1,2,0:0:0:0:
131,104,109766,1,4,0:3:0:0:
119,101,109847,1,0,0:0:0:0:
108,96,109929,2,0,P|112:54|143:11,1,80.9999975280763,0|0,1:0|0:0,0:0:0:0:
120,220,110252,6,0,P|81:237|28:232,1,80.9999975280763,4|2,0:3|0:0,0:0:0:0:
224,148,110577,2,0,P|257:172|286:260,1,121.499996292114,2|0,1:2|0:0,0:0:0:0:
283,260,110901,1,0,0:0:0:0:
380,214,111063,1,4,0:3:0:0:
403,378,111225,2,0,P|408:338|425:301,1,80.9999975280763,2|2,1:2|0:0,0:0:0:0:
512,230,111550,6,0,L|384:215,1,121.499996292114,4|0,0:3|0:0,0:0:0:0:
380,214,111874,1,2,1:2:0:0:
473,116,112036,1,2,0:0:0:0:
420,4,112198,1,2,0:0:0:0:
408,4,112279,1,2,0:0:0:0:
396,5,112360,1,4,0:3:0:0:
384,8,112441,1,0,0:0:0:0:
373,13,112523,2,0,P|347:46|340:99,1,80.9999975280763,0|0,1:0|0:0,0:0:0:0:
263,220,112847,54,0,P|254:180|229:149,1,80.9999975280763,4|0,0:3|0:0,0:0:0:0:
94,109,113171,1,0,1:0:0:0:
128,232,113334,1,2,0:0:0:0:
9,291,113496,1,2,0:0:0:0:
4,279,113577,1,2,0:0:0:0:
1,268,113658,1,4,0:3:0:0:
0,255,113739,1,0,0:0:0:0:
1,243,113821,2,0,P|23:207|70:183,1,80.9999975280763,0|0,1:3|0:0,0:0:0:0:
219,297,114144,6,0,L|319:308,1,80.9999975280763,4|0,0:3|0:0,0:0:0:0:
261,96,114469,2,0,L|180:104,1,80.9999975280763,0|2,1:0|0:0,0:0:0:0:
334,229,114793,1,2,0:0:0:0:
344,221,114874,1,2,0:0:0:0:
352,213,114955,1,4,0:3:0:0:
359,202,115036,1,0,0:0:0:0:
364,191,115118,2,0,P|362:149|333:104,1,80.9999975280763,0|0,1:0|0:0,0:0:0:0:
83,68,115442,6,0,L|75:173,1,72,4|0,1:0|0:0,0:0:0:0:
224,225,115766,2,0,L|216:330,1,72,2|0,1:3|0:0,0:0:0:0:
10,194,116090,2,0,L|5:253,1,36,2|0,1:3|0:0,0:0:0:0:
55,298,116252,1,4,0:3:0:0:
158,168,116415,2,0,P|187:148|223:141,1,72,2|0,1:3|0:0,0:0:0:0:
367,273,116739,54,0,P|334:258|310:231,1,72,2|0,1:3|0:0,0:0:0:0:
357,40,117063,2,0,P|360:75|349:109,1,72,2|0,1:3|0:0,0:0:0:0:
168,17,117388,2,0,P|185:15|203:19,1,36,2|0,1:3|0:0,0:0:0:0:
277,65,117550,1,6,0:3:0:0:
126,139,117712,2,0,P|105:92|112:53,1,72,2|0,1:3|0:0,0:0:0:0:
271,147,118036,6,0,L|263:220,1,72,2|0,1:3|0:0,0:0:0:0:
49,190,118361,2,0,L|41:261,1,72,2|0,1:3|0:0,0:0:0:0:
202,303,118685,2,0,L|199:339,1,36,2|0,1:3|0:0,0:0:0:0:
116,306,118847,1,6,0:3:0:0:
285,338,119009,2,0,P|342:319|368:289,1,72,2|0,1:3|0:0,0:0:0:0:
410,97,119334,6,0,P|351:84|313:97,1,72,2|0,1:3|0:0,0:0:0:0:
263,186,119658,2,0,P|282:242|312:269,1,72,2|0,1:3|0:0,0:0:0:0:
482,194,119982,2,0,L|420:186,1,36,2|0,1:3|0:0,0:0:0:0:
362,181,120144,1,6,0:3:0:0:
454,275,120307,1,2,1:3:0:0:
454,275,120469,1,0,0:0:0:0:
297,340,120631,54,0,L|287:242,1,90,4|2,1:2|1:2,0:0:0:0:
170,289,120955,2,0,L|177:191,1,85.4999977169037,2|2,1:3|1:2,0:0:0:0:
70,222,121279,2,0,L|94:127,1,80.9999975280763,2|2,1:3|1:3,0:0:0:0:
0,136,121604,2,0,L|40:47,1,76.5000014591217,2|2,1:3|1:2,0:0:0:0:
247,22,121928,6,0,L|174:37,1,72,4|2,1:2|1:2,0:0:0:0:
314,100,122252,2,0,L|244:127,1,67.5000025749208,2|2,1:3|1:2,0:0:0:0:
388,160,122577,2,0,L|324:199,1,62.9999980773926,2|2,1:3|1:3,0:0:0:0:
471,200,122901,2,0,L|415:249,1,58.4999973220826,2|2,1:3|1:2,0:0:0:0:
255,353,123225,6,0,L|208:346,3,29.2499986610413,4|0|0|0,1:2|1:0|1:0|1:0,0:0:0:0:
228,265,123550,2,0,L|181:258,3,29.2499986610413,0|0|0|0,1:0|1:0|1:0|1:0,0:0:0:0:
305,197,123874,2,0,L|333:192,3,29.2499986610413,4|0|0|0,1:2|1:0|1:0|1:0,0:0:0:0:
332,109,124199,2,0,L|360:104,3,29.2499986610413,0|0|0|0,1:2|1:3|1:3|1:3,0:0:0:0:
250,60,124523,53,4,1:2:0:0:
240,58,124604,1,4,1:3:0:0:
230,56,124685,1,4,1:3:0:0:
221,55,124766,1,4,1:3:0:0:
211,53,124847,1,4,1:3:0:0:
201,51,124928,1,4,1:3:0:0:
192,50,125009,1,4,1:3:0:0:
182,48,125090,1,4,1:3:0:0:
173,47,125171,1,4,1:3:0:0:
163,45,125252,1,4,1:3:0:0:
153,43,125333,1,4,1:3:0:0:
144,42,125414,1,4,1:3:0:0:
134,40,125495,1,2,1:3:0:0:
