osu file format v14

[General]
AudioFilename: audio.mp3
AudioLeadIn: 0
PreviewTime: -1
Countdown: 1
SampleSet: Soft
StackLeniency: 0.7
Mode: 3
LetterboxInBreaks: 0
SpecialStyle: 1
WidescreenStoryboard: 1

[Editor]
DistanceSpacing: 0.5
BeatDivisor: 4
GridSize: 4
TimelineZoom: 1

[Metadata]
Title:Spring Signal
TitleUnicode:Spring Signal
Artist:yuki.
ArtistUnicode:yuki.
Creator:HybridLiam
Version:Easy
Source:
Tags:Relaxing Short LNs Electronic
BeatmapID:1208150
BeatmapSetID:569768

[Difficulty]
HPDrainRate:7
CircleSize:5
OverallDifficulty:7
ApproachRate:5
SliderMultiplier:1.4
SliderTickRate:1

[Events]
//Background and Video events
0,0,"Background.jpg",0,0
//Break Periods
//Storyboard Layer 0 (Background)
//Storyboard Layer 1 (Fail)
//Storyboard Layer 2 (Pass)
//Storyboard Layer 3 (Foreground)
//Storyboard Layer 4 (Overlay)
//Storyboard Sound Samples

[TimingPoints]
1280,324.324324324324,4,2,0,15,1,0
63550,-100,4,2,0,15,0,1
84225,-100,4,2,0,15,0,0
84307,-100,4,2,0,15,0,1
105063,-100,4,2,0,15,0,0

[HitObjects]
51,192,1280,5,0,0:0:0:0:
256,192,1280,1,0,0:0:0:0:
460,192,1442,128,0,1604:0:0:0:0:
358,192,1604,128,0,1766:0:0:0:0:
256,192,1766,128,0,1928:0:0:0:0:
51,192,2090,128,0,2252:0:0:0:0:
153,192,2252,128,0,2415:0:0:0:0:
256,192,2415,128,0,2577:0:0:0:0:
51,192,2577,1,0,0:0:0:0:
153,192,2577,1,0,0:0:0:0:
460,192,2901,1,0,0:0:0:0:
358,192,2901,1,0,0:0:0:0:
51,192,3388,1,0,0:0:0:0:
153,192,3388,1,0,0:0:0:0:
460,192,3550,1,0,0:0:0:0:
358,192,3550,1,0,0:0:0:0:
460,192,3874,1,0,0:0:0:0:
153,192,3874,1,0,0:0:0:0:
51,192,4198,1,0,0:0:0:0:
358,192,4198,1,0,0:0:0:0:
460,192,4685,1,0,0:0:0:0:
153,192,4685,1,0,0:0:0:0:
51,192,4847,1,0,0:0:0:0:
358,192,4847,1,0,0:0:0:0:
51,192,5171,1,0,0:0:0:0:
153,192,5171,1,0,0:0:0:0:
460,192,5496,1,0,0:0:0:0:
358,192,5496,1,0,0:0:0:0:
51,192,5982,1,0,0:0:0:0:
153,192,5982,1,0,0:0:0:0:
460,192,6144,1,0,0:0:0:0:
358,192,6144,1,0,0:0:0:0:
51,192,6469,1,0,0:0:0:0:
256,192,6469,1,0,0:0:0:0:
460,192,6631,128,0,6793:0:0:0:0:
358,192,6793,128,0,6955:0:0:0:0:
256,192,6955,128,0,7117:0:0:0:0:
51,192,7279,128,0,7442:0:0:0:0:
153,192,7442,128,0,7604:0:0:0:0:
256,192,7604,128,0,7766:0:0:0:0:
51,192,7766,1,0,0:0:0:0:
460,192,7766,1,0,0:0:0:0:
153,192,8090,1,0,0:0:0:0:
358,192,8090,1,0,0:0:0:0:
51,192,8577,1,0,0:0:0:0:
460,192,8577,1,0,0:0:0:0:
153,192,8739,1,0,0:0:0:0:
358,192,8739,1,0,0:0:0:0:
460,192,9063,1,0,0:0:0:0:
256,192,9063,1,0,0:0:0:0:
153,192,9388,1,0,0:0:0:0:
358,192,9388,1,0,0:0:0:0:
460,192,9874,1,0,0:0:0:0:
256,192,9874,1,0,0:0:0:0:
358,192,10036,1,0,0:0:0:0:
153,192,10036,1,0,0:0:0:0:
51,192,10361,1,0,0:0:0:0:
256,192,10361,1,0,0:0:0:0:
153,192,10685,1,0,0:0:0:0:
358,192,10685,1,0,0:0:0:0:
51,192,11171,1,0,0:0:0:0:
256,192,11171,1,0,0:0:0:0:
153,192,11334,1,0,0:0:0:0:
358,192,11334,1,0,0:0:0:0:
460,192,11658,1,0,0:0:0:0:
51,192,11658,1,0,0:0:0:0:
358,192,11820,128,0,11982:0:0:0:0:
256,192,11982,128,0,12144:0:0:0:0:
153,192,12144,128,0,12307:0:0:0:0:
153,192,12469,128,0,12631:0:0:0:0:
256,192,12631,128,0,12793:0:0:0:0:
358,192,12793,128,0,12955:0:0:0:0:
51,192,12955,1,0,0:0:0:0:
153,192,13279,1,0,0:0:0:0:
256,192,13279,1,0,0:0:0:0:
460,192,13604,1,0,0:0:0:0:
358,192,13766,1,0,0:0:0:0:
256,192,13928,1,0,0:0:0:0:
153,192,13928,1,0,0:0:0:0:
460,192,14252,1,0,0:0:0:0:
256,192,14577,1,0,0:0:0:0:
358,192,14577,1,0,0:0:0:0:
51,192,14901,1,0,0:0:0:0:
153,192,15063,1,0,0:0:0:0:
256,192,15225,1,0,0:0:0:0:
358,192,15225,1,0,0:0:0:0:
51,192,15550,1,0,0:0:0:0:
153,192,15874,1,0,0:0:0:0:
256,192,15874,1,0,0:0:0:0:
460,192,16198,1,0,0:0:0:0:
358,192,16361,1,0,0:0:0:0:
256,192,16523,1,0,0:0:0:0:
153,192,16523,1,0,0:0:0:0:
460,192,16847,1,0,0:0:0:0:
358,192,17009,1,0,0:0:0:0:
51,192,17171,1,0,0:0:0:0:
153,192,17334,1,0,0:0:0:0:
460,192,17496,1,0,0:0:0:0:
358,192,17658,1,0,0:0:0:0:
51,192,17820,1,0,0:0:0:0:
153,192,17982,1,0,0:0:0:0:
358,192,18144,1,0,0:0:0:0:
460,192,18307,1,0,0:0:0:0:
153,192,18469,1,0,0:0:0:0:
51,192,18631,1,0,0:0:0:0:
358,192,18793,1,0,0:0:0:0:
460,192,18955,1,0,0:0:0:0:
153,192,19117,1,0,0:0:0:0:
51,192,19279,1,0,0:0:0:0:
256,192,19442,1,0,0:0:0:0:
460,192,19604,1,0,0:0:0:0:
256,192,19766,1,0,0:0:0:0:
51,192,19928,1,0,0:0:0:0:
256,192,20090,1,0,0:0:0:0:
460,192,20252,1,0,0:0:0:0:
256,192,20415,1,0,0:0:0:0:
51,192,20577,1,0,0:0:0:0:
153,192,20739,128,0,21712:0:0:0:0:
358,192,20739,128,0,21712:0:0:0:0:
51,192,21712,1,0,0:0:0:0:
460,192,21712,1,0,0:0:0:0:
51,192,22036,128,0,23334:0:0:0:0:
460,192,22036,1,0,0:0:0:0:
256,192,23334,128,0,24631:0:0:0:0:
358,192,24631,128,0,25928:0:0:0:0:
51,192,25928,128,0,27225:0:0:0:0:
153,192,27225,128,0,28523:0:0:0:0:
256,192,28523,128,0,29171:0:0:0:0:
358,192,29171,128,0,29820:0:0:0:0:
460,192,29820,128,0,31117:0:0:0:0:
51,192,31117,128,0,32415:0:0:0:0:
153,192,32415,128,0,33712:0:0:0:0:
256,192,33712,128,0,35009:0:0:0:0:
358,192,35009,128,0,36307:0:0:0:0:
51,192,36307,128,0,37604:0:0:0:0:
153,192,37604,128,0,38901:0:0:0:0:
256,192,38901,128,0,40198:0:0:0:0:
460,192,40198,128,0,41496:0:0:0:0:
358,192,41496,128,0,42793:0:0:0:0:
460,192,42793,1,0,0:0:0:0:
153,192,42793,128,0,43279:0:0:0:0:
256,192,43279,128,0,43766:0:0:0:0:
51,192,43766,128,0,44090:0:0:0:0:
153,192,44090,128,0,44577:0:0:0:0:
256,192,44577,128,0,45063:0:0:0:0:
358,192,45063,128,0,45388:0:0:0:0:
51,192,45388,128,0,45874:0:0:0:0:
256,192,45874,128,0,46361:0:0:0:0:
460,192,46361,128,0,46685:0:0:0:0:
358,192,46685,128,0,47009:0:0:0:0:
256,192,47009,128,0,47334:0:0:0:0:
153,192,47334,128,0,47658:0:0:0:0:
51,192,47658,128,0,47982:0:0:0:0:
153,192,47982,128,0,48469:0:0:0:0:
256,192,48469,128,0,48955:0:0:0:0:
51,192,48955,128,0,49279:0:0:0:0:
153,192,49279,128,0,49766:0:0:0:0:
256,192,49766,128,0,50252:0:0:0:0:
358,192,50252,128,0,50577:0:0:0:0:
51,192,50577,128,0,51063:0:0:0:0:
256,192,51063,128,0,51550:0:0:0:0:
460,192,51550,128,0,51874:0:0:0:0:
256,192,52198,128,0,52523:0:0:0:0:
153,192,52523,128,0,52847:0:0:0:0:
51,192,52847,128,0,53171:0:0:0:0:
358,192,53171,1,0,0:0:0:0:
460,192,53171,1,0,0:0:0:0:
153,192,53496,1,0,0:0:0:0:
51,192,53496,1,0,0:0:0:0:
358,192,53820,1,0,0:0:0:0:
460,192,53820,1,0,0:0:0:0:
256,192,53982,1,0,0:0:0:0:
153,192,54144,1,0,0:0:0:0:
51,192,54144,1,0,0:0:0:0:
460,192,54469,1,0,0:0:0:0:
153,192,54469,1,0,0:0:0:0:
51,192,54793,1,0,0:0:0:0:
358,192,54793,1,0,0:0:0:0:
460,192,55117,1,0,0:0:0:0:
153,192,55117,1,0,0:0:0:0:
256,192,55279,1,0,0:0:0:0:
51,192,55442,1,0,0:0:0:0:
358,192,55442,1,0,0:0:0:0:
153,192,55766,1,0,0:0:0:0:
51,192,55766,1,0,0:0:0:0:
460,192,56090,1,0,0:0:0:0:
358,192,56090,1,0,0:0:0:0:
153,192,56415,1,0,0:0:0:0:
51,192,56415,1,0,0:0:0:0:
256,192,56577,1,0,0:0:0:0:
358,192,56739,1,0,0:0:0:0:
460,192,56739,1,0,0:0:0:0:
153,192,57063,1,0,0:0:0:0:
460,192,57063,1,0,0:0:0:0:
358,192,57388,1,0,0:0:0:0:
51,192,57388,1,0,0:0:0:0:
153,192,57712,1,0,0:0:0:0:
460,192,57712,1,0,0:0:0:0:
256,192,57874,1,0,0:0:0:0:
358,192,58036,1,0,0:0:0:0:
51,192,58036,1,0,0:0:0:0:
256,192,58361,1,0,0:0:0:0:
358,192,58523,1,0,0:0:0:0:
51,192,58685,1,0,0:0:0:0:
153,192,58847,1,0,0:0:0:0:
256,192,59009,1,0,0:0:0:0:
358,192,59171,1,0,0:0:0:0:
51,192,59334,1,0,0:0:0:0:
153,192,59496,1,0,0:0:0:0:
256,192,59658,1,0,0:0:0:0:
153,192,59820,1,0,0:0:0:0:
460,192,59982,1,0,0:0:0:0:
358,192,60144,1,0,0:0:0:0:
256,192,60307,1,0,0:0:0:0:
153,192,60469,1,0,0:0:0:0:
460,192,60631,1,0,0:0:0:0:
358,192,60793,1,0,0:0:0:0:
256,192,60955,1,0,0:0:0:0:
51,192,61117,1,0,0:0:0:0:
256,192,61279,1,0,0:0:0:0:
460,192,61442,1,0,0:0:0:0:
256,192,61604,1,0,0:0:0:0:
51,192,61766,1,0,0:0:0:0:
256,192,61928,1,0,0:0:0:0:
460,192,62090,1,0,0:0:0:0:
153,192,62252,128,0,63225:0:0:0:0:
358,192,62252,128,0,63225:0:0:0:0:
460,192,63225,1,0,0:0:0:0:
51,192,63225,1,0,0:0:0:0:
51,192,63550,1,0,0:0:0:0:
460,192,63550,1,0,0:0:0:0:
358,192,63712,1,0,0:0:0:0:
256,192,63874,1,0,0:0:0:0:
153,192,64117,1,0,0:0:0:0:
460,192,64198,1,0,0:0:0:0:
51,192,64361,1,0,0:0:0:0:
256,192,64523,1,0,0:0:0:0:
460,192,64685,1,0,0:0:0:0:
51,192,64847,1,0,0:0:0:0:
153,192,65009,1,0,0:0:0:0:
256,192,65171,1,0,0:0:0:0:
358,192,65334,1,0,0:0:0:0:
51,192,65415,1,0,0:0:0:0:
460,192,65577,1,0,0:0:0:0:
51,192,65658,1,0,0:0:0:0:
358,192,65820,1,0,0:0:0:0:
256,192,65982,1,0,0:0:0:0:
51,192,66144,1,0,0:0:0:0:
358,192,66307,1,0,0:0:0:0:
256,192,66469,1,0,0:0:0:0:
153,192,66712,1,0,0:0:0:0:
460,192,66793,1,0,0:0:0:0:
51,192,66955,1,0,0:0:0:0:
256,192,67117,1,0,0:0:0:0:
460,192,67279,1,0,0:0:0:0:
153,192,67442,1,0,0:0:0:0:
358,192,67604,1,0,0:0:0:0:
51,192,67766,1,0,0:0:0:0:
256,192,68009,1,0,0:0:0:0:
460,192,68252,1,0,0:0:0:0:
256,192,68415,1,0,0:0:0:0:
153,192,68577,1,0,0:0:0:0:
51,192,68739,1,0,0:0:0:0:
358,192,68901,1,0,0:0:0:0:
256,192,69063,1,0,0:0:0:0:
153,192,69307,1,0,0:0:0:0:
460,192,69388,1,0,0:0:0:0:
51,192,69550,1,0,0:0:0:0:
256,192,69712,1,0,0:0:0:0:
460,192,69874,1,0,0:0:0:0:
51,192,70036,1,0,0:0:0:0:
153,192,70198,1,0,0:0:0:0:
256,192,70361,1,0,0:0:0:0:
358,192,70523,1,0,0:0:0:0:
51,192,70604,1,0,0:0:0:0:
460,192,70766,1,0,0:0:0:0:
51,192,70847,1,0,0:0:0:0:
358,192,71009,1,0,0:0:0:0:
256,192,71171,1,0,0:0:0:0:
51,192,71334,1,0,0:0:0:0:
460,192,71334,1,0,0:0:0:0:
358,192,71496,1,0,0:0:0:0:
256,192,71658,1,0,0:0:0:0:
153,192,71901,1,0,0:0:0:0:
460,192,71982,1,0,0:0:0:0:
51,192,72144,1,0,0:0:0:0:
460,192,72307,1,0,0:0:0:0:
256,192,72469,1,0,0:0:0:0:
153,192,72631,1,0,0:0:0:0:
358,192,72793,1,0,0:0:0:0:
51,192,72955,1,0,0:0:0:0:
256,192,73117,1,0,0:0:0:0:
460,192,73442,1,0,0:0:0:0:
358,192,73604,1,0,0:0:0:0:
256,192,73766,1,0,0:0:0:0:
51,192,73928,1,0,0:0:0:0:
460,192,73928,1,0,0:0:0:0:
358,192,74090,1,0,0:0:0:0:
256,192,74252,1,0,0:0:0:0:
153,192,74496,1,0,0:0:0:0:
460,192,74577,1,0,0:0:0:0:
51,192,74739,1,0,0:0:0:0:
256,192,74901,1,0,0:0:0:0:
460,192,75063,1,0,0:0:0:0:
51,192,75225,1,0,0:0:0:0:
153,192,75388,1,0,0:0:0:0:
256,192,75550,1,0,0:0:0:0:
358,192,75712,1,0,0:0:0:0:
51,192,75793,1,0,0:0:0:0:
460,192,75955,1,0,0:0:0:0:
51,192,76036,1,0,0:0:0:0:
358,192,76198,1,0,0:0:0:0:
256,192,76361,1,0,0:0:0:0:
51,192,76523,1,0,0:0:0:0:
358,192,76685,1,0,0:0:0:0:
256,192,76847,1,0,0:0:0:0:
153,192,77090,1,0,0:0:0:0:
460,192,77171,1,0,0:0:0:0:
51,192,77334,1,0,0:0:0:0:
256,192,77496,1,0,0:0:0:0:
460,192,77658,1,0,0:0:0:0:
153,192,77820,1,0,0:0:0:0:
358,192,77982,1,0,0:0:0:0:
51,192,78144,1,0,0:0:0:0:
256,192,78388,1,0,0:0:0:0:
460,192,78631,1,0,0:0:0:0:
256,192,78793,1,0,0:0:0:0:
153,192,78955,1,0,0:0:0:0:
51,192,79117,1,0,0:0:0:0:
358,192,79279,1,0,0:0:0:0:
256,192,79442,1,0,0:0:0:0:
153,192,79685,1,0,0:0:0:0:
460,192,79766,1,0,0:0:0:0:
51,192,79928,1,0,0:0:0:0:
256,192,80090,1,0,0:0:0:0:
460,192,80252,1,0,0:0:0:0:
51,192,80415,1,0,0:0:0:0:
153,192,80577,1,0,0:0:0:0:
256,192,80739,1,0,0:0:0:0:
358,192,80901,1,0,0:0:0:0:
51,192,80982,1,0,0:0:0:0:
460,192,81144,1,0,0:0:0:0:
51,192,81225,1,0,0:0:0:0:
358,192,81388,1,0,0:0:0:0:
256,192,81550,1,0,0:0:0:0:
51,192,81712,1,0,0:0:0:0:
460,192,81712,1,0,0:0:0:0:
358,192,81874,1,0,0:0:0:0:
256,192,82036,1,0,0:0:0:0:
153,192,82279,1,0,0:0:0:0:
460,192,82361,1,0,0:0:0:0:
51,192,82523,1,0,0:0:0:0:
460,192,82685,1,0,0:0:0:0:
256,192,82847,1,0,0:0:0:0:
153,192,83009,1,0,0:0:0:0:
358,192,83171,1,0,0:0:0:0:
51,192,83334,1,0,0:0:0:0:
256,192,83496,1,0,0:0:0:0:
460,192,83820,1,0,0:0:0:0:
358,192,83982,1,0,0:0:0:0:
256,192,84144,1,0,0:0:0:0:
460,192,84307,1,0,0:0:0:0:
153,192,84307,128,0,84793:0:0:0:0:
358,192,84631,1,0,0:0:0:0:
256,192,84793,128,0,85279:0:0:0:0:
460,192,85117,1,0,0:0:0:0:
358,192,85279,1,0,0:0:0:0:
51,192,85279,128,0,85604:0:0:0:0:
358,192,85604,1,0,0:0:0:0:
153,192,85604,128,0,86090:0:0:0:0:
460,192,85928,1,0,0:0:0:0:
256,192,86090,128,0,86577:0:0:0:0:
51,192,86415,1,0,0:0:0:0:
460,192,86577,1,0,0:0:0:0:
358,192,86577,128,0,86901:0:0:0:0:
51,192,86901,128,0,87388:0:0:0:0:
256,192,86901,1,0,0:0:0:0:
358,192,87225,1,0,0:0:0:0:
153,192,87388,128,0,87874:0:0:0:0:
256,192,87712,1,0,0:0:0:0:
460,192,87874,128,0,88198:0:0:0:0:
358,192,87874,1,0,0:0:0:0:
358,192,88198,128,0,88523:0:0:0:0:
51,192,88198,1,0,0:0:0:0:
256,192,88523,128,0,88847:0:0:0:0:
153,192,88523,1,0,0:0:0:0:
153,192,88847,128,0,89171:0:0:0:0:
460,192,89009,1,0,0:0:0:0:
51,192,89171,128,0,89496:0:0:0:0:
358,192,89171,1,0,0:0:0:0:
460,192,89496,1,0,0:0:0:0:
153,192,89496,128,0,89982:0:0:0:0:
358,192,89820,1,0,0:0:0:0:
256,192,89982,128,0,90469:0:0:0:0:
460,192,90307,1,0,0:0:0:0:
358,192,90469,1,0,0:0:0:0:
51,192,90469,128,0,90793:0:0:0:0:
358,192,90793,1,0,0:0:0:0:
153,192,90793,128,0,91279:0:0:0:0:
460,192,91117,1,0,0:0:0:0:
256,192,91279,128,0,91766:0:0:0:0:
51,192,91604,1,0,0:0:0:0:
460,192,91766,1,0,0:0:0:0:
358,192,91766,128,0,92090:0:0:0:0:
51,192,92090,128,0,92577:0:0:0:0:
256,192,92090,1,0,0:0:0:0:
358,192,92415,1,0,0:0:0:0:
153,192,92577,128,0,93063:0:0:0:0:
256,192,92901,1,0,0:0:0:0:
460,192,93063,128,0,93388:0:0:0:0:
358,192,93063,1,0,0:0:0:0:
51,192,93388,1,0,0:0:0:0:
256,192,93712,128,0,94036:0:0:0:0:
153,192,93712,1,0,0:0:0:0:
153,192,94036,128,0,94361:0:0:0:0:
460,192,94198,1,0,0:0:0:0:
51,192,94361,128,0,94685:0:0:0:0:
358,192,94361,1,0,0:0:0:0:
153,192,94685,128,0,95171:0:0:0:0:
460,192,94685,1,0,0:0:0:0:
358,192,95009,1,0,0:0:0:0:
256,192,95171,128,0,95658:0:0:0:0:
460,192,95496,1,0,0:0:0:0:
51,192,95658,128,0,95982:0:0:0:0:
358,192,95658,1,0,0:0:0:0:
153,192,95982,128,0,96469:0:0:0:0:
358,192,95982,1,0,0:0:0:0:
460,192,96307,1,0,0:0:0:0:
256,192,96469,128,0,96955:0:0:0:0:
51,192,96793,1,0,0:0:0:0:
358,192,96955,128,0,97279:0:0:0:0:
460,192,96955,1,0,0:0:0:0:
256,192,97279,1,0,0:0:0:0:
51,192,97279,128,0,97766:0:0:0:0:
358,192,97604,1,0,0:0:0:0:
153,192,97766,128,0,98252:0:0:0:0:
256,192,98090,1,0,0:0:0:0:
358,192,98252,1,0,0:0:0:0:
460,192,98252,128,0,98577:0:0:0:0:
51,192,98577,1,0,0:0:0:0:
358,192,98577,128,0,98901:0:0:0:0:
153,192,98901,1,0,0:0:0:0:
256,192,98901,128,0,99225:0:0:0:0:
153,192,99225,128,0,99550:0:0:0:0:
460,192,99388,1,0,0:0:0:0:
358,192,99550,1,0,0:0:0:0:
51,192,99550,128,0,99874:0:0:0:0:
460,192,99874,1,0,0:0:0:0:
153,192,99874,128,0,100361:0:0:0:0:
358,192,100198,1,0,0:0:0:0:
256,192,100361,128,0,100847:0:0:0:0:
460,192,100685,1,0,0:0:0:0:
358,192,100847,1,0,0:0:0:0:
51,192,100847,128,0,101171:0:0:0:0:
358,192,101171,1,0,0:0:0:0:
153,192,101171,128,0,101658:0:0:0:0:
460,192,101496,1,0,0:0:0:0:
256,192,101658,128,0,102144:0:0:0:0:
51,192,101982,1,0,0:0:0:0:
460,192,102144,1,0,0:0:0:0:
358,192,102144,128,0,102469:0:0:0:0:
51,192,102469,128,0,102955:0:0:0:0:
256,192,102469,1,0,0:0:0:0:
358,192,102793,1,0,0:0:0:0:
153,192,102955,128,0,103442:0:0:0:0:
256,192,103279,1,0,0:0:0:0:
460,192,103442,128,0,103766:0:0:0:0:
358,192,103442,1,0,0:0:0:0:
51,192,103766,1,0,0:0:0:0:
256,192,104090,128,0,104415:0:0:0:0:
153,192,104090,1,0,0:0:0:0:
153,192,104415,128,0,104739:0:0:0:0:
460,192,104577,1,0,0:0:0:0:
51,192,104739,128,0,105063:0:0:0:0:
358,192,104739,1,0,0:0:0:0:
256,192,105063,1,0,0:0:0:0:
460,192,105225,128,0,105388:0:0:0:0:
358,192,105388,128,0,105550:0:0:0:0:
256,192,105550,128,0,105712:0:0:0:0:
153,192,105874,128,0,106036:0:0:0:0:
256,192,106036,128,0,106198:0:0:0:0:
358,192,106198,128,0,106361:0:0:0:0:
51,192,106361,1,0,0:0:0:0:
153,192,106361,1,0,0:0:0:0:
256,192,106685,1,0,0:0:0:0:
358,192,106685,1,0,0:0:0:0:
51,192,107171,1,0,0:0:0:0:
256,192,107171,1,0,0:0:0:0:
153,192,107334,1,0,0:0:0:0:
358,192,107334,1,0,0:0:0:0:
358,192,107658,1,0,0:0:0:0:
460,192,107658,1,0,0:0:0:0:
256,192,107982,1,0,0:0:0:0:
153,192,107982,1,0,0:0:0:0:
256,192,108469,1,0,0:0:0:0:
460,192,108469,1,0,0:0:0:0:
153,192,108631,1,0,0:0:0:0:
358,192,108631,1,0,0:0:0:0:
153,192,108955,1,0,0:0:0:0:
51,192,108955,1,0,0:0:0:0:
256,192,109279,1,0,0:0:0:0:
358,192,109279,1,0,0:0:0:0:
51,192,109766,1,0,0:0:0:0:
256,192,109766,1,0,0:0:0:0:
153,192,109928,1,0,0:0:0:0:
358,192,109928,1,0,0:0:0:0:
256,192,110252,1,0,0:0:0:0:
153,192,110252,1,0,0:0:0:0:
460,192,110415,128,0,110577:0:0:0:0:
358,192,110577,128,0,110739:0:0:0:0:
256,192,110739,128,0,110901:0:0:0:0:
153,192,111063,128,0,111225:0:0:0:0:
256,192,111225,128,0,111388:0:0:0:0:
358,192,111388,128,0,111550:0:0:0:0:
153,192,111550,1,0,0:0:0:0:
51,192,111550,1,0,0:0:0:0:
256,192,111874,1,0,0:0:0:0:
358,192,111874,1,0,0:0:0:0:
51,192,112361,1,0,0:0:0:0:
256,192,112361,1,0,0:0:0:0:
153,192,112523,1,0,0:0:0:0:
358,192,112523,1,0,0:0:0:0:
358,192,112847,1,0,0:0:0:0:
460,192,112847,1,0,0:0:0:0:
256,192,113171,1,0,0:0:0:0:
153,192,113171,1,0,0:0:0:0:
256,192,113658,1,0,0:0:0:0:
460,192,113658,1,0,0:0:0:0:
153,192,113820,1,0,0:0:0:0:
358,192,113820,1,0,0:0:0:0:
153,192,114144,1,0,0:0:0:0:
51,192,114144,1,0,0:0:0:0:
256,192,114469,1,0,0:0:0:0:
358,192,114469,1,0,0:0:0:0:
51,192,114955,1,0,0:0:0:0:
256,192,114955,1,0,0:0:0:0:
153,192,115117,1,0,0:0:0:0:
358,192,115117,1,0,0:0:0:0:
460,192,115442,1,0,0:0:0:0:
51,192,115442,1,0,0:0:0:0:
358,192,115604,128,0,115766:0:0:0:0:
256,192,115766,128,0,115928:0:0:0:0:
153,192,115928,128,0,116090:0:0:0:0:
153,192,116252,128,0,116415:0:0:0:0:
256,192,116415,128,0,116577:0:0:0:0:
358,192,116577,128,0,116739:0:0:0:0:
51,192,116739,1,0,0:0:0:0:
153,192,117063,1,0,0:0:0:0:
256,192,117063,1,0,0:0:0:0:
460,192,117388,1,0,0:0:0:0:
358,192,117550,1,0,0:0:0:0:
256,192,117712,1,0,0:0:0:0:
153,192,117712,1,0,0:0:0:0:
460,192,118036,1,0,0:0:0:0:
256,192,118361,1,0,0:0:0:0:
358,192,118361,1,0,0:0:0:0:
51,192,118685,1,0,0:0:0:0:
153,192,118847,1,0,0:0:0:0:
256,192,119009,1,0,0:0:0:0:
358,192,119009,1,0,0:0:0:0:
51,192,119334,1,0,0:0:0:0:
153,192,119658,1,0,0:0:0:0:
256,192,119658,1,0,0:0:0:0:
460,192,119982,1,0,0:0:0:0:
358,192,120144,1,0,0:0:0:0:
256,192,120307,1,0,0:0:0:0:
153,192,120307,1,0,0:0:0:0:
460,192,120631,1,0,0:0:0:0:
358,192,120793,1,0,0:0:0:0:
51,192,120955,1,0,0:0:0:0:
153,192,121117,1,0,0:0:0:0:
460,192,121279,1,0,0:0:0:0:
358,192,121442,1,0,0:0:0:0:
51,192,121604,1,0,0:0:0:0:
153,192,121766,1,0,0:0:0:0:
358,192,121928,1,0,0:0:0:0:
460,192,122090,1,0,0:0:0:0:
153,192,122252,1,0,0:0:0:0:
51,192,122415,1,0,0:0:0:0:
358,192,122577,1,0,0:0:0:0:
460,192,122739,1,0,0:0:0:0:
153,192,122901,1,0,0:0:0:0:
51,192,123063,1,0,0:0:0:0:
256,192,123225,1,0,0:0:0:0:
460,192,123388,1,0,0:0:0:0:
256,192,123550,1,0,0:0:0:0:
51,192,123712,1,0,0:0:0:0:
256,192,123874,1,0,0:0:0:0:
460,192,124036,1,0,0:0:0:0:
256,192,124198,1,0,0:0:0:0:
51,192,124361,1,0,0:0:0:0:
153,192,124523,128,0,125496:0:0:0:0:
358,192,124523,128,0,125496:0:0:0:0:
51,192,125496,1,0,0:0:0:0:
460,192,125496,1,0,0:0:0:0:
