osu file format v14

[General]
AudioFilename: audio.mp3
AudioLeadIn: 0
PreviewTime: -1
Countdown: 1
SampleSet: Soft
StackLeniency: 0.7
Mode: 3
LetterboxInBreaks: 0
SpecialStyle: 1
WidescreenStoryboard: 1

[Editor]
DistanceSpacing: 0.5
BeatDivisor: 4
GridSize: 4
TimelineZoom: 1

[Metadata]
Title:Spring Signal
TitleUnicode:Spring Signal
Artist:yuki.
ArtistUnicode:yuki.
Creator:HybridLiam
Version:Beginner
Source:
Tags:Relaxing Short LNs Electronic
BeatmapID:1209064
BeatmapSetID:569768

[Difficulty]
HPDrainRate:7
CircleSize:5
OverallDifficulty:7
ApproachRate:5
SliderMultiplier:1.4
SliderTickRate:1

[Events]
//Background and Video events
0,0,"Background.jpg",0,0
//Break Periods
//Storyboard Layer 0 (Background)
//Storyboard Layer 1 (Fail)
//Storyboard Layer 2 (Pass)
//Storyboard Layer 3 (Foreground)
//Storyboard Layer 4 (Overlay)
//Storyboard Sound Samples

[TimingPoints]
1280,324.324324324324,4,2,0,15,1,0
63550,-100,4,2,0,15,0,1
84225,-100,4,2,0,15,0,0
84307,-100,4,2,0,15,0,1
105063,-100,4,2,0,15,0,0

[HitObjects]
51,192,1280,5,0,0:0:0:0:
153,192,1280,1,0,0:0:0:0:
460,192,1442,128,0,1928:0:0:0:0:
358,192,2090,128,0,2577:0:0:0:0:
51,192,2577,1,0,0:0:0:0:
460,192,2901,1,0,0:0:0:0:
153,192,3388,1,0,0:0:0:0:
256,192,3550,1,0,0:0:0:0:
460,192,3874,1,0,0:0:0:0:
51,192,4198,1,0,0:0:0:0:
358,192,4685,1,0,0:0:0:0:
256,192,4847,1,0,0:0:0:0:
51,192,5171,1,0,0:0:0:0:
460,192,5496,1,0,0:0:0:0:
153,192,5982,1,0,0:0:0:0:
256,192,6144,1,0,0:0:0:0:
460,192,6469,1,0,0:0:0:0:
51,192,6631,128,0,7117:0:0:0:0:
153,192,7279,128,0,7766:0:0:0:0:
460,192,7766,1,0,0:0:0:0:
256,192,8090,1,0,0:0:0:0:
153,192,8577,1,0,0:0:0:0:
358,192,8739,1,0,0:0:0:0:
51,192,9063,1,0,0:0:0:0:
256,192,9388,1,0,0:0:0:0:
358,192,9874,1,0,0:0:0:0:
153,192,10036,1,0,0:0:0:0:
460,192,10361,1,0,0:0:0:0:
256,192,10685,1,0,0:0:0:0:
153,192,11171,1,0,0:0:0:0:
358,192,11334,1,0,0:0:0:0:
460,192,11658,1,0,0:0:0:0:
256,192,11658,1,0,0:0:0:0:
51,192,11820,128,0,12307:0:0:0:0:
358,192,12469,128,0,12955:0:0:0:0:
51,192,12955,1,0,0:0:0:0:
51,192,13279,1,0,0:0:0:0:
153,192,13604,1,0,0:0:0:0:
256,192,13928,1,0,0:0:0:0:
460,192,14252,1,0,0:0:0:0:
460,192,14577,1,0,0:0:0:0:
358,192,14901,1,0,0:0:0:0:
256,192,15225,1,0,0:0:0:0:
51,192,15550,1,0,0:0:0:0:
51,192,15874,1,0,0:0:0:0:
153,192,16198,1,0,0:0:0:0:
256,192,16523,1,0,0:0:0:0:
460,192,16847,128,0,17496:0:0:0:0:
51,192,16847,1,0,0:0:0:0:
358,192,17496,128,0,18144:0:0:0:0:
256,192,18144,128,0,18793:0:0:0:0:
153,192,18793,128,0,19442:0:0:0:0:
51,192,19442,128,0,21550:0:0:0:0:
460,192,20739,128,0,21550:0:0:0:0:
51,192,21712,1,0,0:0:0:0:
460,192,21712,1,0,0:0:0:0:
51,192,22036,128,0,23334:0:0:0:0:
256,192,23334,128,0,24631:0:0:0:0:
358,192,24631,128,0,25928:0:0:0:0:
51,192,25928,128,0,27225:0:0:0:0:
153,192,27225,128,0,28523:0:0:0:0:
256,192,28523,128,0,29171:0:0:0:0:
358,192,29171,128,0,29820:0:0:0:0:
460,192,29820,128,0,31117:0:0:0:0:
51,192,31117,128,0,32415:0:0:0:0:
153,192,32415,128,0,33712:0:0:0:0:
256,192,33712,128,0,35009:0:0:0:0:
358,192,35009,128,0,36307:0:0:0:0:
51,192,36307,128,0,37604:0:0:0:0:
153,192,37604,128,0,38901:0:0:0:0:
256,192,38901,128,0,40198:0:0:0:0:
460,192,40198,128,0,41496:0:0:0:0:
358,192,41496,128,0,42793:0:0:0:0:
51,192,42793,128,0,43279:0:0:0:0:
153,192,42793,1,0,0:0:0:0:
256,192,43279,128,0,43766:0:0:0:0:
51,192,43766,128,0,44090:0:0:0:0:
358,192,44090,128,0,44577:0:0:0:0:
153,192,44577,128,0,45063:0:0:0:0:
358,192,45063,128,0,45388:0:0:0:0:
51,192,45388,128,0,45874:0:0:0:0:
256,192,45874,128,0,46361:0:0:0:0:
460,192,46361,128,0,46685:0:0:0:0:
358,192,46685,128,0,47009:0:0:0:0:
256,192,47009,128,0,47334:0:0:0:0:
153,192,47334,128,0,47658:0:0:0:0:
51,192,47658,128,0,47982:0:0:0:0:
460,192,47982,128,0,48469:0:0:0:0:
256,192,48469,128,0,48955:0:0:0:0:
460,192,48955,128,0,49279:0:0:0:0:
153,192,49279,128,0,49766:0:0:0:0:
358,192,49766,128,0,50252:0:0:0:0:
153,192,50252,128,0,50577:0:0:0:0:
51,192,50577,128,0,51063:0:0:0:0:
256,192,51063,128,0,51550:0:0:0:0:
358,192,51550,128,0,51874:0:0:0:0:
256,192,52198,128,0,52523:0:0:0:0:
153,192,52523,128,0,52847:0:0:0:0:
51,192,52847,128,0,53171:0:0:0:0:
460,192,53171,1,0,0:0:0:0:
153,192,53496,1,0,0:0:0:0:
358,192,53820,1,0,0:0:0:0:
51,192,54144,1,0,0:0:0:0:
460,192,54469,1,0,0:0:0:0:
153,192,54793,1,0,0:0:0:0:
358,192,55117,1,0,0:0:0:0:
51,192,55442,1,0,0:0:0:0:
358,192,55766,1,0,0:0:0:0:
358,192,56090,1,0,0:0:0:0:
256,192,56415,1,0,0:0:0:0:
256,192,56739,1,0,0:0:0:0:
153,192,57063,1,0,0:0:0:0:
153,192,57388,1,0,0:0:0:0:
256,192,57712,1,0,0:0:0:0:
256,192,58036,1,0,0:0:0:0:
460,192,58361,128,0,59009:0:0:0:0:
51,192,58361,1,0,0:0:0:0:
358,192,59009,128,0,59658:0:0:0:0:
256,192,59658,128,0,60307:0:0:0:0:
153,192,60307,128,0,60955:0:0:0:0:
51,192,60955,128,0,63063:0:0:0:0:
460,192,62252,128,0,63063:0:0:0:0:
51,192,63225,1,0,0:0:0:0:
460,192,63225,1,0,0:0:0:0:
256,192,63550,128,0,63874:0:0:0:0:
153,192,63550,1,0,0:0:0:0:
358,192,63874,1,0,0:0:0:0:
51,192,64361,1,0,0:0:0:0:
358,192,64523,1,0,0:0:0:0:
256,192,64847,128,0,65171:0:0:0:0:
153,192,65171,1,0,0:0:0:0:
460,192,65658,1,0,0:0:0:0:
153,192,65820,1,0,0:0:0:0:
358,192,66144,128,0,66469:0:0:0:0:
460,192,66469,1,0,0:0:0:0:
153,192,66955,1,0,0:0:0:0:
460,192,67117,1,0,0:0:0:0:
153,192,67442,128,0,67766:0:0:0:0:
51,192,67766,1,0,0:0:0:0:
358,192,68252,1,0,0:0:0:0:
51,192,68415,1,0,0:0:0:0:
256,192,68739,128,0,69063:0:0:0:0:
358,192,69063,1,0,0:0:0:0:
51,192,69550,1,0,0:0:0:0:
358,192,69712,1,0,0:0:0:0:
256,192,70036,128,0,70361:0:0:0:0:
153,192,70361,1,0,0:0:0:0:
358,192,70685,128,0,71009:0:0:0:0:
256,192,71009,1,0,0:0:0:0:
358,192,71334,128,0,71658:0:0:0:0:
460,192,71658,1,0,0:0:0:0:
153,192,72144,1,0,0:0:0:0:
460,192,72307,1,0,0:0:0:0:
153,192,72631,128,0,72955:0:0:0:0:
51,192,72955,1,0,0:0:0:0:
460,192,73442,1,0,0:0:0:0:
256,192,73604,1,0,0:0:0:0:
51,192,73766,1,0,0:0:0:0:
256,192,73928,128,0,74252:0:0:0:0:
153,192,73928,1,0,0:0:0:0:
358,192,74252,1,0,0:0:0:0:
51,192,74739,1,0,0:0:0:0:
358,192,74901,1,0,0:0:0:0:
256,192,75225,128,0,75550:0:0:0:0:
153,192,75550,1,0,0:0:0:0:
460,192,76036,1,0,0:0:0:0:
153,192,76198,1,0,0:0:0:0:
358,192,76523,128,0,76847:0:0:0:0:
460,192,76847,1,0,0:0:0:0:
153,192,77334,1,0,0:0:0:0:
460,192,77496,1,0,0:0:0:0:
153,192,77820,128,0,78144:0:0:0:0:
51,192,78144,1,0,0:0:0:0:
358,192,78631,1,0,0:0:0:0:
51,192,78793,1,0,0:0:0:0:
256,192,79117,128,0,79442:0:0:0:0:
358,192,79442,1,0,0:0:0:0:
51,192,79928,1,0,0:0:0:0:
358,192,80090,1,0,0:0:0:0:
256,192,80415,128,0,80739:0:0:0:0:
153,192,80739,1,0,0:0:0:0:
358,192,81225,1,0,0:0:0:0:
51,192,81388,1,0,0:0:0:0:
460,192,81712,128,0,82036:0:0:0:0:
358,192,82036,1,0,0:0:0:0:
153,192,82523,1,0,0:0:0:0:
460,192,82685,1,0,0:0:0:0:
51,192,83009,128,0,83334:0:0:0:0:
153,192,83334,1,0,0:0:0:0:
460,192,83820,1,0,0:0:0:0:
358,192,83982,1,0,0:0:0:0:
153,192,84144,1,0,0:0:0:0:
51,192,84307,128,0,84793:0:0:0:0:
460,192,84307,1,0,0:0:0:0:
256,192,84793,128,0,85279:0:0:0:0:
51,192,85279,128,0,85604:0:0:0:0:
358,192,85604,128,0,86090:0:0:0:0:
153,192,86090,128,0,86577:0:0:0:0:
358,192,86577,128,0,86901:0:0:0:0:
51,192,86901,128,0,87388:0:0:0:0:
256,192,87388,128,0,87874:0:0:0:0:
460,192,87874,128,0,88198:0:0:0:0:
358,192,88198,128,0,88523:0:0:0:0:
256,192,88523,128,0,88847:0:0:0:0:
153,192,88847,128,0,89171:0:0:0:0:
51,192,89171,128,0,89496:0:0:0:0:
460,192,89496,128,0,89982:0:0:0:0:
256,192,89982,128,0,90469:0:0:0:0:
460,192,90469,128,0,90793:0:0:0:0:
153,192,90793,128,0,91279:0:0:0:0:
358,192,91279,128,0,91766:0:0:0:0:
153,192,91766,128,0,92090:0:0:0:0:
51,192,92090,128,0,92577:0:0:0:0:
256,192,92577,128,0,93063:0:0:0:0:
358,192,93063,128,0,93388:0:0:0:0:
358,192,93712,128,0,94036:0:0:0:0:
256,192,94036,128,0,94361:0:0:0:0:
153,192,94361,128,0,94685:0:0:0:0:
51,192,94685,128,0,95171:0:0:0:0:
460,192,94685,1,0,0:0:0:0:
256,192,95171,128,0,95658:0:0:0:0:
51,192,95658,128,0,95982:0:0:0:0:
358,192,95982,128,0,96469:0:0:0:0:
153,192,96469,128,0,96955:0:0:0:0:
358,192,96955,128,0,97279:0:0:0:0:
51,192,97279,128,0,97766:0:0:0:0:
256,192,97766,128,0,98252:0:0:0:0:
460,192,98252,128,0,98577:0:0:0:0:
358,192,98577,128,0,98901:0:0:0:0:
256,192,98901,128,0,99225:0:0:0:0:
153,192,99225,128,0,99550:0:0:0:0:
51,192,99550,128,0,99874:0:0:0:0:
460,192,99874,128,0,100361:0:0:0:0:
256,192,100361,128,0,100847:0:0:0:0:
460,192,100847,128,0,101171:0:0:0:0:
153,192,101171,128,0,101658:0:0:0:0:
358,192,101658,128,0,102144:0:0:0:0:
153,192,102144,128,0,102469:0:0:0:0:
51,192,102469,128,0,102955:0:0:0:0:
256,192,102955,128,0,103442:0:0:0:0:
358,192,103442,128,0,103766:0:0:0:0:
358,192,104090,128,0,104415:0:0:0:0:
256,192,104415,128,0,104739:0:0:0:0:
153,192,104739,128,0,105063:0:0:0:0:
51,192,105063,5,0,0:0:0:0:
460,192,105225,128,0,105712:0:0:0:0:
358,192,105874,128,0,106361:0:0:0:0:
51,192,106361,1,0,0:0:0:0:
460,192,106685,1,0,0:0:0:0:
153,192,107171,1,0,0:0:0:0:
256,192,107334,1,0,0:0:0:0:
460,192,107658,1,0,0:0:0:0:
51,192,107982,1,0,0:0:0:0:
358,192,108469,1,0,0:0:0:0:
256,192,108631,1,0,0:0:0:0:
51,192,108955,1,0,0:0:0:0:
460,192,109279,1,0,0:0:0:0:
153,192,109766,1,0,0:0:0:0:
256,192,109928,1,0,0:0:0:0:
460,192,110252,1,0,0:0:0:0:
51,192,110415,128,0,110901:0:0:0:0:
153,192,111063,128,0,111550:0:0:0:0:
460,192,111550,1,0,0:0:0:0:
256,192,111874,1,0,0:0:0:0:
153,192,112361,1,0,0:0:0:0:
358,192,112523,1,0,0:0:0:0:
51,192,112847,1,0,0:0:0:0:
256,192,113171,1,0,0:0:0:0:
358,192,113658,1,0,0:0:0:0:
153,192,113820,1,0,0:0:0:0:
460,192,114144,1,0,0:0:0:0:
256,192,114469,1,0,0:0:0:0:
153,192,114955,1,0,0:0:0:0:
358,192,115117,1,0,0:0:0:0:
460,192,115442,1,0,0:0:0:0:
51,192,115604,128,0,116090:0:0:0:0:
358,192,116252,128,0,116739:0:0:0:0:
51,192,116739,1,0,0:0:0:0:
51,192,117063,1,0,0:0:0:0:
153,192,117388,1,0,0:0:0:0:
256,192,117712,1,0,0:0:0:0:
460,192,118036,1,0,0:0:0:0:
460,192,118361,1,0,0:0:0:0:
358,192,118685,1,0,0:0:0:0:
256,192,119009,1,0,0:0:0:0:
51,192,119334,1,0,0:0:0:0:
51,192,119658,1,0,0:0:0:0:
153,192,119982,1,0,0:0:0:0:
256,192,120307,1,0,0:0:0:0:
460,192,120631,128,0,121279:0:0:0:0:
51,192,120631,1,0,0:0:0:0:
358,192,121279,128,0,121928:0:0:0:0:
256,192,121928,128,0,122577:0:0:0:0:
153,192,122577,128,0,123225:0:0:0:0:
51,192,123225,128,0,125334:0:0:0:0:
460,192,124523,128,0,125334:0:0:0:0:
51,192,125496,1,0,0:0:0:0:
460,192,125496,1,0,0:0:0:0:
