osu file format v14

[General]
AudioFilename: audio.mp3
AudioLeadIn: 0
PreviewTime: 87593
Countdown: 0
SampleSet: None
StackLeniency: 0.3
Mode: 0
LetterboxInBreaks: 0
UseSkinSprites: 1
WidescreenStoryboard: 1

[Editor]
Bookmarks: 893,1193,5993,8393,8993,9593,10493,10793,19943,20093,20393,25193,27593,28793,29993,34793,39593,44393,46793,47393,47993,48143,49193,58793,63593,65993,68393,68468,68543,68618,68693,68768,68843,68918,68993,69068,69143,69218,69293,69368,69443,69518,69593,69668,69743,69818,69893,69968,70043,70118,70193,70268,70343,70418,70493,70568,70643,70718,70793,70868,70943,71018,71093,71168,71243,71318,71393,71468,71543,71618,71693,71768,71843,71918,71993,72068,72143,72218,72293,72368,72443,72518,72593,72668,72743,72818,72893,72968,73043,73118,73193,73268,73343,73418,73493,73568,73643,73718,73793,73868,73943,74018,74093,74168,74243,74318,74393,74468,74543,74618,74693,74768,74843,74918,74993,75068,75143,75218,75293,75368,75443,75518,75593,75668,75743,75818,75893,75968,76043,76118,76193,76268,76343,76418,76493,76568,76643,76718,76793,76868,76943,77018,77093,77168,77243,77318,77393,77468,77543,77618,77693,77993,82793,91193,96743,96893,101993,104393,106343,106493,106793,115943,116093,121193,123593,125543,125693,125993,128393,128468,128543,128618,128693,128768,128843,128918,128993,129068,129143,129218,129293,129368,129443,129518,129593
DistanceSpacing: 1
BeatDivisor: 4
GridSize: 8
TimelineZoom: 3

[Metadata]
Title:Nadeshiko Sensation
TitleUnicode:Nadeshiko Sensation
Artist:yuki.
ArtistUnicode:yuki.
Creator:s0m3guy
Version:last half
Source:osu!
Tags:白雪 J-Core UK Hardcore White Records community beatmapping contest featured artist
BeatmapID:1915419
BeatmapSetID:914365

[Difficulty]
HPDrainRate:6
CircleSize:3.5
OverallDifficulty:8
ApproachRate:9.5
SliderMultiplier:2
SliderTickRate:1

[Events]
//Background and Video events
0,0,"Nadeshiko Sensation B.jpg",0,0
//Break Periods
//Storyboard Layer 0 (Background)
//Storyboard Layer 1 (Fail)
//Storyboard Layer 2 (Pass)
//Storyboard Layer 3 (Foreground)
//Storyboard Sound Samples

[TimingPoints]
893,300,4,2,0,50,1,0
893,-500,4,2,0,50,0,0
1193,300,4,2,0,50,1,0
1193,-200,4,2,0,50,0,0
5993,-133.333333333333,4,2,0,50,0,0
7193,-125,4,2,0,50,0,0
10793,-100,4,2,0,50,0,0
29993,-125,4,2,0,50,0,0
39593,-111.111111111111,4,2,0,50,0,0
49193,-100,4,2,0,50,0,0
49418,-133.333333333333,4,2,0,50,0,0
51593,-100,4,2,0,50,0,0
51893,-117.647058823529,4,2,0,50,0,0
53993,-100,4,2,0,50,0,0
54293,-133.333333333333,4,2,0,50,0,0
56393,-100,4,2,0,50,0,0
56693,-117.647058823529,4,2,0,50,0,0
58793,-111.111111111111,4,2,0,50,0,0
61193,-90.9090909090909,4,2,0,50,0,0
61493,-111.111111111111,4,2,0,50,0,0
77993,-133.333333333333,4,2,0,50,0,0
87593,-83.3333333333333,4,2,0,50,0,1
106493,-83.3333333333333,4,2,0,50,0,0
106793,-76.9230769230769,4,2,0,50,0,1
116393,-71.4285714285714,4,2,0,50,0,1
125993,-144.927536231884,4,2,0,50,0,0
126293,-144.927536231884,4,2,0,50,0,0

[HitObjects]
256,384,77693,5,0,2:2:0:0:
0,93,77993,6,0,L|115:145,1,112.500004291535,0|0,2:2|2:2,2:2:0:0:
136,155,78293,1,0,2:2:0:0:
59,260,78443,2,0,P|39:228|36:191,1,75.0000028610231,0|0,2:2|2:2,2:2:0:0:
208,118,78743,5,0,2:2:0:0:
217,147,78818,1,0,2:2:0:0:
214,176,78893,2,0,P|196:208|166:230,1,75.0000028610231,0|0,2:2|2:2,2:2:0:0:
88,366,79193,6,0,L|209:332,1,112.500004291535,0|0,2:2|2:2,2:2:0:0:
232,326,79493,1,0,2:2:0:0:
286,156,79643,2,0,L|214:175,1,75.0000028610231,0|0,2:2|2:2,2:2:0:0:
293,384,79943,5,0,2:2:0:0:
310,358,80018,1,0,2:2:0:0:
318,330,80093,2,0,P|311:293|290:263,1,75.0000028610231,0|0,2:2|2:2,2:2:0:0:
286,156,80393,6,0,P|292:119|313:89,1,75.0000028610231,0|0,2:2|2:2,2:2:0:0:
402,151,80618,2,0,L|346:146,1,37.5000014305115,0|0,2:2|2:2,2:2:0:0:
418,45,80843,1,0,2:2:0:0:
448,214,80993,1,0,2:2:0:0:
237,55,81143,5,0,2:2:0:0:
254,29,81218,1,0,2:2:0:0:
278,12,81293,2,0,P|314:4|350:12,1,75.0000028610231,0|0,2:2|2:2,2:2:0:0:
512,182,81593,6,0,P|485:206|446:213,1,75.0000028610231,0|0,2:2|2:2,2:2:0:0:
364,147,81818,2,0,L|402:151,1,37.5000014305115,0|0,2:2|2:2,2:2:0:0:
460,357,82043,6,0,P|424:364|387:351,1,75.0000028610231,0|0,2:2|2:2,2:2:0:0:
349,253,82268,2,0,L|379:274,1,37.5000014305115,0|0,2:2|2:2,2:2:0:0:
256,384,82493,6,0,L|256:344,1,37.5000014305115,0|0,2:2|2:2,2:2:0:0:
132,274,82643,2,0,L|163:253,1,37.5000014305115,0|0,2:2|2:2,2:2:0:0:
253,100,82793,5,0,2:2:0:0:
379,274,82943,1,0,2:2:0:0:
353,100,83093,1,0,2:2:0:0:
226,275,83243,1,0,2:2:0:0:
382,196,83393,1,0,2:2:0:0:
179,127,83543,2,0,L|216:165,1,37.5000014305115,0|0,2:2|2:2,2:2:0:0:
302,253,83693,1,0,2:2:0:0:
301,38,83843,1,0,2:2:0:0:
153,303,83993,5,0,2:2:0:0:
24,129,84143,1,0,2:2:0:0:
52,303,84293,1,0,2:2:0:0:
179,127,84443,1,0,2:2:0:0:
21,209,84593,1,0,2:2:0:0:
226,275,84743,1,0,2:2:0:0:
101,151,84893,1,0,2:2:0:0:
103,363,85043,1,0,2:2:0:0:
150,55,85193,5,0,2:2:0:0:
183,51,85268,1,0,2:2:0:0:
215,61,85343,1,0,2:2:0:0:
241,82,85418,1,0,2:2:0:0:
252,113,85493,1,0,2:2:0:0:
261,145,85568,1,0,2:2:0:0:
279,173,85643,1,0,2:2:0:0:
306,192,85718,1,0,2:2:0:0:
338,201,85793,5,0,2:2:0:0:
375,200,85868,1,0,2:2:0:0:
410,186,85943,1,0,2:2:0:0:
437,160,86018,1,0,2:2:0:0:
452,125,86093,1,0,2:2:0:0:
455,87,86168,1,0,2:2:0:0:
443,51,86243,1,0,2:2:0:0:
419,21,86318,1,0,2:2:0:0:
386,3,86393,1,0,2:2:0:0:
256,192,86468,12,0,87218,2:2:0:0:
386,3,87293,5,0,2:2:0:0:
35,350,87593,6,0,L|194:363,1,119.999996337891,0|0,2:2|2:2,2:2:0:0:
221,292,87818,2,0,L|127:284,1,59.9999981689454,0|0,2:2|2:2,2:2:0:0:
0,206,88043,2,0,L|159:219,1,119.999996337891,0|0,2:2|2:2,2:2:0:0:
264,382,88343,5,0,2:2:0:0:
298,357,88418,1,0,2:2:0:0:
316,318,88493,2,0,P|314:259|279:212,1,119.999996337891,0|0,2:2|2:2,2:2:0:0:
348,37,88793,6,0,L|335:196,1,119.999996337891,0|0,2:2|2:2,2:2:0:0:
406,223,89018,2,0,L|414:129,1,59.9999981689454,0|0,2:2|2:2,2:2:0:0:
492,2,89243,2,0,L|479:161,1,119.999996337891,0|0,2:2|2:2,2:2:0:0:
316,266,89543,5,0,2:2:0:0:
341,300,89618,1,0,2:2:0:0:
379,318,89693,2,0,P|425:320|498:261,1,119.999996337891,0|0,2:2|2:2,2:2:0:0:
348,37,89993,6,0,P|302:35|229:94,1,119.999996337891,0|0,2:2|2:2,2:2:0:0:
279,173,90218,2,0,L|319:129,1,59.9999981689454,0|0,2:2|2:2,2:2:0:0:
109,40,90443,6,0,L|164:62,1,59.9999981689454,0|0,2:2|2:2,2:2:0:0:
279,173,90593,2,0,L|186:135,1,59.9999981689454,0|0,2:2|2:2,2:2:0:0:
128,175,90743,1,0,2:2:0:0:
86,179,90818,1,0,2:2:0:0:
51,203,90893,2,0,P|26:241|40:334,1,119.999996337891,0|0,2:2|2:2,2:2:0:0:
298,312,91193,6,0,P|267:261|213:237,1,119.999996337891,0|0,2:2|2:2,2:2:0:0:
114,276,91418,2,0,L|186:301,1,59.9999981689454,0|0,2:2|2:2,2:2:0:0:
422,171,91643,6,0,P|362:172|314:207,1,119.999996337891,0|0,2:2|2:2,2:2:0:0:
298,312,91868,2,0,L|355:262,1,59.9999981689454,0|0,2:2|2:2,2:2:0:0:
422,171,92093,6,0,L|407:96,1,59.9999981689454,0|0,2:2|2:2,2:2:0:0:
391,17,92243,2,0,L|333:67,1,59.9999981689454,0|0,2:2|2:2,2:2:0:0:
274,121,92393,6,0,P|214:120|166:85,1,119.999996337891,0|0,2:2|2:2,2:2:0:0:
159,0,92618,2,0,P|188:4|215:18,1,59.9999981689454,0|0,2:2|2:2,2:2:0:0:
410,112,92843,2,0,P|379:163|324:187,1,119.999996337891,0|0,2:2|2:2,2:2:0:0:
140,240,93143,5,0,2:2:0:0:
182,246,93218,1,0,2:2:0:0:
224,253,93293,2,0,L|357:274,1,119.999996337891,0|0,2:2|2:2,2:2:0:0:
512,344,93593,6,0,P|452:343|404:308,1,119.999996337891,0|0,2:2|2:2,2:2:0:0:
397,223,93818,2,0,P|426:227|453:241,1,59.9999981689454,0|0,2:2|2:2,2:2:0:0:
349,383,94043,1,0,2:2:0:0:
224,253,94193,6,0,P|206:195|224:139,1,119.999996337891,0|0,2:2|2:2,2:2:0:0:
303,106,94418,2,0,P|308:134|303:164,1,59.9999981689454,0|0,2:2|2:2,2:2:0:0:
136,110,94643,1,0,2:2:0:0:
224,253,94793,6,0,P|182:297|125:310,1,119.999996337891,0|0,2:2|2:2,2:2:0:0:
60,256,95018,2,0,P|81:237|110:227,1,59.9999981689454,0|0,2:2|2:2,2:2:0:0:
268,294,95243,6,0,L|224:253,1,59.9999981689454,0|0,2:2|2:2,2:2:0:0:
136,110,95393,2,0,L|179:150,1,59.9999981689454,0|0,2:2|2:2,2:2:0:0:
342,246,95543,1,0,2:2:0:0:
377,224,95618,1,0,2:2:0:0:
402,189,95693,2,0,P|410:143|362:62,1,119.999996337891,0|0,2:2|2:2,2:2:0:0:
69,41,95993,6,0,L|228:28,1,119.999996337891,0|0,2:2|2:2,2:2:0:0:
255,99,96218,2,0,L|96:113,1,119.999996337891,0|0,2:2|2:2,2:2:0:0:
81,189,96443,2,0,L|140:183,1,59.9999981689454,0|0,2:2|2:2,2:2:0:0:
264,216,96593,1,0,2:2:0:0:
135,110,96743,5,0,2:2:0:0:
188,295,96893,2,0,P|256:327|320:311,1,119.999996337891,0|0,2:2|2:2,2:2:0:0:
450,156,97193,6,0,L|463:307,1,119.999996337891,0|0,2:2|2:2,2:2:0:0:
386,349,97418,2,0,L|380:289,1,59.9999981689454,0|0,2:2|2:2,2:2:0:0:
288,201,97643,2,0,L|301:352,1,119.999996337891,0|0,2:2|2:2,2:2:0:0:
450,156,97943,5,0,2:2:0:0:
435,116,98018,1,0,2:2:0:0:
403,88,98093,2,0,P|345:73|292:91,1,59.9999981689454,0|0,2:2|2:2,2:2:0:0:
282,123,98243,2,0,P|224:137|171:119,1,59.9999981689454,0|0,2:2|2:2,2:2:0:0:
116,29,98393,6,0,P|151:90|125:178,1,119.999996337891,0|0,2:2|2:2,2:2:0:0:
39,165,98618,2,0,L|54:107,1,59.9999981689454,0|0,2:2|2:2,2:2:0:0:
225,213,98843,2,0,P|189:273|100:295,1,119.999996337891,0|0,2:2|2:2,2:2:0:0:
0,362,99143,5,0,2:2:0:0:
42,368,99218,1,0,2:2:0:0:
84,375,99293,2,0,L|188:391,1,59.9999981689454,0|0,2:2|2:2,2:2:0:0:
221,341,99443,2,0,L|325:324,1,59.9999981689454,0|0,2:2|2:2,2:2:0:0:
383,352,99593,6,0,P|409:298|402:240,1,119.999996337891,0|0,2:2|2:2,2:2:0:0:
312,185,99818,2,0,L|317:259,1,59.9999981689454,0|0,2:2|2:2,2:2:0:0:
467,303,100043,6,0,L|407:312,1,59.9999981689454,0|0,2:2|2:2,2:2:0:0:
257,255,100193,2,0,L|361:238,1,59.9999981689454,0|0,2:2|2:2,2:2:0:0:
418,163,100343,1,0,2:2:0:0:
403,123,100418,1,0,2:2:0:0:
371,95,100493,2,0,P|313:80|260:98,1,59.9999981689454,0|0,2:2|2:2,2:2:0:0:
250,130,100643,2,0,P|192:144|139:126,1,59.9999981689454,0|0,2:2|2:2,2:2:0:0:
103,161,100793,6,0,P|106:237|145:289,1,119.999996337891,0|0,2:2|2:2,2:2:0:0:
257,255,101018,2,0,L|204:227,1,59.9999981689454,0|0,2:2|2:2,2:2:0:0:
357,367,101243,6,0,P|421:326|446:266,1,119.999996337891,0|0,2:2|2:2,2:2:0:0:
361,186,101468,2,0,L|363:245,1,59.9999981689454,0|0,2:2|2:2,2:2:0:0:
409,45,101693,6,0,L|355:16,1,59.9999981689454,0|0,2:2|2:2,2:2:0:0:
300,98,101843,2,0,L|250:130,1,59.9999981689454,0|0,2:2|2:2,2:2:0:0:
436,216,101993,5,0,2:2:0:0:
257,255,102143,1,0,2:2:0:0:
238,50,102293,5,0,2:2:0:0:
360,185,102443,1,0,2:2:0:0:
193,304,102593,5,0,2:2:0:0:
249,130,102743,2,0,L|295:168,1,59.9999981689454,0|0,2:2|2:2,2:2:0:0:
441,288,102893,5,0,2:2:0:0:
257,255,103043,1,0,2:2:0:0:
451,108,103193,5,0,2:2:0:0:
329,250,103343,1,0,2:2:0:0:
137,91,103493,5,0,2:2:0:0:
321,125,103643,1,0,2:2:0:0:
280,371,103793,5,0,2:2:0:0:
217,195,103943,1,0,2:2:0:0:
451,108,104093,5,0,2:2:0:0:
329,250,104243,1,0,2:2:0:0:
137,91,104393,5,0,2:2:0:0:
169,62,104468,1,0,2:2:0:0:
211,64,104543,1,0,2:2:0:0:
246,90,104618,1,0,2:2:0:0:
253,130,104693,1,0,2:2:0:0:
236,168,104768,1,0,2:2:0:0:
209,199,104843,1,0,2:2:0:0:
191,238,104918,1,0,2:2:0:0:
190,279,104993,5,0,2:2:0:0:
201,318,105068,1,0,2:2:0:0:
228,352,105143,1,0,2:2:0:0:
265,372,105218,1,0,2:2:0:0:
308,379,105293,1,0,2:2:0:0:
349,374,105368,1,0,2:2:0:0:
385,351,105443,2,0,P|408:320|419:269,1,59.9999981689454,0|0,2:2|2:2,2:2:0:0:
420,146,105593,5,0,2:2:0:0:
161,186,105743,1,0,2:2:0:0:
347,1,105893,1,0,2:2:0:0:
306,261,106043,1,0,2:2:0:0:
186,27,106193,1,0,2:2:0:0:
285,125,106343,5,0,2:2:0:0:
285,125,106493,1,0,2:2:0:0:
420,0,106793,6,0,L|400:182,1,129.999994049073,0|0,2:2|2:2,2:2:0:0:
475,204,107018,2,0,L|481:139,1,64.9999970245363,0|0,2:2|2:2,2:2:0:0:
331,122,107243,2,0,L|311:304,1,129.999994049073,0|0,2:2|2:2,2:2:0:0:
481,139,107543,5,0,2:2:0:0:
464,89,107618,1,0,2:2:0:0:
418,63,107693,2,0,B|380:59|344:80|331:122|331:122|327:162,1,129.999994049073,0|0,2:2|2:2,2:2:0:0:
305,384,107993,6,0,L|157:275,1,129.999994049073,0|0,2:2|2:2,2:2:0:0:
100,329,108218,2,0,L|152:367,1,64.9999970245363,0|0,2:2|2:2,2:2:0:0:
243,245,108443,2,0,L|95:136,1,129.999994049073,0|0,2:2|2:2,2:2:0:0:
154,367,108743,5,0,2:2:0:0:
205,377,108818,1,0,2:2:0:0:
251,350,108893,2,0,B|273:319|273:277|243:245|243:245|210:221,1,129.999994049073,0|0,2:2|2:2,2:2:0:0:
50,242,109193,6,0,P|23:165|50:89,1,129.999994049073,0|0,2:2|2:2,2:2:0:0:
105,5,109418,2,0,L|89:68,1,64.9999970245363,0|0,2:2|2:2,2:2:0:0:
100,329,109643,6,0,L|116:266,1,64.9999970245363,0|0,2:2|2:2,2:2:0:0:
153,105,109793,2,0,L|137:168,1,64.9999970245363,0|0,2:2|2:2,2:2:0:0:
316,254,109943,1,0,2:2:0:0:
363,276,110018,1,0,2:2:0:0:
410,298,110093,2,0,L|526:351,1,64.9999970245363,0|0,2:2|2:2,2:2:0:0:
473,230,110243,2,0,L|526:192,1,64.9999970245363,0|0,2:2|2:2,2:2:0:0:
445,141,110393,6,0,P|381:111|297:141,1,129.999994049073,0|0,2:2|2:2,2:2:0:0:
316,254,110618,2,0,L|372:221,1,64.9999970245363,0|0,2:2|2:2,2:2:0:0:
137,168,110843,6,0,P|79:208|64:295,1,129.999994049073,0|0,2:2|2:2,2:2:0:0:
170,336,111068,2,0,L|169:271,1,64.9999970245363,0|0,2:2|2:2,2:2:0:0:
141,10,111293,6,0,L|58:109,1,64.9999970245363,0|0,2:2|2:2,2:2:0:0:
73,158,111443,2,0,L|137:168,1,64.9999970245363,0|0,2:2|2:2,2:2:0:0:
211,83,111593,2,0,P|251:49|349:51,1,129.999994049073,0|0,2:2|2:2,2:2:0:0:
386,142,111818,2,0,L|325:121,1,64.9999970245363,0|0,2:2|2:2,2:2:0:0:
419,0,112043,2,0,P|468:17|515:103,1,129.999994049073,0|0,2:2|2:2,2:2:0:0:
400,226,112343,5,0,2:2:0:0:
348,236,112418,1,0,2:2:0:0:
296,245,112493,2,0,L|144:275,1,129.999994049073,0|0,2:2|2:2,2:2:0:0:
449,310,112793,6,0,P|483:270|481:172,1,129.999994049073,0|0,2:2|2:2,2:2:0:0:
378,164,113018,2,0,L|399:225,1,64.9999970245363,0|0,2:2|2:2,2:2:0:0:
168,270,113243,6,0,L|147:209,1,64.9999970245363,0|0,2:2|2:2,2:2:0:0:
97,124,113393,2,0,P|63:164|65:262,1,129.999994049073,0|0,2:2|2:2,2:2:0:0:
110,384,113618,2,0,L|89:323,1,64.9999970245363,0|0,2:2|2:2,2:2:0:0:
261,263,113843,2,0,L|283:324,1,64.9999970245363,0|0,2:2|2:2,2:2:0:0:
378,164,113993,6,0,P|327:108|259:105,1,129.999994049073,0|0,2:2|2:2,2:2:0:0:
210,180,114218,2,0,L|295:173,1,64.9999970245363,0|0,2:2|2:2,2:2:0:0:
489,84,114443,6,0,L|424:89,1,64.9999970245363,0|0,2:2|2:2,2:2:0:0:
211,106,114593,2,0,L|296:99,1,64.9999970245363,0|0,2:2|2:2,2:2:0:0:
490,195,114743,1,0,2:2:0:0:
490,247,114818,1,0,2:2:0:0:
466,293,114893,2,0,P|441:313|388:324,1,64.9999970245363,0|0,2:2|2:2,2:2:0:0:
339,354,115043,2,0,P|314:334|261:323,1,64.9999970245363,0|0,2:2|2:2,2:2:0:0:
203,357,115193,6,0,L|26:341,1,129.999994049073,0|0,2:2|2:2,2:2:0:0:
0,254,115418,2,0,L|176:269,1,129.999994049073,0|0,2:2|2:2,2:2:0:0:
225,191,115643,2,0,L|160:185,1,64.9999970245363,0|0,2:2|2:2,2:2:0:0:
0,171,115793,1,0,2:2:0:0:
273,103,115943,5,0,2:2:0:0:
273,103,116093,1,0,2:2:0:0:
86,57,116243,1,0,2:2:0:0:
129,265,116393,6,0,P|200:247|225:171,1,139.999995727539,0|0,2:2|2:2,2:2:0:0:
177,97,116618,2,0,L|155:164,1,69.9999978637696,0|0,2:2|2:2,2:2:0:0:
314,228,116843,2,0,P|312:159|273:102,1,139.999995727539,0|0,2:2|2:2,2:2:0:0:
0,182,117143,5,0,2:2:0:0:
11,236,117218,1,0,2:2:0:0:
22,290,117293,2,0,L|36:359,1,69.9999978637696,0|0,2:2|2:2,2:2:0:0:
122,337,117443,2,0,L|189:358,1,69.9999978637696,0|0,2:2|2:2,2:2:0:0:
196,261,117593,6,0,P|252:215|328:241,1,139.999995727539,0|0,2:2|2:2,2:2:0:0:
335,318,117818,2,0,L|269:295,1,69.9999978637696,0|0,2:2|2:2,2:2:0:0:
333,136,118043,2,0,P|386:179|408:244,1,139.999995727539,0|0,2:2|2:2,2:2:0:0:
196,261,118343,5,0,2:2:0:0:
158,219,118418,1,0,2:2:0:0:
154,163,118493,2,0,P|170:132|198:112,1,69.9999978637696,0|0,2:2|2:2,2:2:0:0:
332,136,118643,2,0,P|361:115|377:85,1,69.9999978637696,0|0,2:2|2:2,2:2:0:0:
308,7,118793,6,0,P|372:-17|439:0,1,139.999995727539,0|0,2:2|2:2,2:2:0:0:
512,96,119018,2,0,L|444:71,1,69.9999978637696,0|0,2:2|2:2,2:2:0:0:
198,112,119243,6,0,L|266:97,1,69.9999978637696,0|0,2:2|2:2,2:2:0:0:
446,71,119393,2,0,L|377:85,1,69.9999978637696,0|0,2:2|2:2,2:2:0:0:
269,249,119543,1,0,2:2:0:0:
257,304,119618,1,0,2:2:0:0:
281,354,119693,2,0,P|310:372|345:375,1,69.9999978637696,0|0,2:2|2:2,2:2:0:0:
406,245,119843,2,0,P|375:261|355:289,1,69.9999978637696,0|0,2:2|2:2,2:2:0:0:
480,384,119993,6,0,P|505:289|462:206,1,139.999995727539,0|0,2:2|2:2,2:2:0:0:
361,194,120218,2,0,P|377:224|405:244,1,69.9999978637696,0|0,2:2|2:2,2:2:0:0:
320,58,120443,6,0,P|225:83|174:162,1,139.999995727539,0|0,2:2|2:2,2:2:0:0:
214,256,120668,2,0,P|232:226|235:191,1,69.9999978637696,0|0,2:2|2:2,2:2:0:0:
22,290,120893,6,0,P|38:320|66:340,1,69.9999978637696,0|0,2:2|2:2,2:2:0:0:
88,106,121043,2,0,P|53:104|21:119,1,69.9999978637696,0|0,2:2|2:2,2:2:0:0:
158,336,121193,5,0,2:2:0:0:
361,194,121343,1,0,2:2:0:0:
139,181,121493,1,0,2:2:0:0:
282,384,121643,1,0,2:2:0:0:
291,158,121793,1,0,2:2:0:0:
88,300,121943,2,0,L|212:307,1,69.9999978637696,0|0,2:2|2:2,2:2:0:0:
310,313,122093,1,0,2:2:0:0:
167,110,122243,1,0,2:2:0:0:
391,237,122393,5,0,2:2:0:0:
89,184,122543,1,0,2:2:0:0:
295,0,122693,1,0,2:2:0:0:
242,303,122843,1,0,2:2:0:0:
51,97,122993,1,0,2:2:0:0:
354,150,123143,1,0,2:2:0:0:
149,333,123293,1,0,2:2:0:0:
200,32,123443,1,0,2:2:0:0:
310,313,123593,5,0,2:2:0:0:
272,343,123668,1,0,2:2:0:0:
223,344,123743,1,0,2:2:0:0:
184,313,123818,1,0,2:2:0:0:
173,265,123893,1,0,2:2:0:0:
194,220,123968,1,0,2:2:0:0:
238,199,124043,1,0,2:2:0:0:
283,210,124118,1,0,2:2:0:0:
325,234,124193,5,0,2:2:0:0:
373,239,124268,1,0,2:2:0:0:
416,216,124343,1,0,2:2:0:0:
442,174,124418,1,0,2:2:0:0:
441,125,124493,1,0,2:2:0:0:
416,82,124568,1,0,2:2:0:0:
372,59,124643,2,0,P|333:59|287:84,1,69.9999978637696,0|0,2:2|2:2,2:2:0:0:
247,297,124793,5,0,2:2:0:0:
74,58,124943,1,0,2:2:0:0:
354,150,125093,1,0,2:2:0:0:
74,241,125243,1,0,2:2:0:0:
247,2,125393,1,0,2:2:0:0:
200,150,125543,5,0,2:2:0:0:
200,150,125693,1,0,2:2:0:0:
97,58,125993,6,0,B|132:51|165:68|185:97|185:97|184:63|199:33|230:16|230:16|242:24|242:24|256:25|256:25|274:54|267:89|246:118|246:118|279:106|313:112|338:135|338:135|335:149|335:149|337:162|337:162|315:189|279:194|245:182|245:182|267:208|272:242|257:274|257:274|243:275|243:275|232:282|232:282|199:269|183:236|183:200|183:200|166:230|136:244|100:240|100:240|95:227|95:227|85:219|85:219|87:184|114:158|147:148|147:148|113:140|90:115|84:81,1,1104.00000168457,0|0,2:2|2:2,2:2:0:0:
