osu file format v14

[General]
AudioFilename: audio.mp3
AudioLeadIn: 0
PreviewTime: 68080
Countdown: 0
SampleSet: Normal
StackLeniency: 0.7
Mode: 1
LetterboxInBreaks: 0
WidescreenStoryboard: 1

[Editor]
Bookmarks: 1180,10780,20380,29980,39580,49180,58780,68380,77980,87580,97180,106780,116380,125980
DistanceSpacing: 1.1
BeatDivisor: 4
GridSize: 32
TimelineZoom: 2.1

[Metadata]
Title:Nadeshiko Sensation
TitleUnicode:Nadeshiko Sensation
Artist:yuki.
ArtistUnicode:yuki.
Creator:hikikochan
Version:Muzukashii
Source:osu!
Tags:community beatmapping contest cbc 2016
BeatmapID:1181526
BeatmapSetID:558569

[Difficulty]
HPDrainRate:5
CircleSize:2
OverallDifficulty:5
ApproachRate:5
SliderMultiplier:1.4
SliderTickRate:1

[Events]
//Background and Video events
0,0,"Nadeshiko Sensation B.jpg",0,0
//Break Periods
//Storyboard Layer 0 (Background)
//Storyboard Layer 1 (Fail)
//Storyboard Layer 2 (Pass)
//Storyboard Layer 3 (Foreground)
//Storyboard Sound Samples

[TimingPoints]
1180,300,4,1,0,90,1,0
10780,-100,4,1,0,100,0,1
29980,-100,4,1,0,90,0,0
87580,-100,4,1,0,100,0,1
125980,-100,4,1,0,90,0,0

[HitObjects]
256,192,1180,5,4,0:0:0:0:
256,192,2380,1,8,0:0:0:0:
256,192,3580,1,0,0:0:0:0:
256,192,4780,1,8,0:0:0:0:
256,192,5980,1,4,0:0:0:0:
256,192,6280,1,0,0:0:0:0:
256,192,6580,1,0,0:0:0:0:
256,192,6880,1,0,0:0:0:0:
256,192,7180,1,4,0:0:0:0:
256,192,7480,1,0,0:0:0:0:
256,192,7780,1,0,0:0:0:0:
256,192,8080,1,0,0:0:0:0:
256,192,8380,1,4,0:0:0:0:
256,192,8680,1,8,0:0:0:0:
256,192,8830,1,0,0:0:0:0:
256,192,8980,1,8,0:0:0:0:
256,192,9130,1,8,0:0:0:0:
256,192,9205,1,8,0:0:0:0:
256,192,9280,1,8,0:0:0:0:
256,192,9580,1,0,0:0:0:0:
256,192,10780,1,4,0:0:0:0:
256,192,11080,1,8,0:0:0:0:
256,192,11380,1,0,0:0:0:0:
256,192,11530,1,8,0:0:0:0:
256,192,11605,1,8,0:0:0:0:
256,192,11680,1,8,0:0:0:0:
256,192,11830,1,0,0:0:0:0:
256,192,11980,1,8,0:0:0:0:
256,192,12280,1,0,0:0:0:0:
256,192,12430,1,0,0:0:0:0:
256,192,12580,1,8,0:0:0:0:
256,192,12880,1,8,0:0:0:0:
256,192,13030,1,8,0:0:0:0:
256,192,13180,1,0,0:0:0:0:
256,192,13480,1,8,0:0:0:0:
256,192,13780,1,8,0:0:0:0:
256,192,13930,1,8,0:0:0:0:
256,192,14005,1,8,0:0:0:0:
256,192,14080,1,8,0:0:0:0:
256,192,14230,1,0,0:0:0:0:
256,192,14380,1,8,0:0:0:0:
256,192,14680,1,0,0:0:0:0:
256,192,14830,1,8,0:0:0:0:
256,192,14980,1,8,0:0:0:0:
256,192,15280,1,0,0:0:0:0:
256,192,15430,1,8,0:0:0:0:
256,192,15580,1,0,0:0:0:0:
256,192,16030,1,8,0:0:0:0:
256,192,16180,1,0,0:0:0:0:
256,192,16330,1,8,0:0:0:0:
256,192,16405,1,8,0:0:0:0:
256,192,16480,1,8,0:0:0:0:
256,192,16630,1,0,0:0:0:0:
256,192,16780,1,8,0:0:0:0:
256,192,17080,1,0,0:0:0:0:
256,192,17230,1,0,0:0:0:0:
256,192,17380,1,8,0:0:0:0:
256,192,17680,1,0,0:0:0:0:
256,192,17830,1,8,0:0:0:0:
256,192,17980,1,0,0:0:0:0:
256,192,18280,1,8,0:0:0:0:
256,192,18580,1,8,0:0:0:0:
256,192,18730,1,8,0:0:0:0:
256,192,18805,1,8,0:0:0:0:
256,192,18880,1,8,0:0:0:0:
256,192,19030,1,0,0:0:0:0:
256,192,19180,1,8,0:0:0:0:
256,192,19480,1,8,0:0:0:0:
256,192,19630,1,0,0:0:0:0:
256,192,19780,1,8,0:0:0:0:
256,192,20380,1,4,0:0:0:0:
256,192,20680,1,8,0:0:0:0:
256,192,20980,1,0,0:0:0:0:
256,192,21130,1,8,0:0:0:0:
256,192,21205,1,8,0:0:0:0:
256,192,21280,1,8,0:0:0:0:
256,192,21430,1,0,0:0:0:0:
256,192,21580,1,8,0:0:0:0:
256,192,21880,1,0,0:0:0:0:
256,192,22030,1,0,0:0:0:0:
256,192,22180,1,8,0:0:0:0:
256,192,22480,1,8,0:0:0:0:
256,192,22630,1,8,0:0:0:0:
256,192,22780,1,0,0:0:0:0:
256,192,23080,1,8,0:0:0:0:
256,192,23380,1,8,0:0:0:0:
256,192,23530,1,8,0:0:0:0:
256,192,23605,1,8,0:0:0:0:
256,192,23680,1,8,0:0:0:0:
256,192,23830,1,0,0:0:0:0:
256,192,23980,1,8,0:0:0:0:
256,192,24280,1,0,0:0:0:0:
256,192,24430,1,8,0:0:0:0:
256,192,24580,1,8,0:0:0:0:
256,192,24880,1,0,0:0:0:0:
256,192,25030,1,8,0:0:0:0:
256,192,25180,1,4,0:0:0:0:
256,192,25480,1,8,0:0:0:0:
256,192,25780,1,0,0:0:0:0:
256,192,25930,1,0,0:0:0:0:
256,192,26080,1,8,0:0:0:0:
256,192,26380,1,12,0:0:0:0:
256,192,26680,1,8,0:0:0:0:
256,192,26980,1,0,0:0:0:0:
256,192,27130,1,0,0:0:0:0:
256,192,27280,1,8,0:0:0:0:
256,192,27580,1,4,0:0:0:0:
256,192,27880,1,8,0:0:0:0:
256,192,28030,1,8,0:0:0:0:
256,192,28180,1,0,0:0:0:0:
256,192,28330,1,8,0:0:0:0:
256,192,28405,1,8,0:0:0:0:
256,192,28480,1,8,0:0:0:0:
256,192,28630,1,8,0:0:0:0:
256,192,28780,1,0,0:0:0:0:
256,192,29080,1,0,0:0:0:0:
256,192,29380,1,8,0:0:0:0:
256,192,29980,1,4,0:0:0:0:
256,192,30280,1,8,0:0:0:0:
256,192,30580,1,0,0:0:0:0:
256,192,30730,1,0,0:0:0:0:
256,192,30880,1,8,0:0:0:0:
256,192,31180,1,0,0:0:0:0:
256,192,31480,1,8,0:0:0:0:
256,192,31780,1,0,0:0:0:0:
256,192,31930,1,0,0:0:0:0:
256,192,32080,1,8,0:0:0:0:
256,192,32380,1,0,0:0:0:0:
256,192,32680,1,8,0:0:0:0:
256,192,32980,1,0,0:0:0:0:
256,192,33130,1,0,0:0:0:0:
256,192,33280,1,8,0:0:0:0:
256,192,33580,1,0,0:0:0:0:
256,192,33880,1,8,0:0:0:0:
256,192,34030,1,8,0:0:0:0:
256,192,34180,1,0,0:0:0:0:
256,192,34330,1,8,0:0:0:0:
256,192,34405,1,8,0:0:0:0:
256,192,34480,1,8,0:0:0:0:
256,192,34780,1,0,0:0:0:0:
256,192,35080,1,8,0:0:0:0:
256,192,35230,1,8,0:0:0:0:
256,192,35380,1,0,0:0:0:0:
256,192,35680,1,8,0:0:0:0:
256,192,35980,1,0,0:0:0:0:
256,192,36280,1,8,0:0:0:0:
256,192,36430,1,8,0:0:0:0:
256,192,36580,1,0,0:0:0:0:
256,192,36880,1,8,0:0:0:0:
256,192,37180,1,0,0:0:0:0:
256,192,37480,1,8,0:0:0:0:
256,192,37630,1,8,0:0:0:0:
256,192,37780,1,0,0:0:0:0:
256,192,38080,1,8,0:0:0:0:
256,192,38380,1,0,0:0:0:0:
256,192,38680,1,8,0:0:0:0:
256,192,38830,1,8,0:0:0:0:
256,192,38980,1,0,0:0:0:0:
256,192,39130,1,8,0:0:0:0:
256,192,39205,1,8,0:0:0:0:
256,192,39280,1,8,0:0:0:0:
256,192,39580,1,4,0:0:0:0:
256,192,40180,1,0,0:0:0:0:
256,192,40480,1,0,0:0:0:0:
256,192,40780,1,8,0:0:0:0:
256,192,41080,1,0,0:0:0:0:
256,192,41380,1,8,0:0:0:0:
256,192,41680,1,8,0:0:0:0:
256,192,41980,1,0,0:0:0:0:
256,192,42580,1,8,0:0:0:0:
256,192,42880,1,0,0:0:0:0:
256,192,43180,1,8,0:0:0:0:
256,192,43480,1,8,0:0:0:0:
256,192,43780,1,0,0:0:0:0:
256,192,43930,1,0,0:0:0:0:
256,192,44080,1,8,0:0:0:0:
256,192,44380,1,4,0:0:0:0:
256,192,44680,1,8,0:0:0:0:
256,192,44980,1,0,0:0:0:0:
256,192,45130,1,0,0:0:0:0:
256,192,45280,1,8,0:0:0:0:
256,192,45580,1,12,0:0:0:0:
256,192,45880,1,8,0:0:0:0:
256,192,46180,1,0,0:0:0:0:
256,192,46330,1,0,0:0:0:0:
256,192,46480,1,8,0:0:0:0:
256,192,46780,1,4,0:0:0:0:
256,192,47080,1,0,0:0:0:0:
256,192,47230,1,0,0:0:0:0:
256,192,47380,1,8,0:0:0:0:
256,192,47530,1,0,0:0:0:0:
256,192,47680,1,8,0:0:0:0:
256,192,47755,1,8,0:0:0:0:
256,192,47830,1,8,0:0:0:0:
256,192,47980,1,0,0:0:0:0:
256,192,49180,1,4,0:0:0:0:
256,192,49780,1,8,0:0:0:0:
256,192,50680,1,0,0:0:0:0:
256,192,50980,1,8,0:0:0:0:
256,192,51580,1,0,0:0:0:0:
256,192,52180,1,8,0:0:0:0:
256,192,52480,1,0,0:0:0:0:
256,192,52780,1,0,0:0:0:0:
256,192,53230,1,0,0:0:0:0:
256,192,53380,1,8,0:0:0:0:
256,192,53680,1,8,0:0:0:0:
256,192,53980,1,0,0:0:0:0:
256,192,54580,1,8,0:0:0:0:
256,192,55480,1,0,0:0:0:0:
256,192,55780,1,8,0:0:0:0:
256,192,56380,1,0,0:0:0:0:
256,192,56980,1,8,0:0:0:0:
256,192,57280,1,0,0:0:0:0:
256,192,57580,1,0,0:0:0:0:
256,192,58030,1,0,0:0:0:0:
256,192,58180,1,8,0:0:0:0:
256,192,58480,1,8,0:0:0:0:
256,192,58780,1,4,0:0:0:0:
256,192,59380,1,8,0:0:0:0:
256,192,59680,1,8,0:0:0:0:
256,192,59980,1,0,0:0:0:0:
256,192,60280,1,0,0:0:0:0:
256,192,60580,1,8,0:0:0:0:
256,192,61180,1,0,0:0:0:0:
256,192,61780,1,8,0:0:0:0:
256,192,62080,1,8,0:0:0:0:
256,192,62380,1,0,0:0:0:0:
256,192,62680,1,8,0:0:0:0:
256,192,62980,1,8,0:0:0:0:
256,192,63580,1,4,0:0:0:0:
256,192,63880,1,8,0:0:0:0:
256,192,64180,1,0,0:0:0:0:
256,192,64330,1,0,0:0:0:0:
256,192,64480,1,8,0:0:0:0:
256,192,64780,1,12,0:0:0:0:
256,192,65080,1,8,0:0:0:0:
256,192,65380,1,0,0:0:0:0:
256,192,65530,1,0,0:0:0:0:
256,192,65680,1,8,0:0:0:0:
256,192,65980,1,4,0:0:0:0:
256,192,66280,1,8,0:0:0:0:
256,192,66430,1,0,0:0:0:0:
256,192,66580,1,8,0:0:0:0:
256,192,66730,1,8,0:0:0:0:
256,192,66805,1,8,0:0:0:0:
256,192,66880,1,8,0:0:0:0:
256,192,67180,1,0,0:0:0:0:
256,192,68380,1,4,0:0:0:0:
256,192,69580,1,8,0:0:0:0:
256,192,70780,1,0,0:0:0:0:
256,192,71980,1,8,0:0:0:0:
256,192,73180,1,0,0:0:0:0:
256,192,74380,1,8,0:0:0:0:
256,192,75580,1,0,0:0:0:0:
256,192,76780,1,8,0:0:0:0:
256,192,77680,1,8,0:0:0:0:
256,192,77980,1,4,0:0:0:0:
256,192,78430,1,8,0:0:0:0:
256,192,78730,1,0,0:0:0:0:
256,192,78805,1,0,0:0:0:0:
256,192,78880,1,0,0:0:0:0:
256,192,79030,1,0,0:0:0:0:
256,192,79180,1,8,0:0:0:0:
256,192,79630,1,0,0:0:0:0:
256,192,79930,1,8,0:0:0:0:
256,192,80005,1,8,0:0:0:0:
256,192,80080,1,8,0:0:0:0:
256,192,80230,1,8,0:0:0:0:
256,192,80380,1,0,0:0:0:0:
256,192,80830,1,8,0:0:0:0:
256,192,80980,1,0,0:0:0:0:
256,192,81130,1,8,0:0:0:0:
256,192,81205,1,8,0:0:0:0:
256,192,81280,1,8,0:0:0:0:
256,192,81580,1,0,0:0:0:0:
256,192,81805,1,8,0:0:0:0:
256,192,82030,1,8,0:0:0:0:
256,192,82480,1,8,0:0:0:0:
256,192,82780,1,4,0:0:0:0:
256,192,83080,1,8,0:0:0:0:
256,192,83380,1,0,0:0:0:0:
256,192,83530,1,0,0:0:0:0:
256,192,83680,1,8,0:0:0:0:
256,192,83980,1,12,0:0:0:0:
256,192,84280,1,8,0:0:0:0:
256,192,84580,1,0,0:0:0:0:
256,192,84730,1,0,0:0:0:0:
256,192,84880,1,8,0:0:0:0:
256,192,85180,1,4,0:0:0:0:
256,192,85405,1,0,0:0:0:0:
256,192,85630,1,8,0:0:0:0:
256,192,85780,1,0,0:0:0:0:
256,192,85930,1,8,0:0:0:0:
256,192,86005,1,8,0:0:0:0:
256,192,86080,1,8,0:0:0:0:
256,192,86230,1,8,0:0:0:0:
256,192,86380,1,0,0:0:0:0:
256,192,87580,1,4,0:0:0:0:
256,192,88030,1,0,0:0:0:0:
256,192,88330,1,8,0:0:0:0:
256,192,88405,1,8,0:0:0:0:
256,192,88480,1,8,0:0:0:0:
256,192,88630,1,0,0:0:0:0:
256,192,88780,1,8,0:0:0:0:
256,192,89230,1,0,0:0:0:0:
256,192,89530,1,0,0:0:0:0:
256,192,89605,1,0,0:0:0:0:
256,192,89680,1,0,0:0:0:0:
256,192,89830,1,8,0:0:0:0:
256,192,89980,1,0,0:0:0:0:
256,192,90430,1,8,0:0:0:0:
256,192,90580,1,0,0:0:0:0:
256,192,90730,1,8,0:0:0:0:
256,192,90805,1,8,0:0:0:0:
256,192,90880,1,8,0:0:0:0:
256,192,91180,1,0,0:0:0:0:
256,192,91405,1,0,0:0:0:0:
256,192,91630,1,8,0:0:0:0:
256,192,92080,1,8,0:0:0:0:
256,192,92380,1,0,0:0:0:0:
256,192,92830,1,8,0:0:0:0:
256,192,93130,1,0,0:0:0:0:
256,192,93205,1,0,0:0:0:0:
256,192,93280,1,0,0:0:0:0:
256,192,93430,1,8,0:0:0:0:
256,192,93580,1,0,0:0:0:0:
256,192,93805,1,8,0:0:0:0:
256,192,94030,1,8,0:0:0:0:
256,192,94180,1,0,0:0:0:0:
256,192,94405,1,0,0:0:0:0:
256,192,94630,1,8,0:0:0:0:
256,192,94780,1,0,0:0:0:0:
256,192,95230,1,8,0:0:0:0:
256,192,95380,1,0,0:0:0:0:
256,192,95530,1,8,0:0:0:0:
256,192,95605,1,8,0:0:0:0:
256,192,95680,1,8,0:0:0:0:
256,192,95980,1,0,0:0:0:0:
256,192,96205,1,0,0:0:0:0:
256,192,96430,1,0,0:0:0:0:
256,192,96580,1,8,0:0:0:0:
256,192,97180,1,4,0:0:0:0:
256,192,97630,1,8,0:0:0:0:
256,192,97930,1,8,0:0:0:0:
256,192,98005,1,8,0:0:0:0:
256,192,98080,1,8,0:0:0:0:
256,192,98230,1,0,0:0:0:0:
256,192,98380,1,8,0:0:0:0:
256,192,98830,1,0,0:0:0:0:
256,192,99130,1,0,0:0:0:0:
256,192,99205,1,0,0:0:0:0:
256,192,99280,1,0,0:0:0:0:
256,192,99430,1,8,0:0:0:0:
256,192,99580,1,0,0:0:0:0:
256,192,100030,1,8,0:0:0:0:
256,192,100180,1,0,0:0:0:0:
256,192,100330,1,8,0:0:0:0:
256,192,100405,1,8,0:0:0:0:
256,192,100480,1,8,0:0:0:0:
256,192,100780,1,0,0:0:0:0:
256,192,101005,1,0,0:0:0:0:
256,192,101230,1,8,0:0:0:0:
256,192,101680,1,8,0:0:0:0:
256,192,101980,1,4,0:0:0:0:
256,192,102280,1,8,0:0:0:0:
256,192,102430,1,0,0:0:0:0:
256,192,102580,1,0,0:0:0:0:
256,192,102730,1,0,0:0:0:0:
256,192,102880,1,8,0:0:0:0:
256,192,103180,1,12,0:0:0:0:
256,192,103480,1,8,0:0:0:0:
256,192,103630,1,8,0:0:0:0:
256,192,103780,1,0,0:0:0:0:
256,192,103930,1,0,0:0:0:0:
256,192,104080,1,8,0:0:0:0:
256,192,104380,1,4,0:0:0:0:
256,192,104605,1,0,0:0:0:0:
256,192,104830,1,8,0:0:0:0:
256,192,104980,1,0,0:0:0:0:
256,192,105130,1,8,0:0:0:0:
256,192,105205,1,8,0:0:0:0:
256,192,105280,1,8,0:0:0:0:
256,192,105430,1,8,0:0:0:0:
256,192,105580,1,0,0:0:0:0:
256,192,105880,1,0,0:0:0:0:
256,192,106030,1,0,0:0:0:0:
256,192,106180,1,8,0:0:0:0:
256,192,106780,1,4,0:0:0:0:
256,192,107230,1,8,0:0:0:0:
256,192,107530,1,8,0:0:0:0:
256,192,107605,1,8,0:0:0:0:
256,192,107680,1,8,0:0:0:0:
256,192,107830,1,0,0:0:0:0:
256,192,107980,1,8,0:0:0:0:
256,192,108430,1,0,0:0:0:0:
256,192,108730,1,0,0:0:0:0:
256,192,108805,1,0,0:0:0:0:
256,192,108880,1,0,0:0:0:0:
256,192,109030,1,8,0:0:0:0:
256,192,109180,1,0,0:0:0:0:
256,192,109630,1,8,0:0:0:0:
256,192,109780,1,0,0:0:0:0:
256,192,109930,1,8,0:0:0:0:
256,192,110005,1,8,0:0:0:0:
256,192,110080,1,8,0:0:0:0:
256,192,110230,1,8,0:0:0:0:
256,192,110380,1,0,0:0:0:0:
256,192,110605,1,0,0:0:0:0:
256,192,110830,1,8,0:0:0:0:
256,192,111280,1,8,0:0:0:0:
256,192,111430,1,8,0:0:0:0:
256,192,111580,1,0,0:0:0:0:
256,192,112030,1,8,0:0:0:0:
256,192,112330,1,8,0:0:0:0:
256,192,112405,1,8,0:0:0:0:
256,192,112480,1,8,0:0:0:0:
256,192,112630,1,8,0:0:0:0:
256,192,112780,1,0,0:0:0:0:
256,192,113005,1,8,0:0:0:0:
256,192,113230,1,8,0:0:0:0:
256,192,113380,1,0,0:0:0:0:
256,192,113605,1,0,0:0:0:0:
256,192,113830,1,8,0:0:0:0:
256,192,113980,1,0,0:0:0:0:
256,192,114430,1,8,0:0:0:0:
256,192,114580,1,0,0:0:0:0:
256,192,114730,1,8,0:0:0:0:
256,192,114805,1,8,0:0:0:0:
256,192,114880,1,8,0:0:0:0:
256,192,115180,1,0,0:0:0:0:
256,192,115405,1,8,0:0:0:0:
256,192,115630,1,0,0:0:0:0:
256,192,115780,1,8,0:0:0:0:
256,192,116380,1,4,0:0:0:0:
256,192,116830,1,0,0:0:0:0:
256,192,117130,1,8,0:0:0:0:
256,192,117205,1,8,0:0:0:0:
256,192,117280,1,8,0:0:0:0:
256,192,117430,1,0,0:0:0:0:
256,192,117580,1,8,0:0:0:0:
256,192,118030,1,8,0:0:0:0:
256,192,118330,1,0,0:0:0:0:
256,192,118405,1,0,0:0:0:0:
256,192,118480,1,0,0:0:0:0:
256,192,118630,1,8,0:0:0:0:
256,192,118780,1,0,0:0:0:0:
256,192,119230,1,8,0:0:0:0:
256,192,119380,1,0,0:0:0:0:
256,192,119530,1,8,0:0:0:0:
256,192,119605,1,8,0:0:0:0:
256,192,119680,1,8,0:0:0:0:
256,192,119830,1,0,0:0:0:0:
256,192,119980,1,8,0:0:0:0:
256,192,120205,1,0,0:0:0:0:
256,192,120430,1,8,0:0:0:0:
256,192,120880,1,8,0:0:0:0:
256,192,121030,1,8,0:0:0:0:
256,192,121180,1,4,0:0:0:0:
256,192,121480,1,8,0:0:0:0:
256,192,121630,1,0,0:0:0:0:
256,192,121780,1,0,0:0:0:0:
256,192,121930,1,0,0:0:0:0:
256,192,122080,1,8,0:0:0:0:
256,192,122380,1,12,0:0:0:0:
256,192,122680,1,8,0:0:0:0:
256,192,122830,1,8,0:0:0:0:
256,192,122980,1,0,0:0:0:0:
256,192,123130,1,0,0:0:0:0:
256,192,123280,1,8,0:0:0:0:
256,192,123580,1,4,0:0:0:0:
256,192,123805,1,0,0:0:0:0:
256,192,124030,1,8,0:0:0:0:
256,192,124180,1,0,0:0:0:0:
256,192,124330,1,8,0:0:0:0:
256,192,124405,1,8,0:0:0:0:
256,192,124480,1,8,0:0:0:0:
256,192,124630,1,8,0:0:0:0:
256,192,124780,1,0,0:0:0:0:
256,192,124930,1,8,0:0:0:0:
256,192,125080,1,0,0:0:0:0:
256,192,125230,1,0,0:0:0:0:
256,192,125380,1,8,0:0:0:0:
256,192,125980,1,4,0:0:0:0:
