osu file format v14

[General]
AudioFilename: audio.mp3
AudioLeadIn: 0
PreviewTime: 68080
Countdown: 0
SampleSet: Normal
StackLeniency: 0.7
Mode: 1
LetterboxInBreaks: 0
WidescreenStoryboard: 0

[Editor]
Bookmarks: 1180,10780,20380,29980,39580,49180,58780,68380,77980,87580,97180,106780,116380,125980
DistanceSpacing: 1
BeatDivisor: 4
GridSize: 32
TimelineZoom: 2.1

[Metadata]
Title:Nadeshiko Sensation
TitleUnicode:Nadeshiko Sensation
Artist:yuki.
ArtistUnicode:yuki.
Creator:hikikochan
Version:Inner Oni
Source:osu!
Tags:community beatmapping contest cbc 2016
BeatmapID:1181471
BeatmapSetID:558569

[Difficulty]
HPDrainRate:6
CircleSize:2
OverallDifficulty:6
ApproachRate:5
SliderMultiplier:1.4
SliderTickRate:1

[Events]
//Background and Video events
0,0,"Nadeshiko Sensation B.jpg",0,0
//Break Periods
//Storyboard Layer 0 (Background)
//Storyboard Layer 1 (Fail)
//Storyboard Layer 2 (Pass)
//Storyboard Layer 3 (Foreground)
//Storyboard Sound Samples

[TimingPoints]
1180,300,4,1,0,80,1,0
1180,-125,4,1,0,80,0,0
2005,-76.9230769230769,4,2,1,100,0,0
2155,-125,4,1,0,80,0,0
5605,-71.4285714285714,4,2,1,100,0,0
5755,-111.111111111111,4,1,0,90,0,0
8980,-109.89010989011,4,1,0,90,0,0
9055,-108.695652173913,4,1,0,90,0,0
9130,-107.52688172043,4,1,0,90,0,0
9205,-106.382978723404,4,1,0,90,0,0
9280,-105.263157894737,4,1,0,90,0,0
9355,-104.166666666667,4,1,0,90,0,0
9430,-103.092783505155,4,1,0,90,0,0
9505,-102.040816326531,4,1,0,90,0,0
9580,-101.010101010101,4,1,0,90,0,0
10405,-66.6666666666667,4,2,1,100,0,0
10705,-100,4,1,0,100,0,0
10780,-100,4,1,0,100,0,1
19855,-66.6666666666667,4,2,1,100,0,1
20305,-100,4,1,0,100,0,1
20380,-100,4,1,0,100,0,1
29455,-66.6666666666667,4,2,1,100,0,1
29755,-66.6666666666667,4,1,0,90,0,1
29980,-111.111111111111,4,1,0,90,0,0
38605,-109.89010989011,4,1,0,90,0,0
38680,-108.695652173913,4,1,0,90,0,0
38830,-107.52688172043,4,1,0,90,0,0
38980,-106.382978723404,4,1,0,90,0,0
39130,-105.263157894737,4,1,0,90,0,0
39180,-104.166666666667,4,1,0,90,0,0
39230,-103.092783505155,4,1,0,90,0,0
39280,-102.040816326531,4,1,0,90,0,0
39430,-101.010101010101,4,1,0,90,0,0
39580,-100,4,1,0,95,0,0
48130,-101.010101010101,4,1,0,95,0,0
48280,-102.040816326531,4,1,0,95,0,0
48430,-103.092783505155,4,1,0,95,0,0
48580,-104.166666666667,4,1,0,95,0,0
48730,-105.263157894737,4,1,0,95,0,0
48780,-106.382978723404,4,1,0,95,0,0
48830,-107.52688172043,4,1,0,95,0,0
48880,-108.695652173913,4,1,0,95,0,0
49030,-109.89010989011,4,1,0,95,0,0
49180,-111.111111111111,4,1,0,90,0,0
53605,-76.9230769230769,4,2,1,100,0,0
53755,-111.111111111111,4,1,0,90,0,0
58405,-71.4285714285714,4,2,1,100,0,0
58555,-105.263157894737,4,1,0,95,0,0
63205,-66.6666666666667,4,2,1,100,0,0
63355,-100,4,1,0,95,0,0
68380,-125,4,1,0,80,0,0
77680,-105.263157894737,4,1,0,80,0,0
77980,-100,4,1,0,95,0,0
87205,-66.6666666666667,4,2,1,100,0,0
87355,-100,4,1,0,100,0,0
87580,-100,4,1,0,100,0,1
96655,-66.6666666666667,4,2,1,100,0,1
97105,-100,4,1,0,100,0,1
106255,-66.6666666666667,4,2,1,100,0,1
106555,-95.2380952380952,4,1,0,100,0,1
115855,-66.6666666666667,4,2,1,100,0,1
116305,-95.2380952380952,4,1,0,100,0,1
125455,-66.6666666666667,4,2,1,100,0,1
125755,-66.6666666666667,4,1,0,100,0,1
125980,-100,4,1,0,95,0,0

[HitObjects]
256,192,1180,5,4,0:0:0:0:
256,192,2080,1,8,0:0:0:0:
256,192,2380,1,8,0:0:0:0:
256,192,3580,1,0,0:0:0:0:
256,192,4780,1,8,0:0:0:0:
256,192,5680,1,8,0:0:0:0:
256,192,5980,1,4,0:0:0:0:
256,192,6280,1,0,0:0:0:0:
256,192,6580,1,0,0:0:0:0:
256,192,6880,1,0,0:0:0:0:
256,192,7180,1,4,0:0:0:0:
256,192,7480,1,0,0:0:0:0:
256,192,7780,1,0,0:0:0:0:
256,192,8080,1,0,0:0:0:0:
256,192,8380,1,4,0:0:0:0:
256,192,8530,1,0,0:0:0:0:
256,192,8680,1,8,0:0:0:0:
256,192,8830,1,0,0:0:0:0:
256,192,8980,1,8,0:0:0:0:
256,192,9055,1,8,0:0:0:0:
256,192,9130,1,0,0:0:0:0:
256,192,9205,1,0,0:0:0:0:
256,192,9280,1,8,0:0:0:0:
256,192,9355,1,0,0:0:0:0:
256,192,9430,1,8,0:0:0:0:
256,192,9505,1,8,0:0:0:0:
256,192,9580,1,0,0:0:0:0:
256,192,10480,1,8,0:0:0:0:
256,192,10780,1,4,0:0:0:0:
256,192,10930,1,0,0:0:0:0:
256,192,11005,1,0,0:0:0:0:
256,192,11080,1,8,0:0:0:0:
256,192,11230,1,0,0:0:0:0:
256,192,11380,1,8,0:0:0:0:
256,192,11530,1,0,0:0:0:0:
256,192,11580,1,8,0:0:0:0:
256,192,11630,1,8,0:0:0:0:
256,192,11680,1,0,0:0:0:0:
256,192,11830,1,0,0:0:0:0:
256,192,11980,1,8,0:0:0:0:
256,192,12130,1,8,0:0:0:0:
256,192,12205,1,8,0:0:0:0:
256,192,12280,1,0,0:0:0:0:
256,192,12430,1,0,0:0:0:0:
256,192,12580,1,8,0:0:0:0:
256,192,12880,1,0,0:0:0:0:
256,192,13030,1,0,0:0:0:0:
256,192,13180,1,8,0:0:0:0:
256,192,13330,1,0,0:0:0:0:
256,192,13405,1,0,0:0:0:0:
256,192,13480,1,8,0:0:0:0:
256,192,13630,1,8,0:0:0:0:
256,192,13780,1,0,0:0:0:0:
256,192,13930,1,8,0:0:0:0:
256,192,13980,1,8,0:0:0:0:
256,192,14030,1,8,0:0:0:0:
256,192,14080,1,0,0:0:0:0:
256,192,14230,1,0,0:0:0:0:
256,192,14380,1,8,0:0:0:0:
256,192,14530,1,0,0:0:0:0:
256,192,14605,1,0,0:0:0:0:
256,192,14680,1,8,0:0:0:0:
256,192,14755,1,8,0:0:0:0:
256,192,14830,1,0,0:0:0:0:
256,192,14980,1,8,0:0:0:0:
256,192,15280,1,0,0:0:0:0:
256,192,15430,1,8,0:0:0:0:
256,192,15580,1,0,0:0:0:0:
256,192,15730,1,0,0:0:0:0:
256,192,15805,1,0,0:0:0:0:
256,192,15880,1,8,0:0:0:0:
256,192,16030,1,0,0:0:0:0:
256,192,16180,1,8,0:0:0:0:
256,192,16255,1,8,0:0:0:0:
256,192,16330,1,0,0:0:0:0:
256,192,16405,1,0,0:0:0:0:
256,192,16480,1,8,0:0:0:0:
256,192,16630,1,0,0:0:0:0:
256,192,16780,1,8,0:0:0:0:
256,192,16930,1,8,0:0:0:0:
256,192,17005,1,8,0:0:0:0:
256,192,17080,1,0,0:0:0:0:
256,192,17230,1,0,0:0:0:0:
256,192,17380,1,8,0:0:0:0:
256,192,17680,1,0,0:0:0:0:
256,192,17830,1,8,0:0:0:0:
256,192,17980,1,0,0:0:0:0:
256,192,18130,1,0,0:0:0:0:
256,192,18205,1,0,0:0:0:0:
256,192,18280,1,8,0:0:0:0:
256,192,18430,1,0,0:0:0:0:
256,192,18580,1,8,0:0:0:0:
256,192,18730,1,0,0:0:0:0:
256,192,18780,1,8,0:0:0:0:
256,192,18830,1,8,0:0:0:0:
256,192,18880,1,0,0:0:0:0:
256,192,19030,1,0,0:0:0:0:
256,192,19180,1,8,0:0:0:0:
256,192,19330,1,0,0:0:0:0:
256,192,19405,1,0,0:0:0:0:
256,192,19480,1,8,0:0:0:0:
256,192,19555,1,8,0:0:0:0:
256,192,19630,1,0,0:0:0:0:
256,192,19780,1,8,0:0:0:0:
256,192,19930,1,8,0:0:0:0:
256,192,20080,1,8,0:0:0:0:
256,192,20230,1,8,0:0:0:0:
256,192,20380,1,4,0:0:0:0:
256,192,20530,1,0,0:0:0:0:
256,192,20605,1,0,0:0:0:0:
256,192,20680,1,8,0:0:0:0:
256,192,20830,1,0,0:0:0:0:
256,192,20980,1,8,0:0:0:0:
256,192,21130,1,0,0:0:0:0:
256,192,21180,1,8,0:0:0:0:
256,192,21230,1,8,0:0:0:0:
256,192,21280,1,0,0:0:0:0:
256,192,21430,1,0,0:0:0:0:
256,192,21580,1,8,0:0:0:0:
256,192,21730,1,0,0:0:0:0:
256,192,21880,1,8,0:0:0:0:
256,192,21955,1,0,0:0:0:0:
256,192,22030,1,0,0:0:0:0:
256,192,22105,1,0,0:0:0:0:
256,192,22180,1,8,0:0:0:0:
256,192,22480,1,0,0:0:0:0:
256,192,22630,1,8,0:0:0:0:
256,192,22780,1,8,0:0:0:0:
256,192,22930,1,0,0:0:0:0:
256,192,23005,1,0,0:0:0:0:
256,192,23080,1,8,0:0:0:0:
256,192,23230,1,8,0:0:0:0:
256,192,23380,1,0,0:0:0:0:
256,192,23530,1,8,0:0:0:0:
256,192,23580,1,8,0:0:0:0:
256,192,23630,1,8,0:0:0:0:
256,192,23680,1,0,0:0:0:0:
256,192,23830,1,0,0:0:0:0:
256,192,23980,1,8,0:0:0:0:
256,192,24130,1,0,0:0:0:0:
256,192,24280,1,8,0:0:0:0:
256,192,24355,1,8,0:0:0:0:
256,192,24430,1,0,0:0:0:0:
256,192,24505,1,0,0:0:0:0:
256,192,24580,1,8,0:0:0:0:
256,192,24880,1,8,0:0:0:0:
256,192,25030,1,8,0:0:0:0:
256,192,25180,1,4,0:0:0:0:
256,192,25330,1,0,0:0:0:0:
256,192,25405,1,0,0:0:0:0:
256,192,25480,1,8,0:0:0:0:
256,192,25630,1,0,0:0:0:0:
256,192,25780,1,8,0:0:0:0:
256,192,25855,1,0,0:0:0:0:
256,192,25930,1,0,0:0:0:0:
256,192,26005,1,0,0:0:0:0:
256,192,26080,1,8,0:0:0:0:
256,192,26230,1,0,0:0:0:0:
256,192,26380,1,12,0:0:0:0:
256,192,26530,1,0,0:0:0:0:
256,192,26605,1,0,0:0:0:0:
256,192,26680,1,8,0:0:0:0:
256,192,26830,1,0,0:0:0:0:
256,192,26980,1,8,0:0:0:0:
256,192,27055,1,8,0:0:0:0:
256,192,27130,1,0,0:0:0:0:
256,192,27205,1,0,0:0:0:0:
256,192,27280,1,8,0:0:0:0:
256,192,27430,1,8,0:0:0:0:
256,192,27580,1,0,0:0:0:0:
256,192,27655,1,0,0:0:0:0:
256,192,27730,1,0,0:0:0:0:
256,192,27805,1,0,0:0:0:0:
256,192,27880,1,8,0:0:0:0:
256,192,27955,1,0,0:0:0:0:
256,192,28030,1,0,0:0:0:0:
256,192,28105,1,0,0:0:0:0:
256,192,28180,1,8,0:0:0:0:
256,192,28255,1,8,0:0:0:0:
256,192,28330,1,0,0:0:0:0:
256,192,28405,1,0,0:0:0:0:
256,192,28480,1,8,0:0:0:0:
256,192,28555,1,8,0:0:0:0:
256,192,28630,1,8,0:0:0:0:
256,192,28705,1,8,0:0:0:0:
256,192,28780,1,0,0:0:0:0:
256,192,28930,1,8,0:0:0:0:
256,192,29080,1,0,0:0:0:0:
256,192,29230,1,0,0:0:0:0:
256,192,29380,1,8,0:0:0:0:
256,192,29530,1,8,0:0:0:0:
256,192,29680,1,8,0:0:0:0:
256,192,29980,1,4,0:0:0:0:
256,192,30280,1,8,0:0:0:0:
256,192,30430,1,0,0:0:0:0:
256,192,30580,1,0,0:0:0:0:
256,192,30730,1,0,0:0:0:0:
256,192,30880,1,8,0:0:0:0:
256,192,31030,1,8,0:0:0:0:
256,192,31180,1,0,0:0:0:0:
256,192,31480,1,8,0:0:0:0:
256,192,31630,1,0,0:0:0:0:
256,192,31780,1,0,0:0:0:0:
256,192,31930,1,0,0:0:0:0:
256,192,32080,1,8,0:0:0:0:
256,192,32230,1,8,0:0:0:0:
256,192,32380,1,0,0:0:0:0:
256,192,32680,1,8,0:0:0:0:
256,192,32830,1,0,0:0:0:0:
256,192,32980,1,0,0:0:0:0:
256,192,33130,1,0,0:0:0:0:
256,192,33280,1,8,0:0:0:0:
256,192,33430,1,0,0:0:0:0:
256,192,33580,1,8,0:0:0:0:
256,192,33730,1,0,0:0:0:0:
256,192,33880,1,8,0:0:0:0:
256,192,34030,1,8,0:0:0:0:
256,192,34180,1,0,0:0:0:0:
256,192,34330,1,8,0:0:0:0:
256,192,34380,1,8,0:0:0:0:
256,192,34430,1,8,0:0:0:0:
256,192,34480,1,0,0:0:0:0:
256,192,34630,1,8,0:0:0:0:
256,192,34780,1,0,0:0:0:0:
256,192,35080,1,8,0:0:0:0:
256,192,35230,1,8,0:0:0:0:
256,192,35380,1,0,0:0:0:0:
256,192,35530,1,0,0:0:0:0:
256,192,35680,1,8,0:0:0:0:
256,192,35830,1,8,0:0:0:0:
256,192,35980,1,0,0:0:0:0:
256,192,36280,1,8,0:0:0:0:
256,192,36430,1,8,0:0:0:0:
256,192,36580,1,0,0:0:0:0:
256,192,36730,1,0,0:0:0:0:
256,192,36880,1,8,0:0:0:0:
256,192,37030,1,8,0:0:0:0:
256,192,37180,1,0,0:0:0:0:
256,192,37480,1,8,0:0:0:0:
256,192,37630,1,8,0:0:0:0:
256,192,37780,1,0,0:0:0:0:
256,192,37930,1,0,0:0:0:0:
256,192,38080,1,8,0:0:0:0:
256,192,38230,1,0,0:0:0:0:
256,192,38380,1,8,0:0:0:0:
256,192,38530,1,0,0:0:0:0:
256,192,38605,1,0,0:0:0:0:
256,192,38680,1,8,0:0:0:0:
256,192,38830,1,8,0:0:0:0:
256,192,38980,1,0,0:0:0:0:
256,192,39130,1,8,0:0:0:0:
256,192,39180,1,8,0:0:0:0:
256,192,39230,1,8,0:0:0:0:
256,192,39280,1,0,0:0:0:0:
256,192,39430,1,8,0:0:0:0:
256,192,39580,1,0,0:0:0:0:
256,192,39880,1,8,0:0:0:0:
256,192,40180,1,0,0:0:0:0:
256,192,40330,1,0,0:0:0:0:
256,192,40480,1,8,0:0:0:0:
256,192,40780,1,0,0:0:0:0:
256,192,41080,1,8,0:0:0:0:
256,192,41380,1,0,0:0:0:0:
256,192,41530,1,8,0:0:0:0:
256,192,41680,1,8,0:0:0:0:
256,192,41980,1,0,0:0:0:0:
256,192,42280,1,8,0:0:0:0:
256,192,42580,1,0,0:0:0:0:
256,192,42730,1,0,0:0:0:0:
256,192,42880,1,8,0:0:0:0:
256,192,43030,1,8,0:0:0:0:
256,192,43180,1,0,0:0:0:0:
256,192,43330,1,0,0:0:0:0:
256,192,43480,1,8,0:0:0:0:
256,192,43580,1,8,0:0:0:0:
256,192,43680,1,8,0:0:0:0:
256,192,43780,1,0,0:0:0:0:
256,192,43930,1,0,0:0:0:0:
256,192,44080,1,8,0:0:0:0:
256,192,44380,1,4,0:0:0:0:
256,192,44530,1,0,0:0:0:0:
256,192,44605,1,0,0:0:0:0:
256,192,44680,1,8,0:0:0:0:
256,192,44830,1,0,0:0:0:0:
256,192,44980,1,8,0:0:0:0:
256,192,45055,1,8,0:0:0:0:
256,192,45130,1,0,0:0:0:0:
256,192,45280,1,8,0:0:0:0:
256,192,45430,1,0,0:0:0:0:
256,192,45580,1,12,0:0:0:0:
256,192,45730,1,0,0:0:0:0:
256,192,45805,1,0,0:0:0:0:
256,192,45880,1,8,0:0:0:0:
256,192,46030,1,0,0:0:0:0:
256,192,46180,1,8,0:0:0:0:
256,192,46255,1,8,0:0:0:0:
256,192,46330,1,8,0:0:0:0:
256,192,46480,1,0,0:0:0:0:
256,192,46630,1,8,0:0:0:0:
256,192,46780,1,0,0:0:0:0:
256,192,46855,1,0,0:0:0:0:
256,192,46930,1,0,0:0:0:0:
256,192,47005,1,0,0:0:0:0:
256,192,47080,1,8,0:0:0:0:
256,192,47155,1,0,0:0:0:0:
256,192,47230,1,0,0:0:0:0:
256,192,47305,1,0,0:0:0:0:
256,192,47380,1,8,0:0:0:0:
256,192,47455,1,8,0:0:0:0:
256,192,47530,1,0,0:0:0:0:
256,192,47605,1,0,0:0:0:0:
256,192,47680,1,8,0:0:0:0:
256,192,47755,1,8,0:0:0:0:
256,192,47830,1,8,0:0:0:0:
256,192,47905,1,8,0:0:0:0:
256,192,47980,1,0,0:0:0:0:
256,192,48130,1,0,0:0:0:0:
256,192,48280,1,8,0:0:0:0:
256,192,48430,1,8,0:0:0:0:
256,192,48580,1,0,0:0:0:0:
256,192,48730,1,8,0:0:0:0:
256,192,48780,1,8,0:0:0:0:
256,192,48830,1,8,0:0:0:0:
256,192,48880,1,0,0:0:0:0:
256,192,49030,1,8,0:0:0:0:
256,192,49180,1,4,0:0:0:0:
256,192,49780,1,8,0:0:0:0:
256,192,50680,1,0,0:0:0:0:
256,192,50980,1,8,0:0:0:0:
256,192,51580,1,0,0:0:0:0:
256,192,52180,1,8,0:0:0:0:
256,192,52480,1,0,0:0:0:0:
256,192,52780,1,0,0:0:0:0:
256,192,53005,1,0,0:0:0:0:
256,192,53230,1,0,0:0:0:0:
256,192,53380,1,8,0:0:0:0:
256,192,53680,1,8,0:0:0:0:
256,192,53980,1,0,0:0:0:0:
256,192,54580,1,8,0:0:0:0:
256,192,55480,1,0,0:0:0:0:
256,192,55780,1,8,0:0:0:0:
256,192,56380,1,0,0:0:0:0:
256,192,56980,1,8,0:0:0:0:
256,192,57280,1,0,0:0:0:0:
256,192,57580,1,0,0:0:0:0:
256,192,57805,1,0,0:0:0:0:
256,192,58030,1,0,0:0:0:0:
256,192,58180,1,8,0:0:0:0:
256,192,58480,1,8,0:0:0:0:
256,192,58780,1,4,0:0:0:0:
256,192,59080,1,8,0:0:0:0:
256,192,59380,1,0,0:0:0:0:
256,192,59680,1,8,0:0:0:0:
256,192,59980,1,0,0:0:0:0:
256,192,60280,1,8,0:0:0:0:
256,192,60580,1,0,0:0:0:0:
256,192,60880,1,8,0:0:0:0:
256,192,61180,1,0,0:0:0:0:
256,192,61480,1,8,0:0:0:0:
256,192,61705,1,8,0:0:0:0:
256,192,61780,1,0,0:0:0:0:
256,192,62080,1,8,0:0:0:0:
256,192,62380,1,0,0:0:0:0:
256,192,62605,1,0,0:0:0:0:
256,192,62680,1,8,0:0:0:0:
256,192,62905,1,8,0:0:0:0:
256,192,62980,1,0,0:0:0:0:
256,192,63280,1,8,0:0:0:0:
256,192,63580,1,4,0:0:0:0:
256,192,63730,1,0,0:0:0:0:
256,192,63805,1,0,0:0:0:0:
256,192,63880,1,8,0:0:0:0:
256,192,64030,1,0,0:0:0:0:
256,192,64180,1,8,0:0:0:0:
256,192,64255,1,0,0:0:0:0:
256,192,64330,1,0,0:0:0:0:
256,192,64405,1,0,0:0:0:0:
256,192,64480,1,8,0:0:0:0:
256,192,64630,1,0,0:0:0:0:
256,192,64780,1,12,0:0:0:0:
256,192,64930,1,0,0:0:0:0:
256,192,65005,1,0,0:0:0:0:
256,192,65080,1,8,0:0:0:0:
256,192,65230,1,0,0:0:0:0:
256,192,65380,1,8,0:0:0:0:
256,192,65455,1,8,0:0:0:0:
256,192,65530,1,0,0:0:0:0:
256,192,65605,1,0,0:0:0:0:
256,192,65680,1,8,0:0:0:0:
256,192,65830,1,8,0:0:0:0:
256,192,65980,1,0,0:0:0:0:
256,192,66055,1,0,0:0:0:0:
256,192,66130,1,0,0:0:0:0:
256,192,66205,1,0,0:0:0:0:
256,192,66280,1,8,0:0:0:0:
256,192,66355,1,0,0:0:0:0:
256,192,66430,1,0,0:0:0:0:
256,192,66505,1,0,0:0:0:0:
256,192,66580,1,8,0:0:0:0:
256,192,66655,1,8,0:0:0:0:
256,192,66730,1,0,0:0:0:0:
256,192,66780,1,0,0:0:0:0:
256,192,66830,1,0,0:0:0:0:
256,192,66880,1,8,0:0:0:0:
256,192,66955,1,8,0:0:0:0:
256,192,67030,1,8,0:0:0:0:
256,192,67105,1,8,0:0:0:0:
256,192,67180,1,0,0:0:0:0:
256,192,68380,1,4,0:0:0:0:
256,192,69580,1,8,0:0:0:0:
256,192,70780,1,0,0:0:0:0:
256,192,71980,1,8,0:0:0:0:
256,192,73180,1,0,0:0:0:0:
256,192,74380,1,8,0:0:0:0:
256,192,75580,1,0,0:0:0:0:
256,192,76780,1,8,0:0:0:0:
256,192,77680,1,8,0:0:0:0:
256,192,77980,1,4,0:0:0:0:
256,192,78130,1,8,0:0:0:0:
256,192,78205,1,0,0:0:0:0:
256,192,78355,1,0,0:0:0:0:
256,192,78430,1,8,0:0:0:0:
256,192,78580,1,0,0:0:0:0:
256,192,78730,1,0,0:0:0:0:
256,192,78805,1,0,0:0:0:0:
256,192,78880,1,8,0:0:0:0:
256,192,78955,1,0,0:0:0:0:
256,192,79030,1,8,0:0:0:0:
256,192,79105,1,8,0:0:0:0:
256,192,79180,1,0,0:0:0:0:
256,192,79330,1,8,0:0:0:0:
256,192,79405,1,0,0:0:0:0:
256,192,79555,1,8,0:0:0:0:
256,192,79630,1,0,0:0:0:0:
256,192,79780,1,8,0:0:0:0:
256,192,79930,1,8,0:0:0:0:
256,192,80005,1,0,0:0:0:0:
256,192,80080,1,8,0:0:0:0:
256,192,80155,1,8,0:0:0:0:
256,192,80230,1,0,0:0:0:0:
256,192,80305,1,0,0:0:0:0:
256,192,80380,1,8,0:0:0:0:
256,192,80530,1,8,0:0:0:0:
256,192,80605,1,0,0:0:0:0:
256,192,80755,1,0,0:0:0:0:
256,192,80830,1,8,0:0:0:0:
256,192,80980,1,0,0:0:0:0:
256,192,81130,1,8,0:0:0:0:
256,192,81180,1,8,0:0:0:0:
256,192,81230,1,8,0:0:0:0:
256,192,81280,1,0,0:0:0:0:
256,192,81430,1,0,0:0:0:0:
256,192,81580,1,8,0:0:0:0:
256,192,81730,1,0,0:0:0:0:
256,192,81805,1,8,0:0:0:0:
256,192,81955,1,0,0:0:0:0:
256,192,82030,1,8,0:0:0:0:
256,192,82180,1,0,0:0:0:0:
256,192,82255,1,8,0:0:0:0:
256,192,82330,1,0,0:0:0:0:
256,192,82405,1,0,0:0:0:0:
256,192,82480,1,8,0:0:0:0:
256,192,82555,1,0,0:0:0:0:
256,192,82630,1,8,0:0:0:0:
256,192,82780,1,4,0:0:0:0:
256,192,82930,1,0,0:0:0:0:
256,192,83005,1,8,0:0:0:0:
256,192,83080,1,0,0:0:0:0:
256,192,83230,1,8,0:0:0:0:
256,192,83380,1,0,0:0:0:0:
256,192,83455,1,0,0:0:0:0:
256,192,83530,1,8,0:0:0:0:
256,192,83605,1,8,0:0:0:0:
256,192,83680,1,0,0:0:0:0:
256,192,83830,1,0,0:0:0:0:
256,192,83980,1,12,0:0:0:0:
256,192,84130,1,0,0:0:0:0:
256,192,84205,1,8,0:0:0:0:
256,192,84280,1,0,0:0:0:0:
256,192,84430,1,8,0:0:0:0:
256,192,84580,1,8,0:0:0:0:
256,192,84655,1,0,0:0:0:0:
256,192,84730,1,0,0:0:0:0:
256,192,84805,1,8,0:0:0:0:
256,192,84880,1,0,0:0:0:0:
256,192,85030,1,8,0:0:0:0:
256,192,85180,1,0,0:0:0:0:
256,192,85255,1,0,0:0:0:0:
256,192,85330,1,0,0:0:0:0:
256,192,85405,1,0,0:0:0:0:
256,192,85480,1,8,0:0:0:0:
256,192,85555,1,0,0:0:0:0:
256,192,85630,1,0,0:0:0:0:
256,192,85705,1,0,0:0:0:0:
256,192,85780,1,8,0:0:0:0:
256,192,85855,1,8,0:0:0:0:
256,192,85930,1,0,0:0:0:0:
256,192,86005,1,0,0:0:0:0:
256,192,86080,1,8,0:0:0:0:
256,192,86155,1,8,0:0:0:0:
256,192,86230,1,8,0:0:0:0:
256,192,86305,1,8,0:0:0:0:
256,192,86380,1,0,0:0:0:0:
256,192,87280,1,8,0:0:0:0:
256,192,87580,1,4,0:0:0:0:
256,192,87730,1,8,0:0:0:0:
256,192,87805,1,0,0:0:0:0:
256,192,87955,1,0,0:0:0:0:
256,192,88030,1,8,0:0:0:0:
256,192,88180,1,0,0:0:0:0:
256,192,88330,1,0,0:0:0:0:
256,192,88405,1,0,0:0:0:0:
256,192,88480,1,8,0:0:0:0:
256,192,88555,1,8,0:0:0:0:
256,192,88630,1,0,0:0:0:0:
256,192,88780,1,8,0:0:0:0:
256,192,88930,1,0,0:0:0:0:
256,192,89005,1,8,0:0:0:0:
256,192,89155,1,8,0:0:0:0:
256,192,89230,1,0,0:0:0:0:
256,192,89380,1,8,0:0:0:0:
256,192,89530,1,0,0:0:0:0:
256,192,89605,1,8,0:0:0:0:
256,192,89680,1,0,0:0:0:0:
256,192,89755,1,0,0:0:0:0:
256,192,89830,1,8,0:0:0:0:
256,192,89980,1,0,0:0:0:0:
256,192,90130,1,8,0:0:0:0:
256,192,90205,1,0,0:0:0:0:
256,192,90355,1,0,0:0:0:0:
256,192,90430,1,8,0:0:0:0:
256,192,90580,1,0,0:0:0:0:
256,192,90730,1,8,0:0:0:0:
256,192,90780,1,8,0:0:0:0:
256,192,90830,1,8,0:0:0:0:
256,192,90880,1,0,0:0:0:0:
256,192,91030,1,0,0:0:0:0:
256,192,91180,1,8,0:0:0:0:
256,192,91330,1,0,0:0:0:0:
256,192,91405,1,8,0:0:0:0:
256,192,91555,1,0,0:0:0:0:
256,192,91630,1,8,0:0:0:0:
256,192,91780,1,0,0:0:0:0:
256,192,91855,1,8,0:0:0:0:
256,192,91930,1,0,0:0:0:0:
256,192,92005,1,0,0:0:0:0:
256,192,92080,1,8,0:0:0:0:
256,192,92230,1,8,0:0:0:0:
256,192,92380,1,0,0:0:0:0:
256,192,92530,1,8,0:0:0:0:
256,192,92605,1,0,0:0:0:0:
256,192,92755,1,0,0:0:0:0:
256,192,92830,1,8,0:0:0:0:
256,192,92980,1,0,0:0:0:0:
256,192,93130,1,8,0:0:0:0:
256,192,93205,1,8,0:0:0:0:
256,192,93280,1,0,0:0:0:0:
256,192,93430,1,0,0:0:0:0:
256,192,93580,1,8,0:0:0:0:
256,192,93655,1,8,0:0:0:0:
256,192,93730,1,0,0:0:0:0:
256,192,93805,1,8,0:0:0:0:
256,192,93955,1,0,0:0:0:0:
256,192,94030,1,8,0:0:0:0:
256,192,94180,1,8,0:0:0:0:
256,192,94255,1,0,0:0:0:0:
256,192,94330,1,0,0:0:0:0:
256,192,94405,1,8,0:0:0:0:
256,192,94555,1,0,0:0:0:0:
256,192,94630,1,8,0:0:0:0:
256,192,94780,1,0,0:0:0:0:
256,192,94930,1,8,0:0:0:0:
256,192,95005,1,0,0:0:0:0:
256,192,95155,1,0,0:0:0:0:
256,192,95230,1,8,0:0:0:0:
256,192,95380,1,0,0:0:0:0:
256,192,95530,1,8,0:0:0:0:
256,192,95580,1,8,0:0:0:0:
256,192,95630,1,8,0:0:0:0:
256,192,95680,1,0,0:0:0:0:
256,192,95830,1,0,0:0:0:0:
256,192,95980,1,8,0:0:0:0:
256,192,96130,1,0,0:0:0:0:
256,192,96205,1,8,0:0:0:0:
256,192,96355,1,8,0:0:0:0:
256,192,96430,1,0,0:0:0:0:
256,192,96580,1,8,0:0:0:0:
256,192,96730,1,8,0:0:0:0:
256,192,96880,1,8,0:0:0:0:
256,192,97030,1,8,0:0:0:0:
256,192,97180,1,4,0:0:0:0:
256,192,97330,1,8,0:0:0:0:
256,192,97405,1,0,0:0:0:0:
256,192,97555,1,0,0:0:0:0:
256,192,97630,1,8,0:0:0:0:
256,192,97780,1,0,0:0:0:0:
256,192,97855,1,8,0:0:0:0:
256,192,97930,1,0,0:0:0:0:
256,192,98005,1,0,0:0:0:0:
256,192,98080,1,8,0:0:0:0:
256,192,98155,1,8,0:0:0:0:
256,192,98230,1,0,0:0:0:0:
256,192,98380,1,8,0:0:0:0:
256,192,98530,1,0,0:0:0:0:
256,192,98605,1,8,0:0:0:0:
256,192,98755,1,8,0:0:0:0:
256,192,98830,1,0,0:0:0:0:
256,192,98980,1,8,0:0:0:0:
256,192,99055,1,0,0:0:0:0:
256,192,99130,1,8,0:0:0:0:
256,192,99205,1,8,0:0:0:0:
256,192,99280,1,0,0:0:0:0:
256,192,99355,1,0,0:0:0:0:
256,192,99430,1,8,0:0:0:0:
256,192,99580,1,0,0:0:0:0:
256,192,99730,1,8,0:0:0:0:
256,192,99805,1,0,0:0:0:0:
256,192,99955,1,0,0:0:0:0:
256,192,100030,1,8,0:0:0:0:
256,192,100180,1,0,0:0:0:0:
256,192,100255,1,0,0:0:0:0:
256,192,100330,1,8,0:0:0:0:
256,192,100380,1,8,0:0:0:0:
256,192,100430,1,8,0:0:0:0:
256,192,100480,1,0,0:0:0:0:
256,192,100630,1,0,0:0:0:0:
256,192,100780,1,8,0:0:0:0:
256,192,100930,1,0,0:0:0:0:
256,192,101005,1,8,0:0:0:0:
256,192,101155,1,0,0:0:0:0:
256,192,101230,1,8,0:0:0:0:
256,192,101380,1,0,0:0:0:0:
256,192,101455,1,8,0:0:0:0:
256,192,101530,1,0,0:0:0:0:
256,192,101605,1,0,0:0:0:0:
256,192,101680,1,8,0:0:0:0:
256,192,101755,1,0,0:0:0:0:
256,192,101830,1,8,0:0:0:0:
256,192,101980,1,4,0:0:0:0:
256,192,102130,1,0,0:0:0:0:
256,192,102205,1,0,0:0:0:0:
256,192,102280,1,8,0:0:0:0:
256,192,102430,1,0,0:0:0:0:
256,192,102580,1,8,0:0:0:0:
256,192,102655,1,0,0:0:0:0:
256,192,102730,1,0,0:0:0:0:
256,192,102805,1,0,0:0:0:0:
256,192,102880,1,8,0:0:0:0:
256,192,103030,1,0,0:0:0:0:
256,192,103180,1,12,0:0:0:0:
256,192,103330,1,0,0:0:0:0:
256,192,103405,1,0,0:0:0:0:
256,192,103480,1,8,0:0:0:0:
256,192,103630,1,0,0:0:0:0:
256,192,103780,1,8,0:0:0:0:
256,192,103855,1,8,0:0:0:0:
256,192,103930,1,0,0:0:0:0:
256,192,104005,1,0,0:0:0:0:
256,192,104080,1,8,0:0:0:0:
256,192,104230,1,8,0:0:0:0:
256,192,104380,1,0,0:0:0:0:
256,192,104455,1,0,0:0:0:0:
256,192,104530,1,0,0:0:0:0:
256,192,104605,1,0,0:0:0:0:
256,192,104680,1,8,0:0:0:0:
256,192,104755,1,0,0:0:0:0:
256,192,104830,1,0,0:0:0:0:
256,192,104905,1,0,0:0:0:0:
256,192,104980,1,8,0:0:0:0:
256,192,105055,1,8,0:0:0:0:
256,192,105130,1,0,0:0:0:0:
256,192,105205,1,0,0:0:0:0:
256,192,105280,1,8,0:0:0:0:
256,192,105355,1,8,0:0:0:0:
256,192,105430,1,8,0:0:0:0:
256,192,105505,1,8,0:0:0:0:
256,192,105580,1,0,0:0:0:0:
256,192,105730,1,0,0:0:0:0:
256,192,105805,1,0,0:0:0:0:
256,192,105880,1,8,0:0:0:0:
256,192,106030,1,0,0:0:0:0:
256,192,106180,1,8,0:0:0:0:
256,192,106330,1,8,0:0:0:0:
256,192,106480,1,8,0:0:0:0:
256,192,106780,1,4,0:0:0:0:
256,192,106930,1,8,0:0:0:0:
256,192,107005,1,0,0:0:0:0:
256,192,107155,1,0,0:0:0:0:
256,192,107230,1,8,0:0:0:0:
256,192,107380,1,0,0:0:0:0:
256,192,107530,1,8,0:0:0:0:
256,192,107605,1,0,0:0:0:0:
256,192,107680,1,8,0:0:0:0:
256,192,107755,1,8,0:0:0:0:
256,192,107830,1,0,0:0:0:0:
256,192,107980,1,8,0:0:0:0:
256,192,108130,1,0,0:0:0:0:
256,192,108205,1,8,0:0:0:0:
256,192,108355,1,8,0:0:0:0:
256,192,108430,1,0,0:0:0:0:
256,192,108580,1,8,0:0:0:0:
256,192,108730,1,0,0:0:0:0:
256,192,108805,1,8,0:0:0:0:
256,192,108880,1,0,0:0:0:0:
256,192,108955,1,0,0:0:0:0:
256,192,109030,1,8,0:0:0:0:
256,192,109180,1,0,0:0:0:0:
256,192,109330,1,8,0:0:0:0:
256,192,109405,1,0,0:0:0:0:
256,192,109555,1,0,0:0:0:0:
256,192,109630,1,8,0:0:0:0:
256,192,109780,1,0,0:0:0:0:
256,192,109930,1,8,0:0:0:0:
256,192,109980,1,8,0:0:0:0:
256,192,110030,1,8,0:0:0:0:
256,192,110080,1,0,0:0:0:0:
256,192,110230,1,0,0:0:0:0:
256,192,110380,1,8,0:0:0:0:
256,192,110530,1,0,0:0:0:0:
256,192,110605,1,8,0:0:0:0:
256,192,110755,1,0,0:0:0:0:
256,192,110830,1,8,0:0:0:0:
256,192,110980,1,0,0:0:0:0:
256,192,111055,1,8,0:0:0:0:
256,192,111130,1,0,0:0:0:0:
256,192,111205,1,8,0:0:0:0:
256,192,111280,1,8,0:0:0:0:
256,192,111430,1,8,0:0:0:0:
256,192,111580,1,0,0:0:0:0:
256,192,111730,1,8,0:0:0:0:
256,192,111805,1,0,0:0:0:0:
256,192,111955,1,0,0:0:0:0:
256,192,112030,1,8,0:0:0:0:
256,192,112180,1,0,0:0:0:0:
256,192,112255,1,0,0:0:0:0:
256,192,112330,1,8,0:0:0:0:
256,192,112405,1,8,0:0:0:0:
256,192,112480,1,0,0:0:0:0:
256,192,112630,1,0,0:0:0:0:
256,192,112780,1,8,0:0:0:0:
256,192,112855,1,8,0:0:0:0:
256,192,112930,1,0,0:0:0:0:
256,192,113005,1,8,0:0:0:0:
256,192,113155,1,0,0:0:0:0:
256,192,113230,1,8,0:0:0:0:
256,192,113380,1,8,0:0:0:0:
256,192,113455,1,0,0:0:0:0:
256,192,113530,1,0,0:0:0:0:
256,192,113605,1,8,0:0:0:0:
256,192,113755,1,0,0:0:0:0:
256,192,113830,1,8,0:0:0:0:
256,192,113980,1,0,0:0:0:0:
256,192,114130,1,8,0:0:0:0:
256,192,114205,1,0,0:0:0:0:
256,192,114355,1,0,0:0:0:0:
256,192,114430,1,8,0:0:0:0:
256,192,114580,1,0,0:0:0:0:
256,192,114730,1,8,0:0:0:0:
256,192,114780,1,8,0:0:0:0:
256,192,114830,1,8,0:0:0:0:
256,192,114880,1,0,0:0:0:0:
256,192,115030,1,0,0:0:0:0:
256,192,115180,1,8,0:0:0:0:
256,192,115330,1,0,0:0:0:0:
256,192,115405,1,8,0:0:0:0:
256,192,115555,1,8,0:0:0:0:
256,192,115630,1,0,0:0:0:0:
256,192,115780,1,8,0:0:0:0:
256,192,115930,1,8,0:0:0:0:
256,192,116080,1,8,0:0:0:0:
256,192,116230,1,8,0:0:0:0:
256,192,116380,1,4,0:0:0:0:
256,192,116530,1,8,0:0:0:0:
256,192,116605,1,0,0:0:0:0:
256,192,116755,1,0,0:0:0:0:
256,192,116830,1,8,0:0:0:0:
256,192,116980,1,0,0:0:0:0:
256,192,117055,1,0,0:0:0:0:
256,192,117130,1,8,0:0:0:0:
256,192,117205,1,0,0:0:0:0:
256,192,117280,1,8,0:0:0:0:
256,192,117355,1,8,0:0:0:0:
256,192,117430,1,0,0:0:0:0:
256,192,117580,1,8,0:0:0:0:
256,192,117730,1,0,0:0:0:0:
256,192,117805,1,8,0:0:0:0:
256,192,117955,1,8,0:0:0:0:
256,192,118030,1,0,0:0:0:0:
256,192,118180,1,8,0:0:0:0:
256,192,118255,1,8,0:0:0:0:
256,192,118330,1,0,0:0:0:0:
256,192,118405,1,8,0:0:0:0:
256,192,118480,1,0,0:0:0:0:
256,192,118555,1,0,0:0:0:0:
256,192,118630,1,8,0:0:0:0:
256,192,118780,1,0,0:0:0:0:
256,192,118930,1,8,0:0:0:0:
256,192,119005,1,0,0:0:0:0:
256,192,119155,1,0,0:0:0:0:
256,192,119230,1,8,0:0:0:0:
256,192,119380,1,0,0:0:0:0:
256,192,119455,1,0,0:0:0:0:
256,192,119530,1,8,0:0:0:0:
256,192,119580,1,8,0:0:0:0:
256,192,119630,1,8,0:0:0:0:
256,192,119680,1,0,0:0:0:0:
256,192,119830,1,0,0:0:0:0:
256,192,119980,1,8,0:0:0:0:
256,192,120130,1,0,0:0:0:0:
256,192,120205,1,8,0:0:0:0:
256,192,120355,1,0,0:0:0:0:
256,192,120430,1,8,0:0:0:0:
256,192,120580,1,0,0:0:0:0:
256,192,120655,1,8,0:0:0:0:
256,192,120730,1,8,0:0:0:0:
256,192,120805,1,0,0:0:0:0:
256,192,120880,1,8,0:0:0:0:
256,192,120955,1,0,0:0:0:0:
256,192,121030,1,8,0:0:0:0:
256,192,121180,1,4,0:0:0:0:
256,192,121330,1,0,0:0:0:0:
256,192,121405,1,0,0:0:0:0:
256,192,121480,1,8,0:0:0:0:
256,192,121630,1,0,0:0:0:0:
256,192,121780,1,8,0:0:0:0:
256,192,121855,1,0,0:0:0:0:
256,192,121930,1,0,0:0:0:0:
256,192,122005,1,0,0:0:0:0:
256,192,122080,1,8,0:0:0:0:
256,192,122230,1,0,0:0:0:0:
256,192,122380,1,12,0:0:0:0:
256,192,122530,1,0,0:0:0:0:
256,192,122605,1,0,0:0:0:0:
256,192,122680,1,8,0:0:0:0:
256,192,122830,1,0,0:0:0:0:
256,192,122980,1,8,0:0:0:0:
256,192,123055,1,8,0:0:0:0:
256,192,123130,1,0,0:0:0:0:
256,192,123205,1,0,0:0:0:0:
256,192,123280,1,8,0:0:0:0:
256,192,123430,1,8,0:0:0:0:
256,192,123580,1,0,0:0:0:0:
256,192,123655,1,0,0:0:0:0:
256,192,123730,1,0,0:0:0:0:
256,192,123805,1,0,0:0:0:0:
256,192,123880,1,8,0:0:0:0:
256,192,123955,1,0,0:0:0:0:
256,192,124030,1,0,0:0:0:0:
256,192,124105,1,0,0:0:0:0:
256,192,124180,1,8,0:0:0:0:
256,192,124255,1,8,0:0:0:0:
256,192,124330,1,0,0:0:0:0:
256,192,124405,1,0,0:0:0:0:
256,192,124480,1,8,0:0:0:0:
256,192,124555,1,8,0:0:0:0:
256,192,124630,1,8,0:0:0:0:
256,192,124705,1,8,0:0:0:0:
256,192,124780,1,0,0:0:0:0:
256,192,124930,1,8,0:0:0:0:
256,192,125005,1,8,0:0:0:0:
256,192,125080,1,0,0:0:0:0:
256,192,125230,1,0,0:0:0:0:
256,192,125380,1,8,0:0:0:0:
256,192,125530,1,8,0:0:0:0:
256,192,125680,1,8,0:0:0:0:
256,192,125980,1,4,0:0:0:0:
