osu file format v14

[General]
AudioFilename: audio.mp3
AudioLeadIn: 0
PreviewTime: 68080
Countdown: 0
SampleSet: Normal
StackLeniency: 0.7
Mode: 1
LetterboxInBreaks: 0
WidescreenStoryboard: 1

[Editor]
Bookmarks: 1180,10780,20380,29980,39580,49180,58780,68380,77980,87580,97180,106780,116380,125980
DistanceSpacing: 1
BeatDivisor: 4
GridSize: 32
TimelineZoom: 0.6999999

[Metadata]
Title:Nadeshiko Sensation
TitleUnicode:Nadeshiko Sensation
Artist:yuki.
ArtistUnicode:yuki.
Creator:hikikochan
Version:Kantan
Source:osu!
Tags:community beatmapping contest cbc 2016
BeatmapID:1186255
BeatmapSetID:558569

[Difficulty]
HPDrainRate:7
CircleSize:2
OverallDifficulty:4
ApproachRate:5
SliderMultiplier:1.4
SliderTickRate:1

[Events]
//Background and Video events
0,0,"Nadeshiko Sensation B.jpg",0,0
//Break Periods
//Storyboard Layer 0 (Background)
//Storyboard Layer 1 (Fail)
//Storyboard Layer 2 (Pass)
//Storyboard Layer 3 (Foreground)
//Storyboard Sound Samples

[TimingPoints]
1180,300,4,1,0,90,1,0
10780,-100,4,1,0,100,0,1
29980,-100,4,1,0,90,0,0
87580,-100,4,1,0,100,0,1
125980,-100,4,1,0,90,0,0

[HitObjects]
256,192,1180,5,4,0:0:0:0:
256,192,2380,1,8,0:0:0:0:
256,192,3580,1,0,0:0:0:0:
256,192,4780,1,8,0:0:0:0:
256,192,5980,1,4,0:0:0:0:
256,192,6580,1,0,0:0:0:0:
256,192,7180,1,12,0:0:0:0:
256,192,7780,1,8,0:0:0:0:
256,192,8380,1,4,0:0:0:0:
256,192,8980,1,8,0:0:0:0:
256,192,9280,1,8,0:0:0:0:
256,192,9580,1,0,0:0:0:0:
256,192,10780,1,4,0:0:0:0:
256,192,11380,1,0,0:0:0:0:
256,192,11680,1,0,0:0:0:0:
256,192,11980,1,8,0:0:0:0:
256,192,12580,1,8,0:0:0:0:
256,192,13180,1,0,0:0:0:0:
256,192,13780,1,8,0:0:0:0:
256,192,14080,1,8,0:0:0:0:
256,192,14380,1,0,0:0:0:0:
256,192,14980,1,8,0:0:0:0:
256,192,15580,1,0,0:0:0:0:
256,192,16780,1,8,0:0:0:0:
256,192,17380,1,8,0:0:0:0:
256,192,17980,1,0,0:0:0:0:
256,192,18580,1,8,0:0:0:0:
256,192,18880,1,0,0:0:0:0:
256,192,19180,1,8,0:0:0:0:
256,192,19780,1,8,0:0:0:0:
256,192,20380,1,4,0:0:0:0:
256,192,21580,1,8,0:0:0:0:
256,192,22180,1,0,0:0:0:0:
256,192,22780,1,8,0:0:0:0:
256,192,23380,1,8,0:0:0:0:
256,192,23680,1,0,0:0:0:0:
256,192,23980,1,8,0:0:0:0:
256,192,25180,1,4,0:0:0:0:
256,192,25780,1,0,0:0:0:0:
256,192,26080,1,0,0:0:0:0:
256,192,26380,1,12,0:0:0:0:
256,192,26980,1,8,0:0:0:0:
256,192,27280,1,8,0:0:0:0:
256,192,27580,1,4,0:0:0:0:
256,192,28180,1,0,0:0:0:0:
256,192,28480,1,8,0:0:0:0:
256,192,28780,1,0,0:0:0:0:
256,192,29980,1,4,0:0:0:0:
256,192,31180,1,0,0:0:0:0:
256,192,31780,1,8,0:0:0:0:
256,192,32380,1,0,0:0:0:0:
256,192,32980,1,8,0:0:0:0:
256,192,33580,1,0,0:0:0:0:
256,192,33880,1,8,0:0:0:0:
256,192,34180,1,8,0:0:0:0:
256,192,34780,1,0,0:0:0:0:
256,192,35980,1,0,0:0:0:0:
256,192,36580,1,8,0:0:0:0:
256,192,37180,1,0,0:0:0:0:
256,192,37780,1,8,0:0:0:0:
256,192,38380,1,0,0:0:0:0:
256,192,38680,1,8,0:0:0:0:
256,192,38980,1,8,0:0:0:0:
256,192,39580,1,4,0:0:0:0:
256,192,40780,1,8,0:0:0:0:
256,192,41380,1,8,0:0:0:0:
256,192,41980,1,0,0:0:0:0:
256,192,42580,1,8,0:0:0:0:
256,192,43180,1,8,0:0:0:0:
256,192,43480,1,8,0:0:0:0:
256,192,43780,1,0,0:0:0:0:
256,192,44380,1,4,0:0:0:0:
256,192,44980,1,0,0:0:0:0:
256,192,45580,1,12,0:0:0:0:
256,192,46180,1,8,0:0:0:0:
256,192,46780,1,4,0:0:0:0:
256,192,47380,1,0,0:0:0:0:
256,192,47680,1,8,0:0:0:0:
256,192,47980,1,0,0:0:0:0:
256,192,49180,1,4,0:0:0:0:
256,192,49780,1,8,0:0:0:0:
256,192,50680,1,0,0:0:0:0:
256,192,50980,1,8,0:0:0:0:
256,192,51580,1,0,0:0:0:0:
256,192,52180,1,8,0:0:0:0:
256,192,53380,1,8,0:0:0:0:
256,192,53980,1,0,0:0:0:0:
256,192,54580,1,8,0:0:0:0:
256,192,55480,1,0,0:0:0:0:
256,192,55780,1,8,0:0:0:0:
256,192,56380,1,0,0:0:0:0:
256,192,56980,1,8,0:0:0:0:
256,192,58180,1,8,0:0:0:0:
256,192,58780,1,4,0:0:0:0:
256,192,59980,1,0,0:0:0:0:
256,192,60580,1,8,0:0:0:0:
256,192,61180,1,0,0:0:0:0:
256,192,62380,1,8,0:0:0:0:
256,192,62980,1,8,0:0:0:0:
256,192,63580,1,4,0:0:0:0:
256,192,64180,1,0,0:0:0:0:
256,192,64780,1,12,0:0:0:0:
256,192,65380,1,8,0:0:0:0:
256,192,65980,1,4,0:0:0:0:
256,192,66580,1,0,0:0:0:0:
256,192,66880,1,8,0:0:0:0:
256,192,67180,1,0,0:0:0:0:
256,192,68380,1,4,0:0:0:0:
256,192,69580,1,8,0:0:0:0:
256,192,70780,1,0,0:0:0:0:
256,192,71980,1,8,0:0:0:0:
256,192,73180,1,0,0:0:0:0:
256,192,74380,1,8,0:0:0:0:
256,192,75580,1,0,0:0:0:0:
256,192,76780,1,8,0:0:0:0:
256,192,77980,1,4,0:0:0:0:
256,192,78430,1,8,0:0:0:0:
256,192,79180,1,8,0:0:0:0:
256,192,79630,1,0,0:0:0:0:
256,192,80380,1,0,0:0:0:0:
256,192,80980,1,8,0:0:0:0:
256,192,81580,1,0,0:0:0:0:
256,192,82030,1,8,0:0:0:0:
256,192,82780,1,4,0:0:0:0:
256,192,83380,1,0,0:0:0:0:
256,192,83980,1,12,0:0:0:0:
256,192,84580,1,8,0:0:0:0:
256,192,85180,1,4,0:0:0:0:
256,192,85780,1,0,0:0:0:0:
256,192,86080,1,8,0:0:0:0:
256,192,86380,1,0,0:0:0:0:
256,192,87580,1,4,0:0:0:0:
256,192,88030,1,8,0:0:0:0:
256,192,88780,1,8,0:0:0:0:
256,192,89230,1,0,0:0:0:0:
256,192,89980,1,0,0:0:0:0:
256,192,90580,1,8,0:0:0:0:
256,192,91180,1,0,0:0:0:0:
256,192,91630,1,8,0:0:0:0:
256,192,92380,1,0,0:0:0:0:
256,192,92830,1,8,0:0:0:0:
256,192,93580,1,8,0:0:0:0:
256,192,94180,1,8,0:0:0:0:
256,192,94780,1,0,0:0:0:0:
256,192,95380,1,0,0:0:0:0:
256,192,95680,1,0,0:0:0:0:
256,192,95980,1,8,0:0:0:0:
256,192,97180,1,4,0:0:0:0:
256,192,97630,1,8,0:0:0:0:
256,192,98380,1,8,0:0:0:0:
256,192,98830,1,0,0:0:0:0:
256,192,99580,1,0,0:0:0:0:
256,192,100180,1,8,0:0:0:0:
256,192,100780,1,0,0:0:0:0:
256,192,101230,1,8,0:0:0:0:
256,192,101980,1,4,0:0:0:0:
256,192,102580,1,0,0:0:0:0:
256,192,103180,1,12,0:0:0:0:
256,192,103780,1,8,0:0:0:0:
256,192,104380,1,4,0:0:0:0:
256,192,104980,1,0,0:0:0:0:
256,192,105280,1,8,0:0:0:0:
256,192,105580,1,0,0:0:0:0:
256,192,106780,1,4,0:0:0:0:
256,192,107230,1,8,0:0:0:0:
256,192,107980,1,8,0:0:0:0:
256,192,108430,1,0,0:0:0:0:
256,192,109180,1,0,0:0:0:0:
256,192,109780,1,8,0:0:0:0:
256,192,110380,1,0,0:0:0:0:
256,192,110830,1,8,0:0:0:0:
256,192,111580,1,0,0:0:0:0:
256,192,112030,1,8,0:0:0:0:
256,192,112780,1,8,0:0:0:0:
256,192,113380,1,8,0:0:0:0:
256,192,113980,1,0,0:0:0:0:
256,192,114580,1,0,0:0:0:0:
256,192,114880,1,8,0:0:0:0:
256,192,115180,1,0,0:0:0:0:
256,192,116380,1,4,0:0:0:0:
256,192,116830,1,8,0:0:0:0:
256,192,117580,1,8,0:0:0:0:
256,192,118030,1,0,0:0:0:0:
256,192,118780,1,0,0:0:0:0:
256,192,119380,1,8,0:0:0:0:
256,192,119980,1,0,0:0:0:0:
256,192,120430,1,8,0:0:0:0:
256,192,121180,1,4,0:0:0:0:
256,192,121780,1,0,0:0:0:0:
256,192,122380,1,12,0:0:0:0:
256,192,122980,1,8,0:0:0:0:
256,192,123580,1,4,0:0:0:0:
256,192,124180,1,0,0:0:0:0:
256,192,124480,1,8,0:0:0:0:
256,192,124780,1,0,0:0:0:0:
256,192,125980,1,4,0:0:0:0:
