osu file format v14

[General]
AudioFilename: audio.mp3
AudioLeadIn: 0
PreviewTime: 10771
Countdown: 0
SampleSet: Soft
StackLeniency: 0.7
Mode: 3
LetterboxInBreaks: 0
SpecialStyle: 0
WidescreenStoryboard: 0

[Editor]
DistanceSpacing: 0.8
BeatDivisor: 4
GridSize: 8
TimelineZoom: 1.8

[Metadata]
Title:Nadeshiko Sensation
TitleUnicode:Nadeshiko Sensation
Artist:yuki.
ArtistUnicode:yuki.
Creator:chouyaa
Version:Hard
Source:osu!
Tags:Featured Artist Another Lie
BeatmapID:1343113
BeatmapSetID:632748

[Difficulty]
HPDrainRate:8
CircleSize:4
OverallDifficulty:8
ApproachRate:5
SliderMultiplier:1.4
SliderTickRate:1

[Events]
//Background and Video events
0,0,"BG.jpg",0,0
//Break Periods
//Storyboard Layer 0 (Background)
//Storyboard Layer 1 (Fail)
//Storyboard Layer 2 (Pass)
//Storyboard Layer 3 (Foreground)
//Storyboard Sound Samples
Sample,19930,0,"LR_Hat Synth.wav",70
Sample,38530,0,"LR_Hat Synth.wav",70
Sample,38830,0,"LR_Hat Synth.wav",70
Sample,39130,0,"LR_Hat Synth.wav",70
Sample,39430,0,"LR_Hat Synth.wav",70
Sample,66880,0,"soft-hitnormal22.wav",70
Sample,96730,0,"LR_Hat Synth.wav",70
Sample,115930,0,"LR_Hat Synth.wav",70

[TimingPoints]
1205,300,4,2,1,50,1,0
5980,300,4,2,1,50,1,0
28780,-76.9230769230769,4,2,1,50,0,0
28855,-142.857142857143,4,2,1,50,0,0
28930,-76.9230769230769,4,2,1,50,0,0
29005,-142.857142857143,4,2,1,50,0,0
29080,-76.9230769230769,4,2,1,50,0,0
29155,-142.857142857143,4,2,1,50,0,0
29230,-76.9230769230769,4,2,1,50,0,0
29305,-142.857142857143,4,2,1,50,0,0
29380,-100,4,2,1,50,0,0
49180,-66.6666666666667,4,2,1,50,0,0
49217,-200,4,2,1,50,0,0
49255,-66.6666666666667,4,2,1,50,0,0
49292,-200,4,2,1,50,0,0
49330,-66.6666666666667,4,2,1,50,0,0
49367,-200,4,2,1,50,0,0
49405,-66.6666666666667,4,2,1,50,0,0
49442,-200,4,2,1,50,0,0
49480,-100,4,2,1,50,0,0
51580,-66.6666666666667,4,2,1,50,0,0
51617,-200,4,2,1,50,0,0
51655,-66.6666666666667,4,2,1,50,0,0
51692,-200,4,2,1,50,0,0
51730,-66.6666666666667,4,2,1,50,0,0
51767,-200,4,2,1,50,0,0
51805,-66.6666666666667,4,2,1,50,0,0
51842,-200,4,2,1,50,0,0
51880,-100,4,2,1,50,0,0
53980,-66.6666666666667,4,2,1,50,0,0
54017,-200,4,2,1,50,0,0
54055,-66.6666666666667,4,2,1,50,0,0
54092,-200,4,2,1,50,0,0
54130,-66.6666666666667,4,2,1,50,0,0
54167,-200,4,2,1,50,0,0
54205,-66.6666666666667,4,2,1,50,0,0
54242,-200,4,2,1,50,0,0
54280,-100,4,2,1,50,0,0
56380,-66.6666666666667,4,2,1,50,0,0
56417,-200,4,2,1,50,0,0
56455,-66.6666666666667,4,2,1,50,0,0
56492,-200,4,2,1,50,0,0
56530,-66.6666666666667,4,2,1,50,0,0
56567,-200,4,2,1,50,0,0
56605,-66.6666666666667,4,2,1,50,0,0
56642,-200,4,2,1,50,0,0
56680,-100,4,2,1,50,0,0
58780,-66.6666666666667,4,2,1,50,0,0
58817,-200,4,2,1,50,0,0
58855,-66.6666666666667,4,2,1,50,0,0
58892,-200,4,2,1,50,0,0
58930,-66.6666666666667,4,2,1,50,0,0
58967,-200,4,2,1,50,0,0
59005,-200,4,2,1,50,0,0
59042,-200,4,2,1,50,0,0
59080,-100,4,2,1,50,0,0
61180,-66.6666666666667,4,2,1,50,0,0
61217,-200,4,2,1,50,0,0
61255,-66.6666666666667,4,2,1,50,0,0
61292,-200,4,2,1,50,0,0
61330,-66.6666666666667,4,2,1,50,0,0
61367,-200,4,2,1,50,0,0
61405,-66.6666666666667,4,2,1,50,0,0
61442,-200,4,2,1,50,0,0
61480,-100,4,2,1,50,0,0
63580,-100,4,2,1,50,0,0
68555,300,4,2,1,50,1,0
77980,300,4,2,1,50,1,0
87580,-100,4,2,1,50,0,1
96880,-100,4,2,1,50,0,0
97180,-100,4,2,1,50,0,1
105580,-76.9230769230769,4,2,1,50,0,1
105655,-142.857142857143,4,2,1,50,0,1
105730,-76.9230769230769,4,2,1,50,0,1
105805,-142.857142857143,4,2,1,50,0,1
105880,-76.9230769230769,4,2,1,50,0,1
105955,-142.857142857143,4,2,1,50,0,1
106030,-76.9230769230769,4,2,1,50,0,1
106105,-142.857142857143,4,2,1,50,0,1
106180,-100,4,2,1,50,0,1
106780,-100,4,2,1,50,0,1
116080,-100,4,2,1,50,0,0
116380,-100,4,2,1,50,0,1
124780,-76.9230769230769,4,2,1,50,0,1
124855,-142.857142857143,4,2,1,50,0,1
124930,-76.9230769230769,4,2,1,50,0,1
125005,-142.857142857143,4,2,1,50,0,1
125080,-76.9230769230769,4,2,1,50,0,1
125155,-142.857142857143,4,2,1,50,0,1
125230,-76.9230769230769,4,2,1,50,0,1
125305,-142.857142857143,4,2,1,50,0,1
125380,-100,4,2,1,50,0,1
125980,-100,4,2,1,50,0,0

[HitObjects]
448,192,905,5,0,0:0:0:0:
320,192,1055,1,0,0:0:0:0:
64,192,1205,1,0,0:0:0:0:
192,192,1205,1,0,0:0:0:0:
448,192,1205,1,0,0:0:0:0:
320,192,1355,1,0,0:0:0:0:
64,192,1505,1,0,0:0:0:0:
192,192,1655,1,0,0:0:0:0:
448,192,1805,1,0,0:0:0:0:
320,192,1955,1,0,0:0:0:0:
192,192,2005,1,0,0:0:0:0:
64,192,2055,1,0,0:0:0:0:
320,192,2105,1,0,0:0:0:0:
448,192,2105,1,0,0:0:0:0:
192,192,2255,1,0,0:0:0:0:
64,192,2405,1,0,0:0:0:0:
448,192,2555,1,0,0:0:0:0:
320,192,2705,1,0,0:0:0:0:
192,192,2855,1,0,0:0:0:0:
448,192,3005,1,0,0:0:0:0:
64,192,3305,1,0,0:0:0:0:
320,192,3455,1,0,0:0:0:0:
192,192,3605,1,0,0:0:0:0:
320,192,3755,1,0,0:0:0:0:
448,192,3905,1,0,0:0:0:0:
64,192,4055,1,0,0:0:0:0:
192,192,4205,1,0,0:0:0:0:
448,192,4355,1,0,0:0:0:0:
320,192,4405,1,0,0:0:0:0:
64,192,4455,1,0,0:0:0:0:
192,192,4505,1,0,0:0:0:0:
320,192,4655,1,0,0:0:0:0:
448,192,4805,1,0,0:0:0:0:
64,192,4955,1,0,0:0:0:0:
192,192,5105,1,0,0:0:0:0:
320,192,5255,1,0,0:0:0:0:
448,192,5405,1,0,0:0:0:0:
192,192,5705,1,0,0:0:0:0:
64,192,5855,1,0,0:0:0:0:
192,192,5980,5,2,0:0:0:0:
320,192,5980,1,4,0:0:0:0:
448,192,5980,1,0,0:0:0:0:
320,192,6280,1,8,0:0:0:0:
448,192,6280,1,0,0:0:0:0:
64,192,6455,1,0,0:0:0:0:
320,192,6580,1,8,0:0:0:0:
448,192,6580,1,0,0:0:0:0:
64,192,6755,1,0,0:0:0:0:
192,192,6880,1,8,0:0:0:0:
320,192,6880,1,0,0:0:0:0:
448,192,7055,1,0,0:0:0:0:
64,192,7180,1,2,0:0:0:0:
192,192,7180,1,4,0:0:0:0:
320,192,7180,1,0,0:0:0:0:
448,192,7355,1,0,0:0:0:0:
64,192,7480,1,8,0:0:0:0:
192,192,7480,1,0,0:0:0:0:
320,192,7655,1,0,0:0:0:0:
64,192,7780,1,8,0:0:0:0:
192,192,7780,1,0,0:0:0:0:
64,192,8080,1,8,0:0:0:0:
320,192,8080,1,0,0:0:0:0:
192,192,8255,1,0,0:0:0:0:
64,192,8380,1,2,0:0:0:0:
320,192,8380,1,4,0:0:0:0:
448,192,8380,1,0,0:0:0:0:
64,192,8530,1,8,0:0:0:0:
192,192,8530,1,0,0:0:0:0:
192,192,8680,1,8,0:0:0:0:
448,192,8680,1,0,0:0:0:0:
320,192,8830,1,8,0:0:0:0:
448,192,8830,1,0,0:0:0:0:
64,192,8980,1,8,0:0:0:0:
192,192,8980,1,2,0:0:0:0:
448,192,9055,1,8,0:0:0:0:
320,192,9130,1,8,0:0:0:0:
64,192,9205,1,8,0:0:0:0:
320,192,9280,1,8,0:0:0:0:
192,192,9355,1,8,0:0:0:0:
64,192,9430,1,8,0:0:0:0:
448,192,9505,1,8,0:0:0:0:
64,192,9580,128,4,9730:0:0:0:0:
320,192,9580,1,2,0:0:0:0:
192,192,9730,128,0,9880:0:0:0:0:
448,192,9880,128,0,10030:0:0:0:0:
320,192,10030,128,0,10180:0:0:0:0:
64,192,10180,128,0,10480:0:0:0:0:
448,192,10480,1,0,0:0:0:70:soft-hitnormal22.wav
64,192,10780,1,2,0:0:0:0:
320,192,10780,1,4,0:0:0:0:
448,192,10780,1,0,0:0:0:0:
192,192,10930,1,0,0:0:0:70:LR_Hat Synth.wav
320,192,11080,1,2,0:0:0:0:
448,192,11080,1,0,0:0:0:0:
64,192,11230,1,0,0:0:0:70:LR_Hat Synth.wav
192,192,11380,1,2,0:0:0:0:
320,192,11380,1,0,0:0:0:0:
448,192,11530,1,0,0:0:0:70:LR_Hat Synth.wav
320,192,11580,1,0,0:0:0:0:
192,192,11630,1,0,0:0:0:0:
64,192,11680,1,2,0:0:0:0:
448,192,11680,1,0,0:0:0:0:
320,192,11830,1,0,0:0:0:70:LR_Hat Synth.wav
64,192,11980,128,2,12130:0:0:0:0:
192,192,11980,1,0,0:0:0:0:
320,192,12130,128,0,12280:0:0:0:70:LR_Hat Synth.wav
64,192,12280,128,2,12430:0:0:0:0:
448,192,12280,1,0,0:0:0:0:
192,192,12430,128,0,12580:0:0:0:70:LR_Hat Synth.wav
320,192,12580,1,2,0:0:0:0:
448,192,12580,128,0,13030:0:0:0:0:
192,192,12730,1,0,0:0:0:70:LR_Hat Synth.wav
64,192,12880,1,2,0:0:0:0:
320,192,13030,128,0,13180:0:0:0:70:LR_Hat Synth.wav
64,192,13180,1,2,0:0:0:0:
192,192,13180,1,0,0:0:0:0:
448,192,13330,1,0,0:0:0:70:LR_Hat Synth.wav
64,192,13480,1,2,0:0:0:0:
192,192,13480,1,0,0:0:0:0:
320,192,13630,1,0,0:0:0:70:LR_Hat Synth.wav
192,192,13780,1,2,0:0:0:0:
448,192,13780,1,0,0:0:0:0:
320,192,13930,1,0,0:0:0:70:LR_Hat Synth.wav
192,192,13980,1,0,0:0:0:0:
64,192,14030,1,0,0:0:0:0:
320,192,14080,1,2,0:0:0:0:
448,192,14080,1,0,0:0:0:0:
192,192,14230,1,0,0:0:0:70:LR_Hat Synth.wav
64,192,14380,1,2,0:0:0:0:
448,192,14380,128,0,14530:0:0:0:0:
320,192,14530,128,0,14680:0:0:0:70:LR_Hat Synth.wav
192,192,14680,128,2,14830:0:0:0:0:
64,192,14680,1,0,0:0:0:0:
320,192,14830,128,0,14980:0:0:0:70:LR_Hat Synth.wav
448,192,14980,1,2,0:0:0:0:
64,192,14980,128,0,15430:0:0:0:0:
320,192,15130,1,0,0:0:0:70:LR_Hat Synth.wav
192,192,15280,1,2,0:0:0:0:
320,192,15430,128,0,15580:0:0:0:70:LR_Hat Synth.wav
192,192,15580,1,0,0:0:0:0:
64,192,15580,1,2,0:0:0:0:
320,192,15730,1,0,0:0:0:70:LR_Hat Synth.wav
448,192,15880,1,2,0:0:0:0:
64,192,15880,1,0,0:0:0:0:
192,192,16030,1,0,0:0:0:70:LR_Hat Synth.wav
320,192,16180,1,2,0:0:0:0:
448,192,16180,1,0,0:0:0:0:
64,192,16330,1,0,0:0:0:70:LR_Hat Synth.wav
320,192,16480,1,2,0:0:0:0:
192,192,16480,1,0,0:0:0:0:
448,192,16630,1,0,0:0:0:70:LR_Hat Synth.wav
192,192,16780,1,2,0:0:0:0:
64,192,16780,128,0,16930:0:0:0:0:
320,192,16930,128,0,17080:0:0:0:70:LR_Hat Synth.wav
192,192,17080,128,2,17230:0:0:0:0:
448,192,17080,1,0,0:0:0:0:
64,192,17230,128,0,17380:0:0:0:70:LR_Hat Synth.wav
320,192,17380,1,2,0:0:0:0:
448,192,17380,128,0,17680:0:0:0:0:
192,192,17530,1,0,0:0:0:70:LR_Hat Synth.wav
64,192,17680,1,2,0:0:0:0:
320,192,17680,128,0,17830:0:0:0:0:
192,192,17830,128,0,17980:0:0:0:70:LR_Hat Synth.wav
448,192,17980,1,0,0:0:0:0:
64,192,17980,1,2,0:0:0:0:
320,192,18130,1,0,0:0:0:70:LR_Hat Synth.wav
192,192,18280,1,0,0:0:0:0:
64,192,18280,1,2,0:0:0:0:
320,192,18430,1,0,0:0:0:70:LR_Hat Synth.wav
192,192,18580,1,2,0:0:0:0:
448,192,18580,1,0,0:0:0:0:
64,192,18730,1,0,0:0:0:70:LR_Hat Synth.wav
192,192,18780,1,0,0:0:0:0:
320,192,18830,1,0,0:0:0:0:
64,192,18880,1,2,0:0:0:0:
448,192,18880,1,0,0:0:0:0:
192,192,19030,1,0,0:0:0:70:LR_Hat Synth.wav
320,192,19180,1,2,0:0:0:0:
448,192,19180,128,0,19330:0:0:0:0:
64,192,19330,128,0,19480:0:0:0:70:LR_Hat Synth.wav
448,192,19480,1,2,0:0:0:0:
192,192,19480,128,0,19630:0:0:0:0:
320,192,19630,128,0,19780:0:0:0:70:LR_Hat Synth.wav
192,192,19780,1,2,0:0:0:0:
64,192,19780,128,0,19930:0:0:0:0:
448,192,19930,1,0,0:0:0:70:soft-hitnormal22.wav
192,192,20080,128,2,20230:0:0:0:0:
448,192,20080,1,0,0:0:0:70:soft-hitnormal22.wav
320,192,20230,128,2,20380:0:0:0:0:
64,192,20380,1,2,0:0:0:0:
448,192,20380,1,4,0:0:0:0:
320,192,20530,1,0,0:0:0:70:LR_Hat Synth.wav
64,192,20680,1,2,0:0:0:0:
192,192,20680,1,0,0:0:0:0:
448,192,20830,1,0,0:0:0:70:LR_Hat Synth.wav
64,192,20980,1,2,0:0:0:0:
320,192,20980,1,0,0:0:0:0:
448,192,21130,1,0,0:0:0:70:LR_Hat Synth.wav
320,192,21180,1,0,0:0:0:0:
192,192,21230,1,0,0:0:0:0:
64,192,21280,1,2,0:0:0:0:
448,192,21280,1,0,0:0:0:0:
320,192,21430,1,0,0:0:0:70:LR_Hat Synth.wav
192,192,21580,128,2,21730:0:0:0:0:
448,192,21580,1,0,0:0:0:0:
64,192,21730,128,0,21880:0:0:0:70:LR_Hat Synth.wav
320,192,21880,1,2,0:0:0:0:
448,192,21880,128,0,22030:0:0:0:0:
192,192,22030,128,0,22180:0:0:0:70:LR_Hat Synth.wav
64,192,22180,128,2,22630:0:0:0:0:
448,192,22180,1,0,0:0:0:0:
192,192,22330,1,0,0:0:0:70:LR_Hat Synth.wav
320,192,22480,1,2,0:0:0:0:
448,192,22630,128,0,22780:0:0:0:70:LR_Hat Synth.wav
64,192,22780,1,2,0:0:0:0:
192,192,22780,1,0,0:0:0:0:
448,192,22930,1,0,0:0:0:70:LR_Hat Synth.wav
192,192,23080,1,2,0:0:0:0:
320,192,23080,1,0,0:0:0:0:
64,192,23230,1,0,0:0:0:70:LR_Hat Synth.wav
320,192,23380,1,2,0:0:0:0:
448,192,23380,1,0,0:0:0:0:
192,192,23530,1,0,0:0:0:70:LR_Hat Synth.wav
320,192,23580,1,0,0:0:0:0:
448,192,23630,1,0,0:0:0:0:
64,192,23680,1,2,0:0:0:0:
192,192,23680,1,0,0:0:0:0:
448,192,23830,1,0,0:0:0:70:LR_Hat Synth.wav
64,192,23980,1,2,0:0:0:0:
320,192,23980,128,0,24130:0:0:0:0:
192,192,24130,128,0,24280:0:0:0:70:LR_Hat Synth.wav
64,192,24280,128,2,24430:0:0:0:0:
448,192,24280,1,0,0:0:0:0:
320,192,24430,128,0,24580:0:0:0:70:LR_Hat Synth.wav
64,192,24580,1,2,0:0:0:0:
448,192,24580,128,0,25030:0:0:0:0:
320,192,24730,1,0,0:0:0:70:LR_Hat Synth.wav
192,192,24880,1,2,0:0:0:0:
320,192,25030,128,0,25180:0:0:0:70:LR_Hat Synth.wav
64,192,25180,1,2,0:0:0:0:
448,192,25180,1,4,0:0:0:0:
192,192,25330,1,2,0:0:0:0:
448,192,25330,1,0,0:0:0:0:
64,192,25480,1,2,0:0:0:0:
320,192,25480,1,0,0:0:0:0:
64,192,25630,1,2,0:0:0:0:
448,192,25630,1,0,0:0:0:0:
192,192,25780,1,2,0:0:0:0:
320,192,25780,1,0,0:0:0:0:
320,192,25930,1,2,0:0:0:0:
448,192,25930,1,0,0:0:0:0:
64,192,26080,1,2,0:0:0:0:
192,192,26080,1,0,0:0:0:0:
192,192,26230,1,2,0:0:0:0:
320,192,26230,1,0,0:0:0:0:
64,192,26380,1,2,0:0:0:0:
448,192,26380,1,4,0:0:0:0:
192,192,26530,1,2,0:0:0:0:
448,192,26530,1,0,0:0:0:0:
64,192,26680,1,2,0:0:0:0:
320,192,26680,1,0,0:0:0:0:
64,192,26830,1,2,0:0:0:0:
192,192,26830,1,0,0:0:0:0:
320,192,26980,1,2,0:0:0:0:
448,192,26980,1,0,0:0:0:0:
192,192,27130,1,2,0:0:0:0:
320,192,27130,1,0,0:0:0:0:
64,192,27280,1,2,0:0:0:0:
448,192,27280,1,0,0:0:0:0:
64,192,27430,1,2,0:0:0:0:
192,192,27430,1,0,0:0:0:0:
64,192,27580,1,2,0:0:0:0:
448,192,27580,1,4,0:0:0:0:
192,192,27655,1,2,0:0:0:0:
448,192,27730,1,2,0:0:0:0:
320,192,27805,1,2,0:0:0:0:
64,192,27880,1,2,0:0:0:0:
192,192,27955,1,2,0:0:0:0:
448,192,28030,1,2,0:0:0:0:
192,192,28105,1,2,0:0:0:0:
320,192,28180,1,2,0:0:0:0:
64,192,28255,1,2,0:0:0:0:
448,192,28330,1,2,0:0:0:0:
192,192,28405,1,2,0:0:0:0:
320,192,28480,1,2,0:0:0:0:
64,192,28555,1,2,0:0:0:0:
448,192,28630,1,2,0:0:0:0:
192,192,28705,1,2,0:0:0:0:
320,192,28780,1,2,0:0:0:0:
448,192,28780,1,4,0:0:0:0:
64,192,28930,1,2,0:0:0:0:
320,192,28930,1,0,0:0:0:0:
192,192,29080,1,2,0:0:0:0:
448,192,29080,1,0,0:0:0:0:
64,192,29230,1,2,0:0:0:0:
192,192,29230,1,0,0:0:0:0:
320,192,29380,1,2,0:0:0:0:
448,192,29380,1,4,0:0:0:0:
64,192,29530,1,0,0:0:0:70:soft-hitnormal22.wav
64,192,29680,1,0,0:0:0:70:soft-hitnormal22.wav
320,192,29980,1,2,0:0:0:0:
448,192,29980,128,4,30130:0:0:0:0:
192,192,30130,128,0,30280:0:0:0:70:LR_Hat Synth.wav
64,192,30280,128,2,30430:0:0:0:0:
448,192,30280,1,0,0:0:0:0:
320,192,30430,128,0,30580:0:0:0:70:LR_Hat Synth.wav
64,192,30580,1,2,0:0:0:0:
192,192,30580,128,0,30730:0:0:0:0:
448,192,30730,1,0,0:0:0:70:LR_Hat Synth.wav
192,192,30880,1,2,0:0:0:0:
320,192,30880,1,0,0:0:0:0:
64,192,31030,1,0,0:0:0:70:LR_Hat Synth.wav
320,192,31180,1,2,0:0:0:0:
448,192,31180,128,0,31330:0:0:0:0:
192,192,31330,128,0,31480:0:0:0:70:LR_Hat Synth.wav
320,192,31480,128,2,31630:0:0:0:0:
448,192,31480,1,0,0:0:0:0:
64,192,31630,128,0,31780:0:0:0:70:LR_Hat Synth.wav
192,192,31780,1,2,0:0:0:0:
448,192,31780,128,0,31930:0:0:0:0:
320,192,31930,1,0,0:0:0:70:LR_Hat Synth.wav
64,192,32080,1,2,0:0:0:0:
192,192,32080,1,0,0:0:0:0:
448,192,32230,1,0,0:0:0:70:LR_Hat Synth.wav
192,192,32380,128,2,32530:0:0:0:0:
320,192,32380,1,0,0:0:0:0:
64,192,32530,128,0,32680:0:0:0:70:LR_Hat Synth.wav
320,192,32680,128,2,32830:0:0:0:0:
448,192,32680,1,0,0:0:0:0:
192,192,32830,128,0,32980:0:0:0:70:LR_Hat Synth.wav
64,192,32980,1,2,0:0:0:0:
448,192,32980,128,0,33130:0:0:0:0:
192,192,33130,1,0,0:0:0:70:LR_Hat Synth.wav
64,192,33280,1,2,0:0:0:0:
320,192,33280,1,0,0:0:0:0:
448,192,33430,1,0,0:0:0:70:LR_Hat Synth.wav
192,192,33580,128,2,33730:0:0:0:0:
320,192,33580,1,0,0:0:0:0:
448,192,33730,128,0,33880:0:0:0:70:LR_Hat Synth.wav
64,192,33880,128,2,34030:0:0:0:0:
192,192,33880,1,0,0:0:0:0:
448,192,34030,128,0,34180:0:0:0:70:LR_Hat Synth.wav
64,192,34180,1,2,0:0:0:0:
192,192,34180,1,0,0:0:0:0:
320,192,34330,1,0,0:0:0:70:LR_Hat Synth.wav
192,192,34380,1,0,0:0:0:0:
64,192,34430,1,0,0:0:0:0:
320,192,34480,1,2,0:0:0:0:
448,192,34480,1,0,0:0:0:0:
192,192,34630,1,0,0:0:0:70:LR_Hat Synth.wav
64,192,34780,128,2,34930:0:0:0:0:
448,192,34780,1,0,0:0:0:0:
192,192,34930,128,0,35080:0:0:0:70:LR_Hat Synth.wav
320,192,35080,128,2,35230:0:0:0:0:
448,192,35080,1,0,0:0:0:0:
64,192,35230,128,0,35380:0:0:0:70:LR_Hat Synth.wav
192,192,35380,1,2,0:0:0:0:
448,192,35380,128,0,35530:0:0:0:0:
320,192,35530,1,0,0:0:0:70:LR_Hat Synth.wav
64,192,35680,1,2,0:0:0:0:
192,192,35680,1,0,0:0:0:0:
320,192,35830,1,0,0:0:0:70:LR_Hat Synth.wav
64,192,35980,1,2,0:0:0:0:
448,192,35980,128,0,36130:0:0:0:0:
192,192,36130,128,0,36280:0:0:0:70:LR_Hat Synth.wav
320,192,36280,1,2,0:0:0:0:
448,192,36280,128,0,36430:0:0:0:0:
64,192,36430,128,0,36580:0:0:0:70:LR_Hat Synth.wav
192,192,36580,1,2,0:0:0:0:
320,192,36580,128,0,36730:0:0:0:0:
64,192,36730,1,0,0:0:0:70:LR_Hat Synth.wav
320,192,36880,1,2,0:0:0:0:
448,192,36880,1,0,0:0:0:0:
192,192,37030,1,0,0:0:0:70:LR_Hat Synth.wav
64,192,37180,128,2,37330:0:0:0:0:
448,192,37180,1,0,0:0:0:0:
320,192,37330,128,0,37480:0:0:0:70:LR_Hat Synth.wav
64,192,37480,1,2,0:0:0:0:
192,192,37480,128,0,37630:0:0:0:0:
448,192,37630,128,0,37780:0:0:0:70:LR_Hat Synth.wav
64,192,37780,128,2,37930:0:0:0:0:
320,192,37780,1,0,0:0:0:0:
192,192,37930,1,0,0:0:0:70:LR_Hat Synth.wav
320,192,38080,1,2,0:0:0:0:
448,192,38080,1,0,0:0:0:0:
192,192,38230,1,0,0:0:0:70:LR_Hat Synth.wav
64,192,38380,1,2,0:0:0:0:
320,192,38380,128,0,38530:0:0:0:0:
192,192,38530,128,0,38680:0:0:0:70:soft-hitnormal22.wav
64,192,38680,128,2,38830:0:0:0:0:
448,192,38680,1,0,0:0:0:70:soft-hitnormal22.wav
320,192,38830,128,0,38980:0:0:0:70:soft-hitnormal22.wav
64,192,38980,1,2,0:0:0:0:
192,192,38980,1,0,0:0:0:70:soft-hitnormal22.wav
448,192,39130,1,0,0:0:0:70:soft-hitnormal22.wav
320,192,39180,1,0,0:0:0:0:
192,192,39230,1,0,0:0:0:0:
64,192,39280,1,2,0:0:0:0:
448,192,39280,1,0,0:0:0:70:soft-hitnormal22.wav
320,192,39430,1,0,0:0:0:70:soft-hitnormal22.wav
448,192,39580,128,0,40780:0:0:0:0:
192,192,39580,128,0,39730:0:0:0:0:
320,192,39730,128,0,39880:0:0:0:0:
64,192,39880,128,0,40030:0:0:0:0:
192,192,40030,128,0,40180:0:0:0:0:
64,192,40180,128,0,40330:0:0:0:0:
320,192,40330,1,0,0:0:0:0:
192,192,40480,1,0,0:0:0:0:
64,192,40630,1,0,0:0:0:0:
320,192,40780,128,0,41980:0:0:0:0:
192,192,40780,128,0,40930:0:0:0:0:
448,192,40930,128,0,41080:0:0:0:0:
64,192,41080,128,0,41230:0:0:0:0:
192,192,41230,128,0,41380:0:0:0:0:
64,192,41380,128,0,41530:0:0:0:0:
448,192,41530,1,0,0:0:0:0:
192,192,41680,1,0,0:0:0:0:
64,192,41830,1,0,0:0:0:0:
192,192,41980,128,0,42580:0:0:0:0:
448,192,41980,128,0,42130:0:0:0:0:
64,192,42130,128,0,42280:0:0:0:0:
320,192,42280,128,0,42430:0:0:0:0:
448,192,42430,128,0,42580:0:0:0:0:
320,192,42580,128,0,43180:0:0:0:0:
64,192,42580,1,0,0:0:0:0:
192,192,42730,1,0,0:0:0:0:
448,192,42880,1,0,0:0:0:0:
64,192,43030,1,0,0:0:0:0:
192,192,43180,128,0,43480:0:0:0:0:
448,192,43180,128,0,43330:0:0:0:0:
320,192,43330,128,0,43480:0:0:0:0:
64,192,43480,128,0,43780:0:0:0:0:
448,192,43480,128,0,43630:0:0:0:0:
192,192,43630,128,0,43780:0:0:0:0:
320,192,43780,128,0,44080:0:0:0:0:
448,192,43780,1,0,0:0:0:0:
192,192,43930,1,0,0:0:0:0:
448,192,44080,128,0,44380:0:0:0:0:
64,192,44080,1,0,0:0:0:0:
320,192,44230,1,0,0:0:0:0:
64,192,44380,1,14,0:0:0:0:
192,192,44380,1,0,0:0:0:0:
192,192,44530,1,8,0:0:0:0:
320,192,44530,1,0,0:0:0:0:
64,192,44680,1,8,0:0:0:0:
448,192,44680,1,2,0:0:0:0:
192,192,44830,1,8,0:0:0:0:
448,192,44830,1,0,0:0:0:0:
64,192,44980,1,2,0:0:0:0:
320,192,44980,1,8,0:0:0:0:
64,192,45130,1,8,0:0:0:0:
448,192,45130,1,0,0:0:0:0:
192,192,45280,1,2,0:0:0:0:
320,192,45280,1,8,0:0:0:0:
320,192,45430,1,8,0:0:0:0:
448,192,45430,1,0,0:0:0:0:
64,192,45580,1,2,0:0:0:0:
192,192,45580,1,8,0:0:0:0:
192,192,45730,1,8,0:0:0:0:
448,192,45730,1,0,0:0:0:0:
64,192,45880,1,8,0:0:0:0:
320,192,45880,1,2,0:0:0:0:
320,192,46030,1,8,0:0:0:0:
448,192,46030,1,0,0:0:0:0:
64,192,46180,1,2,0:0:0:0:
192,192,46180,1,8,0:0:0:0:
192,192,46330,1,8,0:0:0:0:
320,192,46330,1,0,0:0:0:0:
64,192,46480,1,2,0:0:0:0:
448,192,46480,1,8,0:0:0:0:
64,192,46630,1,8,0:0:0:0:
320,192,46630,1,0,0:0:0:0:
192,192,46780,1,2,0:0:0:0:
448,192,46780,1,8,0:0:0:0:
64,192,46855,1,8,0:0:0:0:
320,192,46930,1,8,0:0:0:0:
448,192,47005,1,8,0:0:0:0:
192,192,47080,1,10,0:0:0:0:
64,192,47155,1,8,0:0:0:0:
320,192,47230,1,8,0:0:0:0:
448,192,47305,1,8,0:0:0:0:
64,192,47380,1,10,0:0:0:0:
192,192,47455,1,8,0:0:0:0:
320,192,47530,1,8,0:0:0:0:
448,192,47605,1,8,0:0:0:0:
192,192,47680,1,10,0:0:0:0:
64,192,47755,1,8,0:0:0:0:
448,192,47830,1,8,0:0:0:0:
320,192,47905,1,8,0:0:0:0:
64,192,47980,1,2,0:0:0:0:
192,192,47980,1,4,0:0:0:0:
320,192,48130,1,0,0:0:0:70:soft-hitnormal22.wav
448,192,48280,1,0,0:0:0:70:soft-hitnormal22.wav
320,192,48430,1,0,0:0:0:70:soft-hitnormal22.wav
448,192,48580,1,0,0:0:0:70:soft-hitnormal22.wav
320,192,48730,1,0,0:0:0:70:soft-hitnormal22.wav
448,192,48880,1,0,0:0:0:70:soft-hitnormal22.wav
320,192,49030,1,0,0:0:0:70:soft-hitnormal22.wav
64,192,49180,128,2,49480:0:0:0:0:
192,192,49180,128,0,49480:0:0:0:0:
448,192,49180,1,0,0:0:0:0:
448,192,49405,1,0,0:0:0:0:
320,192,49480,1,2,0:0:0:0:
192,192,49705,1,0,0:0:0:0:
64,192,49780,1,8,0:0:0:0:
448,192,49780,1,0,0:0:0:0:
192,192,50005,1,0,0:0:0:0:
320,192,50080,1,0,0:0:0:0:
64,192,50305,1,0,0:0:0:0:
448,192,50380,1,0,0:0:0:0:
320,192,50605,1,0,0:0:0:0:
64,192,50680,1,2,0:0:0:0:
192,192,50680,1,0,0:0:0:0:
192,192,50905,1,0,0:0:0:0:
320,192,50980,1,8,0:0:0:0:
448,192,50980,1,0,0:0:0:0:
192,192,51580,1,2,0:0:0:0:
320,192,51580,128,0,51880:0:0:0:0:
448,192,51580,128,0,51880:0:0:0:0:
64,192,51880,1,0,0:0:0:0:
448,192,52105,1,0,0:0:0:0:
64,192,52180,1,8,0:0:0:0:
320,192,52180,1,0,0:0:0:0:
192,192,52480,1,2,0:0:0:0:
320,192,52480,1,0,0:0:0:0:
64,192,52780,1,2,0:0:0:0:
192,192,52780,1,0,0:0:0:0:
192,192,53005,1,2,0:0:0:0:
448,192,53005,1,0,0:0:0:0:
320,192,53080,1,0,0:0:0:0:
64,192,53230,1,2,0:0:0:0:
192,192,53230,1,0,0:0:0:0:
320,192,53305,1,0,0:0:0:0:
64,192,53380,1,8,0:0:0:0:
448,192,53380,1,0,0:0:0:0:
320,192,53605,1,0,0:0:0:0:
192,192,53680,1,0,0:0:0:70:soft-hitnormal22.wav
448,192,53680,128,0,53980:0:0:0:0:
64,192,53980,128,2,54280:0:0:0:0:
192,192,53980,128,0,54280:0:0:0:0:
320,192,53980,1,0,0:0:0:0:
448,192,54205,1,0,0:0:0:0:
320,192,54280,1,0,0:0:0:0:
192,192,54505,1,0,0:0:0:0:
64,192,54580,1,8,0:0:0:0:
448,192,54580,1,0,0:0:0:0:
448,192,54805,1,0,0:0:0:0:
320,192,54880,1,0,0:0:0:0:
192,192,55105,1,0,0:0:0:0:
64,192,55180,1,0,0:0:0:0:
320,192,55405,1,0,0:0:0:0:
192,192,55480,1,2,0:0:0:0:
448,192,55480,1,0,0:0:0:0:
64,192,55705,1,0,0:0:0:0:
192,192,55780,1,8,0:0:0:0:
448,192,55780,1,0,0:0:0:0:
192,192,56380,128,2,56680:0:0:0:0:
320,192,56380,128,0,56680:0:0:0:0:
448,192,56380,1,0,0:0:0:0:
64,192,56680,1,0,0:0:0:0:
320,192,56905,1,0,0:0:0:0:
64,192,56980,1,8,0:0:0:0:
192,192,56980,1,0,0:0:0:0:
192,192,57280,1,2,0:0:0:0:
448,192,57280,1,0,0:0:0:0:
64,192,57580,1,2,0:0:0:0:
320,192,57580,1,0,0:0:0:0:
192,192,57805,1,2,0:0:0:0:
320,192,57805,1,0,0:0:0:0:
448,192,57880,1,0,0:0:0:0:
64,192,58030,1,2,0:0:0:0:
192,192,58030,1,0,0:0:0:0:
320,192,58105,1,0,0:0:0:0:
64,192,58180,1,8,0:0:0:0:
448,192,58180,1,0,0:0:0:0:
320,192,58405,1,0,0:0:0:0:
192,192,58480,128,0,58780:0:0:0:70:soft-hitnormal22.wav
448,192,58480,1,0,0:0:0:0:
64,192,58780,1,2,0:0:0:0:
320,192,58780,128,4,59080:0:0:0:0:
448,192,58780,128,0,59080:0:0:0:0:
64,192,59080,1,2,0:0:0:0:
192,192,59080,1,0,0:0:0:0:
192,192,59305,1,0,0:0:0:0:
64,192,59380,1,2,0:0:0:0:
448,192,59380,1,0,0:0:0:0:
320,192,59605,1,0,0:0:0:0:
192,192,59680,1,2,0:0:0:0:
448,192,59680,1,0,0:0:0:0:
64,192,59905,1,0,0:0:0:0:
192,192,59980,1,2,0:0:0:0:
320,192,59980,1,0,0:0:0:0:
448,192,60205,1,0,0:0:0:0:
64,192,60280,1,2,0:0:0:0:
320,192,60280,1,0,0:0:0:0:
192,192,60505,1,0,0:0:0:0:
64,192,60580,1,2,0:0:0:0:
448,192,60580,1,0,0:0:0:0:
192,192,60880,1,2,0:0:0:0:
320,192,60880,1,0,0:0:0:0:
64,192,61180,128,2,61480:0:0:0:0:
192,192,61180,128,0,61480:0:0:0:0:
448,192,61180,1,0,0:0:0:0:
320,192,61480,1,2,0:0:0:0:
448,192,61480,1,0,0:0:0:0:
64,192,61705,1,0,0:0:0:0:
192,192,61780,1,2,0:0:0:0:
320,192,61780,1,0,0:0:0:0:
320,192,62080,1,2,0:0:0:0:
448,192,62080,1,0,0:0:0:0:
64,192,62380,1,2,0:0:0:0:
192,192,62380,1,0,0:0:0:0:
320,192,62605,1,0,0:0:0:0:
64,192,62680,1,2,0:0:0:0:
448,192,62680,1,0,0:0:0:0:
192,192,62905,1,0,0:0:0:0:
320,192,62980,1,2,0:0:0:0:
448,192,62980,1,0,0:0:0:0:
320,192,63205,1,0,0:0:0:0:
64,192,63280,1,2,0:0:0:0:
192,192,63280,128,0,63580:0:0:0:70:soft-hitnormal22.wav
64,192,63580,1,2,0:0:0:0:
448,192,63580,1,4,0:0:0:0:
320,192,63730,1,2,0:0:0:0:
448,192,63730,1,0,0:0:0:0:
64,192,63880,1,2,0:0:0:0:
192,192,63880,1,8,0:0:0:0:
64,192,64030,1,2,0:0:0:0:
320,192,64030,1,0,0:0:0:0:
192,192,64180,1,2,0:0:0:0:
448,192,64180,1,0,0:0:0:0:
320,192,64330,1,2,0:0:0:0:
448,192,64330,1,0,0:0:0:0:
64,192,64480,1,2,0:0:0:0:
192,192,64480,1,8,0:0:0:0:
64,192,64630,1,2,0:0:0:0:
320,192,64630,1,0,0:0:0:0:
320,192,64780,1,2,0:0:0:0:
448,192,64780,1,4,0:0:0:0:
192,192,64930,1,2,0:0:0:0:
448,192,64930,1,0,0:0:0:0:
64,192,65080,1,2,0:0:0:0:
320,192,65080,1,8,0:0:0:0:
64,192,65230,1,2,0:0:0:0:
192,192,65230,1,0,0:0:0:0:
320,192,65380,1,2,0:0:0:0:
448,192,65380,1,0,0:0:0:0:
192,192,65530,1,2,0:0:0:0:
320,192,65530,1,0,0:0:0:0:
64,192,65680,1,2,0:0:0:0:
192,192,65680,1,8,0:0:0:0:
320,192,65830,1,2,0:0:0:0:
448,192,65830,1,0,0:0:0:0:
64,192,65980,1,2,0:0:0:0:
448,192,65980,1,4,0:0:0:0:
192,192,66055,1,2,0:0:0:0:
448,192,66130,1,2,0:0:0:0:
320,192,66205,1,2,0:0:0:0:
192,192,66280,1,10,0:0:0:0:
64,192,66355,1,2,0:0:0:0:
320,192,66430,1,2,0:0:0:0:
448,192,66505,1,2,0:0:0:0:
192,192,66580,1,2,0:0:0:0:
64,192,66655,1,2,0:0:0:0:
448,192,66730,1,2,0:0:0:0:
320,192,66805,1,2,0:0:0:0:
64,192,66880,1,10,0:0:0:0:
192,192,66955,1,2,0:0:0:0:
320,192,67030,1,2,0:0:0:0:
448,192,67105,1,2,0:0:0:0:
64,192,67180,1,4,0:0:0:0:
192,192,67180,1,2,0:0:0:0:
320,192,68105,1,0,0:0:0:0:
448,192,68255,1,0,0:0:0:0:
192,192,68380,1,2,0:0:0:0:
64,192,68380,1,0,0:0:0:0:
448,192,68555,1,0,0:0:0:0:
320,192,68705,1,0,0:0:0:0:
192,192,68855,1,0,0:0:0:0:
448,192,69005,1,0,0:0:0:0:
64,192,69155,1,0,0:0:0:0:
192,192,69205,1,0,0:0:0:0:
320,192,69255,1,0,0:0:0:0:
448,192,69305,1,0,0:0:0:0:
192,192,69455,1,0,0:0:0:0:
64,192,69605,1,0,0:0:0:0:
320,192,69755,1,0,0:0:0:0:
192,192,69905,1,0,0:0:0:0:
448,192,70055,1,0,0:0:0:0:
320,192,70205,1,0,0:0:0:0:
64,192,70505,1,0,0:0:0:0:
192,192,70655,1,0,0:0:0:0:
448,192,70805,1,0,0:0:0:0:
320,192,70955,1,0,0:0:0:0:
448,192,71105,1,0,0:0:0:0:
64,192,71255,1,0,0:0:0:0:
192,192,71405,1,0,0:0:0:0:
448,192,71555,1,0,0:0:0:0:
320,192,71605,1,0,0:0:0:0:
192,192,71655,1,0,0:0:0:0:
64,192,71705,1,0,0:0:0:0:
320,192,71855,1,0,0:0:0:0:
192,192,72005,1,0,0:0:0:0:
448,192,72155,1,0,0:0:0:0:
320,192,72305,1,0,0:0:0:0:
64,192,72455,1,0,0:0:0:0:
320,192,72605,1,0,0:0:0:0:
448,192,72905,1,0,0:0:0:0:
320,192,73055,1,0,0:0:0:0:
192,192,73205,1,0,0:0:0:0:
64,192,73655,1,0,0:0:0:0:
64,192,73805,1,0,0:0:0:0:
320,192,73955,1,0,0:0:0:0:
192,192,74105,1,0,0:0:0:0:
320,192,74255,1,0,0:0:0:0:
64,192,74405,1,0,0:0:0:0:
192,192,74555,1,0,0:0:0:0:
320,192,74705,1,0,0:0:0:0:
448,192,74855,1,0,0:0:0:0:
320,192,75005,1,0,0:0:0:0:
192,192,75305,1,0,0:0:0:0:
448,192,75455,1,0,0:0:0:0:
64,192,75605,1,0,0:0:0:0:
320,192,75755,1,0,0:0:0:0:
448,192,75905,1,0,0:0:0:0:
64,192,76055,1,0,0:0:0:0:
192,192,76205,1,0,0:0:0:0:
448,192,76355,1,0,0:0:0:0:
320,192,76405,1,0,0:0:0:0:
192,192,76455,1,0,0:0:0:0:
64,192,76505,1,0,0:0:0:0:
320,192,76655,1,0,0:0:0:0:
448,192,76805,1,0,0:0:0:0:
320,192,76955,1,0,0:0:0:0:
192,192,77105,1,0,0:0:0:0:
64,192,77255,1,0,0:0:0:0:
192,192,77405,1,0,0:0:0:0:
448,192,77555,1,0,0:0:0:0:
320,192,77680,1,0,0:0:0:0:
64,192,77680,1,0,0:0:0:70:LR_Snare Clap Low.wav
448,192,77855,1,0,0:0:0:0:
64,192,77980,1,8,0:0:0:0:
192,192,77980,1,0,0:0:0:0:
320,192,78130,1,0,0:0:0:0:
64,192,78280,1,8,0:0:0:0:
448,192,78280,1,0,0:0:0:0:
192,192,78430,1,0,0:0:0:0:
64,192,78580,1,8,0:0:0:0:
448,192,78580,1,0,0:0:0:0:
320,192,78730,1,0,0:0:0:0:
448,192,78880,1,8,0:0:0:0:
192,192,78880,1,0,0:0:0:0:
64,192,79030,1,0,0:0:0:0:
320,192,79180,1,8,0:0:0:0:
448,192,79180,1,0,0:0:0:0:
64,192,79330,1,0,0:0:0:0:
448,192,79480,1,8,0:0:0:0:
192,192,79480,1,0,0:0:0:0:
320,192,79630,1,0,0:0:0:0:
192,192,79780,1,8,0:0:0:0:
64,192,79780,1,0,0:0:0:0:
448,192,79930,1,0,0:0:0:0:
192,192,80080,1,8,0:0:0:0:
320,192,80080,1,0,0:0:0:0:
64,192,80230,1,0,0:0:0:0:
320,192,80380,1,8,0:0:0:0:
448,192,80380,1,0,0:0:0:0:
192,192,80530,1,0,0:0:0:0:
64,192,80680,1,8,0:0:0:0:
448,192,80680,1,0,0:0:0:0:
320,192,80830,1,0,0:0:0:0:
64,192,80980,1,8,0:0:0:0:
192,192,80980,1,0,0:0:0:0:
448,192,81130,1,0,0:0:0:0:
64,192,81280,1,8,0:0:0:0:
320,192,81280,1,0,0:0:0:0:
448,192,81430,1,0,0:0:0:0:
192,192,81580,1,0,0:0:0:0:
64,192,81580,1,0,0:0:0:0:
320,192,81730,1,0,0:0:0:0:
192,192,81880,1,8,0:0:0:0:
448,192,81880,1,0,0:0:0:0:
64,192,82030,1,0,0:0:0:0:
320,192,82180,1,8,0:0:0:0:
448,192,82180,1,0,0:0:0:0:
64,192,82330,1,0,0:0:0:0:
192,192,82480,1,8,0:0:0:0:
448,192,82480,1,0,0:0:0:0:
320,192,82630,1,0,0:0:0:0:
64,192,82780,1,8,0:0:0:0:
448,192,82780,1,0,0:0:0:0:
192,192,82930,1,8,0:0:0:0:
320,192,82930,1,0,0:0:0:0:
64,192,83080,1,8,0:0:0:0:
448,192,83080,1,0,0:0:0:0:
192,192,83230,1,8,0:0:0:0:
320,192,83230,1,0,0:0:0:0:
448,192,83380,1,8,0:0:0:0:
64,192,83380,1,0,0:0:0:0:
192,192,83530,1,8,0:0:0:0:
320,192,83530,1,0,0:0:0:0:
64,192,83680,1,8,0:0:0:0:
448,192,83680,1,0,0:0:0:0:
320,192,83830,1,8,0:0:0:0:
192,192,83830,1,0,0:0:0:0:
320,192,83980,1,8,0:0:0:0:
448,192,83980,1,0,0:0:0:0:
192,192,84130,1,8,0:0:0:0:
64,192,84130,1,0,0:0:0:0:
448,192,84280,1,8,0:0:0:0:
320,192,84280,1,0,0:0:0:0:
64,192,84430,1,8,0:0:0:0:
192,192,84430,1,0,0:0:0:0:
320,192,84580,1,8,0:0:0:0:
448,192,84580,1,0,0:0:0:0:
192,192,84730,1,8,0:0:0:0:
64,192,84730,1,0,0:0:0:0:
448,192,84880,1,8,0:0:0:0:
320,192,84880,1,0,0:0:0:0:
192,192,85030,1,8,0:0:0:0:
64,192,85030,1,0,0:0:0:0:
64,192,85180,1,8,0:0:0:0:
448,192,85180,1,4,0:0:0:0:
192,192,85255,1,8,0:0:0:0:
320,192,85330,1,8,0:0:0:0:
64,192,85405,1,8,0:0:0:0:
448,192,85480,1,8,0:0:0:0:
320,192,85555,1,8,0:0:0:0:
192,192,85630,1,8,0:0:0:0:
448,192,85705,1,8,0:0:0:0:
64,192,85780,1,12,0:0:0:0:
192,192,85855,1,8,0:0:0:0:
320,192,85930,1,8,0:0:0:0:
448,192,86005,1,8,0:0:0:0:
64,192,86080,1,8,0:0:0:0:
192,192,86155,1,8,0:0:0:0:
320,192,86230,1,8,0:0:0:0:
448,192,86305,1,8,0:0:0:0:
64,192,86380,128,14,86530:0:0:0:0:
192,192,86380,1,0,0:0:0:0:
320,192,86530,128,0,86680:0:0:0:0:
64,192,86680,128,0,86830:0:0:0:0:
192,192,86830,128,0,86980:0:0:0:0:
448,192,86980,128,0,87280:0:0:0:0:
192,192,87280,1,0,0:0:0:70:soft-hitnormal22.wav
320,192,87580,128,14,87730:0:0:0:0:
448,192,87580,1,0,0:0:0:0:
64,192,87730,1,0,0:0:0:70:LR_Hat Synth.wav
192,192,87805,128,0,87955:0:0:0:0:
448,192,88030,128,0,88180:0:0:0:70:LR_Hat Synth.wav
64,192,88180,1,2,0:0:0:0:
320,192,88330,1,0,0:0:0:70:LR_Hat Synth.wav
192,192,88405,1,0,0:0:0:0:
64,192,88480,1,2,0:0:0:0:
448,192,88480,1,0,0:0:0:0:
192,192,88630,1,0,0:0:0:70:LR_Hat Synth.wav
320,192,88780,128,2,88930:0:0:0:0:
448,192,88780,1,0,0:0:0:0:
192,192,88930,1,0,0:0:0:70:LR_Hat Synth.wav
64,192,89005,128,0,89155:0:0:0:0:
448,192,89230,128,0,89380:0:0:0:70:LR_Hat Synth.wav
320,192,89380,1,2,0:0:0:0:
64,192,89530,1,0,0:0:0:70:LR_Hat Synth.wav
192,192,89605,1,0,0:0:0:0:
320,192,89680,1,2,0:0:0:0:
448,192,89680,1,0,0:0:0:0:
192,192,89830,1,0,0:0:0:70:LR_Hat Synth.wav
64,192,89980,128,2,90130:0:0:0:0:
448,192,89980,1,0,0:0:0:0:
320,192,90130,1,0,0:0:0:70:LR_Hat Synth.wav
192,192,90205,128,0,90355:0:0:0:0:
448,192,90430,128,0,90580:0:0:0:70:LR_Hat Synth.wav
64,192,90580,128,2,90730:0:0:0:0:
192,192,90580,1,0,0:0:0:0:
320,192,90730,1,0,0:0:0:70:LR_Hat Synth.wav
192,192,90780,1,0,0:0:0:0:
64,192,90830,1,0,0:0:0:0:
320,192,90880,1,2,0:0:0:0:
448,192,90880,1,0,0:0:0:0:
192,192,91030,1,0,0:0:0:70:LR_Hat Synth.wav
448,192,91180,128,2,91330:0:0:0:0:
64,192,91180,1,0,0:0:0:0:
320,192,91330,1,0,0:0:0:70:LR_Hat Synth.wav
192,192,91405,128,0,91555:0:0:0:0:
320,192,91630,128,0,91780:0:0:0:70:LR_Hat Synth.wav
64,192,91780,1,2,0:0:0:0:
448,192,91930,128,0,92080:0:0:0:70:LR_Hat Synth.wav
192,192,92080,1,2,0:0:0:0:
320,192,92080,1,0,0:0:0:0:
192,192,92230,1,0,0:0:0:70:LR_Hat Synth.wav
448,192,92380,1,2,0:0:0:0:
64,192,92380,128,0,92530:0:0:0:0:
320,192,92530,1,0,0:0:0:70:LR_Hat Synth.wav
192,192,92605,128,0,92755:0:0:0:0:
448,192,92830,128,0,92980:0:0:0:70:LR_Hat Synth.wav
64,192,92980,1,2,0:0:0:0:
320,192,93130,1,0,0:0:0:70:LR_Hat Synth.wav
192,192,93205,1,0,0:0:0:0:
64,192,93280,1,2,0:0:0:0:
448,192,93280,1,0,0:0:0:0:
320,192,93430,1,0,0:0:0:70:LR_Hat Synth.wav
64,192,93580,1,2,0:0:0:0:
192,192,93580,128,0,93730:0:0:0:0:
448,192,93730,1,0,0:0:0:70:LR_Hat Synth.wav
320,192,93805,128,0,93955:0:0:0:0:
64,192,94030,128,0,94180:0:0:0:70:LR_Hat Synth.wav
320,192,94180,1,2,0:0:0:0:
448,192,94180,128,0,94330:0:0:0:0:
192,192,94330,1,0,0:0:0:70:LR_Hat Synth.wav
320,192,94405,128,0,94555:0:0:0:0:
192,192,94630,128,0,94780:0:0:0:70:LR_Hat Synth.wav
64,192,94780,128,2,94930:0:0:0:0:
448,192,94780,1,0,0:0:0:0:
192,192,94930,1,0,0:0:0:70:LR_Hat Synth.wav
320,192,95005,128,0,95155:0:0:0:0:
448,192,95230,128,0,95380:0:0:0:70:LR_Hat Synth.wav
64,192,95380,128,2,95530:0:0:0:0:
192,192,95380,1,0,0:0:0:0:
448,192,95530,1,0,0:0:0:70:LR_Hat Synth.wav
320,192,95580,1,0,0:0:0:0:
192,192,95630,1,0,0:0:0:0:
64,192,95680,1,2,0:0:0:0:
448,192,95680,1,0,0:0:0:0:
320,192,95830,1,0,0:0:0:70:LR_Hat Synth.wav
448,192,95980,1,2,0:0:0:0:
192,192,95980,128,0,96130:0:0:0:0:
320,192,96130,1,0,0:0:0:70:LR_Hat Synth.wav
64,192,96205,128,0,96355:0:0:0:0:
320,192,96430,128,0,96580:0:0:0:70:LR_Hat Synth.wav
64,192,96580,1,2,0:0:0:0:
192,192,96580,128,0,96730:0:0:0:0:
448,192,96730,1,0,0:0:0:70:soft-hitnormal22.wav
192,192,96880,1,2,0:0:0:0:
448,192,96880,1,0,0:0:0:70:soft-hitnormal22.wav
64,192,97030,128,0,97180:0:0:0:70:LR_Hat Synth.wav
320,192,97180,1,2,0:0:0:0:
448,192,97180,128,4,97330:0:0:0:0:
192,192,97330,1,0,0:0:0:70:LR_Hat Synth.wav
64,192,97405,128,0,97555:0:0:0:0:
320,192,97630,128,0,97780:0:0:0:70:LR_Hat Synth.wav
448,192,97780,1,2,0:0:0:0:
64,192,97930,1,0,0:0:0:70:LR_Hat Synth.wav
192,192,98005,1,0,0:0:0:0:
320,192,98080,1,2,0:0:0:0:
448,192,98080,1,0,0:0:0:0:
192,192,98230,1,0,0:0:0:70:LR_Hat Synth.wav
64,192,98380,128,2,98530:0:0:0:0:
448,192,98380,1,0,0:0:0:0:
320,192,98530,1,0,0:0:0:70:LR_Hat Synth.wav
192,192,98605,128,0,98755:0:0:0:0:
320,192,98830,128,0,98980:0:0:0:70:LR_Hat Synth.wav
64,192,98980,1,2,0:0:0:0:
448,192,99130,1,0,0:0:0:70:LR_Hat Synth.wav
192,192,99205,1,0,0:0:0:0:
64,192,99280,1,2,0:0:0:0:
320,192,99280,1,0,0:0:0:0:
448,192,99430,1,0,0:0:0:70:LR_Hat Synth.wav
64,192,99580,128,2,99730:0:0:0:0:
192,192,99580,1,0,0:0:0:0:
320,192,99730,1,0,0:0:0:70:LR_Hat Synth.wav
448,192,99805,128,0,99955:0:0:0:0:
192,192,100030,128,0,100180:0:0:0:70:LR_Hat Synth.wav
448,192,100180,128,2,100330:0:0:0:0:
64,192,100180,1,0,0:0:0:0:
192,192,100330,1,0,0:0:0:70:LR_Hat Synth.wav
320,192,100380,1,0,0:0:0:0:
448,192,100430,1,0,0:0:0:0:
64,192,100480,1,2,0:0:0:0:
192,192,100480,1,0,0:0:0:0:
320,192,100630,1,0,0:0:0:70:LR_Hat Synth.wav
64,192,100780,128,2,100930:0:0:0:0:
192,192,100780,1,0,0:0:0:0:
448,192,100930,1,0,0:0:0:70:LR_Hat Synth.wav
192,192,101005,128,0,101155:0:0:0:0:
320,192,101230,128,0,101380:0:0:0:70:LR_Hat Synth.wav
448,192,101380,1,2,0:0:0:0:
64,192,101455,128,0,101605:0:0:0:0:
192,192,101680,1,2,0:0:0:0:
320,192,101680,1,0,0:0:0:0:
320,192,101830,1,0,0:0:0:70:LR_Hat Synth.wav
64,192,101980,1,2,0:0:0:0:
448,192,101980,1,4,0:0:0:0:
64,192,102130,1,2,0:0:0:0:
192,192,102130,1,0,0:0:0:0:
320,192,102280,1,2,0:0:0:0:
448,192,102280,1,0,0:0:0:0:
320,192,102430,1,2,0:0:0:0:
448,192,102430,1,0,0:0:0:0:
64,192,102580,1,2,0:0:0:0:
192,192,102580,1,0,0:0:0:0:
64,192,102730,1,2,0:0:0:0:
448,192,102730,1,0,0:0:0:0:
192,192,102880,1,2,0:0:0:0:
320,192,102880,1,0,0:0:0:0:
192,192,103030,1,2,0:0:0:0:
320,192,103030,1,0,0:0:0:0:
64,192,103180,1,2,0:0:0:0:
448,192,103180,1,4,0:0:0:0:
320,192,103330,1,2,0:0:0:0:
448,192,103330,1,0,0:0:0:0:
64,192,103480,1,2,0:0:0:0:
192,192,103480,1,0,0:0:0:0:
64,192,103630,1,2,0:0:0:0:
192,192,103630,1,0,0:0:0:0:
320,192,103780,1,2,0:0:0:0:
448,192,103780,1,0,0:0:0:0:
64,192,103930,1,2,0:0:0:0:
192,192,103930,1,0,0:0:0:0:
192,192,104080,1,2,0:0:0:0:
320,192,104080,1,0,0:0:0:0:
320,192,104230,1,2,0:0:0:0:
448,192,104230,1,0,0:0:0:0:
64,192,104380,1,2,0:0:0:0:
448,192,104380,1,4,0:0:0:0:
320,192,104455,1,2,0:0:0:0:
64,192,104530,1,2,0:0:0:0:
192,192,104605,1,2,0:0:0:0:
448,192,104680,1,2,0:0:0:0:
320,192,104755,1,2,0:0:0:0:
64,192,104830,1,2,0:0:0:0:
192,192,104905,1,2,0:0:0:0:
320,192,104980,1,6,0:0:0:0:
448,192,105055,1,2,0:0:0:0:
192,192,105130,1,2,0:0:0:0:
64,192,105205,1,2,0:0:0:0:
320,192,105280,1,2,0:0:0:0:
448,192,105355,1,2,0:0:0:0:
192,192,105430,1,2,0:0:0:0:
64,192,105505,1,2,0:0:0:0:
320,192,105580,1,2,0:0:0:0:
448,192,105580,1,4,0:0:0:0:
192,192,105730,1,2,0:0:0:0:
320,192,105730,1,0,0:0:0:0:
64,192,105880,1,2,0:0:0:0:
448,192,105880,1,0,0:0:0:0:
64,192,106030,1,2,0:0:0:0:
320,192,106030,1,0,0:0:0:0:
192,192,106180,1,2,0:0:0:0:
448,192,106180,1,0,0:0:0:0:
64,192,106330,1,0,0:0:0:70:soft-hitnormal22.wav
64,192,106480,1,0,0:0:0:70:soft-hitnormal22.wav
64,192,106780,1,2,0:0:0:0:
448,192,106780,128,4,106930:0:0:0:0:
320,192,106930,1,0,0:0:0:70:LR_Hat Synth.wav
192,192,107005,128,0,107155:0:0:0:0:
320,192,107230,128,0,107380:0:0:0:70:LR_Hat Synth.wav
448,192,107380,1,2,0:0:0:0:
64,192,107530,1,0,0:0:0:70:LR_Hat Synth.wav
192,192,107605,1,0,0:0:0:0:
320,192,107680,1,2,0:0:0:0:
448,192,107680,1,0,0:0:0:0:
192,192,107830,1,0,0:0:0:70:LR_Hat Synth.wav
64,192,107980,128,2,108130:0:0:0:0:
448,192,107980,1,0,0:0:0:0:
320,192,108130,1,0,0:0:0:70:LR_Hat Synth.wav
192,192,108205,128,0,108355:0:0:0:0:
320,192,108430,128,0,108580:0:0:0:70:LR_Hat Synth.wav
64,192,108580,1,2,0:0:0:0:
192,192,108730,1,0,0:0:0:70:LR_Hat Synth.wav
320,192,108805,1,0,0:0:0:0:
64,192,108880,1,2,0:0:0:0:
448,192,108880,1,0,0:0:0:0:
192,192,109030,1,0,0:0:0:70:LR_Hat Synth.wav
320,192,109180,1,2,0:0:0:0:
448,192,109180,128,0,109330:0:0:0:0:
64,192,109330,1,0,0:0:0:70:LR_Hat Synth.wav
320,192,109405,128,0,109555:0:0:0:0:
192,192,109630,128,0,109780:0:0:0:70:LR_Hat Synth.wav
64,192,109780,1,2,0:0:0:0:
448,192,109780,128,0,109930:0:0:0:0:
320,192,109930,1,0,0:0:0:70:LR_Hat Synth.wav
192,192,109980,1,0,0:0:0:0:
64,192,110030,1,0,0:0:0:0:
320,192,110080,1,2,0:0:0:0:
448,192,110080,1,0,0:0:0:0:
192,192,110230,1,0,0:0:0:70:LR_Hat Synth.wav
64,192,110380,128,2,110530:0:0:0:0:
320,192,110380,1,0,0:0:0:0:
448,192,110530,1,0,0:0:0:70:LR_Hat Synth.wav
192,192,110605,128,0,110755:0:0:0:0:
320,192,110830,128,0,110980:0:0:0:70:LR_Hat Synth.wav
64,192,110980,1,2,0:0:0:0:
192,192,111055,128,0,111205:0:0:0:0:
320,192,111280,1,2,0:0:0:0:
448,192,111280,1,0,0:0:0:0:
320,192,111430,1,0,0:0:0:70:LR_Hat Synth.wav
64,192,111580,128,2,111730:0:0:0:0:
448,192,111580,1,0,0:0:0:0:
192,192,111730,1,0,0:0:0:70:LR_Hat Synth.wav
320,192,111805,128,0,111955:0:0:0:0:
192,192,112030,128,0,112180:0:0:0:70:LR_Hat Synth.wav
448,192,112180,1,2,0:0:0:0:
64,192,112330,1,0,0:0:0:70:LR_Hat Synth.wav
192,192,112405,1,0,0:0:0:0:
320,192,112480,1,2,0:0:0:0:
448,192,112480,1,0,0:0:0:0:
64,192,112630,1,0,0:0:0:70:LR_Hat Synth.wav
192,192,112780,128,2,112930:0:0:0:0:
320,192,112780,1,0,0:0:0:0:
448,192,112930,1,0,0:0:0:70:LR_Hat Synth.wav
64,192,113005,128,0,113155:0:0:0:0:
320,192,113230,128,0,113380:0:0:0:70:LR_Hat Synth.wav
64,192,113380,1,2,0:0:0:0:
192,192,113380,128,0,113530:0:0:0:0:
320,192,113530,1,0,0:0:0:70:LR_Hat Synth.wav
448,192,113605,128,0,113755:0:0:0:0:
64,192,113830,128,0,113980:0:0:0:70:LR_Hat Synth.wav
192,192,113980,128,2,114130:0:0:0:0:
320,192,113980,1,0,0:0:0:0:
448,192,114130,1,0,0:0:0:70:LR_Hat Synth.wav
320,192,114205,1,0,0:0:0:0:
64,192,114280,1,2,0:0:0:0:
192,192,114280,1,0,0:0:0:0:
448,192,114430,128,0,114580:0:0:0:70:LR_Hat Synth.wav
320,192,114580,128,2,114730:0:0:0:0:
192,192,114580,1,0,0:0:0:0:
64,192,114730,1,0,0:0:0:70:LR_Hat Synth.wav
192,192,114780,1,0,0:0:0:0:
320,192,114830,1,0,0:0:0:0:
64,192,114880,1,2,0:0:0:0:
448,192,114880,1,0,0:0:0:0:
192,192,115030,1,0,0:0:0:70:LR_Hat Synth.wav
320,192,115180,1,2,0:0:0:0:
448,192,115180,1,0,0:0:0:0:
192,192,115330,1,0,0:0:0:70:LR_Hat Synth.wav
320,192,115405,1,0,0:0:0:0:
64,192,115480,1,2,0:0:0:0:
448,192,115480,1,0,0:0:0:0:
320,192,115630,1,0,0:0:0:70:LR_Hat Synth.wav
64,192,115780,1,2,0:0:0:0:
192,192,115780,1,0,0:0:0:0:
448,192,115930,1,0,0:0:0:70:soft-hitnormal22.wav
320,192,116080,1,2,0:0:0:0:
448,192,116080,1,0,0:0:0:70:soft-hitnormal22.wav
192,192,116230,1,0,0:0:0:70:LR_Hat Synth.wav
64,192,116380,1,2,0:0:0:0:
192,192,116380,1,4,0:0:0:0:
448,192,116380,1,0,0:0:0:0:
320,192,116530,1,0,0:0:0:70:LR_Hat Synth.wav
64,192,116680,1,8,0:0:0:0:
448,192,116680,1,2,0:0:0:0:
320,192,116830,1,0,0:0:0:70:LR_Hat Synth.wav
64,192,116980,1,2,0:0:0:0:
192,192,116980,1,8,0:0:0:0:
448,192,117130,1,0,0:0:0:70:LR_Hat Synth.wav
192,192,117205,1,0,0:0:0:0:
320,192,117280,1,8,0:0:0:0:
448,192,117280,1,2,0:0:0:0:
64,192,117430,1,0,0:0:0:70:LR_Hat Synth.wav
192,192,117580,1,8,0:0:0:0:
320,192,117580,1,2,0:0:0:0:
448,192,117730,1,0,0:0:0:70:LR_Hat Synth.wav
64,192,117880,1,8,0:0:0:0:
192,192,117880,1,2,0:0:0:0:
320,192,118030,1,0,0:0:0:70:LR_Hat Synth.wav
64,192,118180,1,8,0:0:0:0:
448,192,118180,1,2,0:0:0:0:
192,192,118330,1,0,0:0:0:70:LR_Hat Synth.wav
320,192,118405,1,0,0:0:0:0:
64,192,118480,1,8,0:0:0:0:
192,192,118480,1,2,0:0:0:0:
320,192,118630,1,0,0:0:0:70:LR_Hat Synth.wav
192,192,118780,1,2,0:0:0:0:
448,192,118780,1,8,0:0:0:0:
64,192,118930,1,0,0:0:0:70:LR_Hat Synth.wav
320,192,119080,1,8,0:0:0:0:
448,192,119080,1,2,0:0:0:0:
192,192,119230,128,0,119380:0:0:0:70:LR_Hat Synth.wav
320,192,119380,1,2,0:0:0:0:
448,192,119380,128,8,119530:0:0:0:0:
192,192,119530,1,0,0:0:0:70:LR_Hat Synth.wav
320,192,119580,1,0,0:0:0:0:
448,192,119630,1,0,0:0:0:0:
64,192,119680,1,8,0:0:0:0:
192,192,119680,1,2,0:0:0:0:
320,192,119830,1,0,0:0:0:70:LR_Hat Synth.wav
64,192,119980,1,8,0:0:0:0:
448,192,119980,1,2,0:0:0:0:
192,192,120130,1,0,0:0:0:70:LR_Hat Synth.wav
320,192,120280,1,2,0:0:0:0:
448,192,120280,1,8,0:0:0:0:
64,192,120430,1,0,0:0:0:70:LR_Hat Synth.wav
192,192,120580,1,8,0:0:0:0:
448,192,120580,1,2,0:0:0:0:
320,192,120730,1,0,0:0:0:70:LR_Hat Synth.wav
64,192,120880,1,2,0:0:0:0:
192,192,120880,1,8,0:0:0:0:
320,192,121030,1,0,0:0:0:70:LR_Hat Synth.wav
64,192,121180,1,14,0:0:0:0:
192,192,121330,1,8,0:0:0:0:
448,192,121330,1,0,0:0:0:0:
64,192,121480,1,8,0:0:0:0:
320,192,121480,1,2,0:0:0:0:
320,192,121630,1,8,0:0:0:0:
448,192,121630,1,0,0:0:0:0:
64,192,121780,1,2,0:0:0:0:
192,192,121780,1,8,0:0:0:0:
64,192,121930,1,8,0:0:0:0:
320,192,121930,1,0,0:0:0:0:
192,192,122080,1,2,0:0:0:0:
448,192,122080,1,8,0:0:0:0:
320,192,122230,1,8,0:0:0:0:
448,192,122230,1,0,0:0:0:0:
64,192,122380,1,14,0:0:0:0:
192,192,122530,1,8,0:0:0:0:
448,192,122530,1,0,0:0:0:0:
64,192,122680,1,8,0:0:0:0:
320,192,122680,1,2,0:0:0:0:
192,192,122830,1,8,0:0:0:0:
320,192,122830,1,0,0:0:0:0:
64,192,122980,1,8,0:0:0:0:
448,192,122980,1,2,0:0:0:0:
320,192,123130,1,8,0:0:0:0:
448,192,123130,1,0,0:0:0:0:
64,192,123280,1,8,0:0:0:0:
192,192,123280,1,2,0:0:0:0:
64,192,123430,1,8,0:0:0:0:
448,192,123430,1,0,0:0:0:0:
192,192,123580,1,14,0:0:0:0:
448,192,123655,1,8,0:0:0:0:
64,192,123730,1,8,0:0:0:0:
192,192,123805,1,8,0:0:0:0:
320,192,123880,1,8,0:0:0:0:
448,192,123955,1,8,0:0:0:0:
192,192,124030,1,8,0:0:0:0:
64,192,124105,1,8,0:0:0:0:
320,192,124180,1,8,0:0:0:0:
448,192,124180,1,4,0:0:0:0:
64,192,124255,1,8,0:0:0:0:
192,192,124330,1,8,0:0:0:0:
448,192,124405,1,8,0:0:0:0:
320,192,124480,1,8,0:0:0:0:
64,192,124555,1,8,0:0:0:0:
192,192,124630,1,8,0:0:0:0:
448,192,124705,1,8,0:0:0:0:
64,192,124780,1,8,0:0:0:0:
192,192,124780,1,4,0:0:0:0:
64,192,124930,1,2,0:0:0:0:
448,192,124930,1,0,0:0:0:0:
320,192,125080,1,2,0:0:0:0:
448,192,125080,1,0,0:0:0:0:
192,192,125230,1,2,0:0:0:0:
320,192,125230,1,0,0:0:0:0:
64,192,125380,1,2,0:0:0:0:
192,192,125380,1,0,0:0:0:0:
320,192,125530,1,0,0:0:0:70:soft-hitnormal22.wav
320,192,125680,1,0,0:0:0:70:soft-hitnormal22.wav
64,192,125980,1,4,0:0:0:0:
192,192,125980,1,2,0:0:0:0:
448,192,125980,1,0,0:0:0:0:
