osu file format v14

[General]
AudioFilename: audio.mp3
AudioLeadIn: 0
PreviewTime: 87421
Countdown: 1
SampleSet: Soft
StackLeniency: 0.7
Mode: 0
LetterboxInBreaks: 0
WidescreenStoryboard: 0

[Editor]
Bookmarks: 9571,27571,28771,40771,41971,46171,46771,47971,53971,56371,59896,65971,67996,85171,86071,86371,90421,101971,104371,121171,122371,123571
DistanceSpacing: 0.8
BeatDivisor: 4
GridSize: 8
TimelineZoom: 2.5

[Metadata]
Title:Nadeshiko Sensation
TitleUnicode:Nadeshiko Sensation
Artist:yuki.
ArtistUnicode:yuki.
Creator:Vlerias
Version:Precarious Sakura
Source:
Tags:beatmapping contest yuki pink sensation electronic traditio
BeatmapID:1109893
BeatmapSetID:522637

[Difficulty]
HPDrainRate:5
CircleSize:4
OverallDifficulty:8.4
ApproachRate:9.4
SliderMultiplier:1.4
SliderTickRate:1

[Events]
//Background and Video events
0,0,"377944-blackangel.jpg",0,0
//Break Periods
//Storyboard Layer 0 (Background)
//Storyboard Layer 1 (Fail)
//Storyboard Layer 2 (Pass)
//Storyboard Layer 3 (Foreground)
//Storyboard Sound Samples

[TimingPoints]
871,300,4,2,0,100,1,0
871,-142.857142857143,4,2,0,100,0,0
2071,-142.857142857143,4,2,1,100,0,0
2221,-142.857142857143,4,2,0,100,0,0
5671,-142.857142857143,4,2,1,100,0,0
5746,-142.857142857143,4,2,0,100,0,0
6421,-111.111111111111,4,2,0,100,0,0
8071,-90.9090909090909,4,2,0,100,0,0
10171,-142.857142857143,4,2,0,100,0,0
10471,-142.857142857143,4,2,1,100,0,0
10771,-66.6666666666667,4,2,0,100,0,1
19921,-66.6666666666667,4,2,1,100,0,1
20146,-66.6666666666667,4,2,0,100,0,1
29521,-66.6666666666667,4,2,1,100,0,1
29971,-142.857142857143,4,2,0,100,0,0
38521,-142.857142857143,4,2,1,100,0,0
39571,-111.111111111111,4,2,0,100,0,0
40696,-111.111111111111,4,2,0,5,0,0
40771,-111.111111111111,4,2,0,100,0,0
41896,-111.111111111111,4,2,0,5,0,0
41971,-111.111111111111,4,2,0,100,0,0
42496,-111.111111111111,4,2,0,5,0,0
42571,-111.111111111111,4,2,0,100,0,0
43096,-111.111111111111,4,2,0,5,0,0
43171,-111.111111111111,4,2,0,100,0,0
44371,-90.9090909090909,4,2,0,100,0,0
47971,-111.111111111111,4,2,1,100,0,0
49171,-142.857142857143,4,1,1,100,0,0
58771,-111.111111111111,4,1,1,100,0,0
63571,-90.9090909090909,4,2,0,100,0,0
65971,-66.6666666666667,4,2,0,100,0,0
66871,-66.6666666666667,4,2,1,100,0,0
66946,-66.6666666666667,4,2,0,100,0,0
67171,-111.111111111111,4,2,0,100,0,0
68371,-142.857142857143,4,2,0,100,0,0
77971,-111.111111111111,4,2,0,100,0,0
82771,-90.9090909090909,4,2,0,100,0,0
86371,-111.111111111111,4,2,0,100,0,0
87196,-142.857142857143,4,2,1,100,0,0
87571,-66.6666666666667,4,2,0,100,0,1
96721,-66.6666666666667,4,2,1,100,0,1
96946,-66.6666666666667,4,2,0,100,0,1
106321,-66.6666666666667,4,2,1,100,0,1
106546,-66.6666666666667,4,2,0,100,0,1
106771,-58.8235294117647,4,2,0,100,0,1
115921,-58.8235294117647,4,2,1,100,0,1
116146,-58.8235294117647,4,2,0,100,0,1
125521,-58.8235294117647,4,2,1,100,0,1
125971,-142.857142857143,4,2,1,100,0,0

[Colours]
Combo1 : 255,155,205
Combo2 : 255,128,192
Combo3 : 255,210,233
Combo4 : 255,94,174

[HitObjects]
120,104,871,5,2,0:0:0:0:
208,56,1021,1,2,0:0:0:0:
264,136,1171,2,0,L|320:152,1,48.9999985046387,6|0,0:0|0:0,0:0:0:0:
192,304,1471,5,2,0:0:0:0:
288,224,1621,1,2,0:0:0:0:
128,120,1771,2,0,L|184:88,1,48.9999985046387,2|2,0:0|0:0,0:0:0:0:
208,96,1996,1,2,0:0:0:0:
240,96,2071,1,0,0:0:0:0:
184,232,2221,1,0,0:0:0:0:
368,160,2371,6,0,L|344:224,1,48.9999985046387,2|0,0:0|0:0,0:0:0:0:
264,64,2671,2,0,L|264:128,1,48.9999985046387,2|0,0:0|0:0,0:0:0:0:
264,312,2971,1,0,0:0:0:0:
128,152,3271,5,0,0:0:0:0:
160,280,3421,1,2,0:0:0:0:
368,88,3571,2,0,L|320:104,1,48.9999985046387,2|0,0:0|0:0,0:0:0:0:
208,184,3871,2,0,L|272:200,1,48.9999985046387,0|2,0:0|0:0,0:0:0:0:
104,232,4171,5,2,0:0:0:0:
144,80,4321,2,0,L|152:96,4,12.2499996261597,2|2|2|2|0,0:0|0:0|0:0|0:0|0:0,0:0:0:0:
248,328,4621,1,0,0:0:0:0:
248,328,4771,1,2,0:0:0:0:
128,192,4921,1,0,0:0:0:0:
400,272,5071,1,2,0:0:0:0:
224,48,5221,1,2,0:0:0:0:
248,328,5371,2,0,P|184:336|144:312,1,97.9999970092774,2|0,0:0|0:0,0:0:0:0:
208,248,5821,1,2,0:0:0:0:
336,328,5971,1,6,0:0:0:0:
336,328,6421,5,2,0:0:0:0:
280,96,6571,1,2,0:0:0:0:
136,288,6721,1,0,0:0:0:0:
352,200,6871,1,2,0:0:0:0:
224,368,7021,1,0,0:0:0:0:
176,168,7171,1,6,0:0:0:0:
336,328,7321,1,2,0:0:0:0:
136,288,7471,1,2,0:0:0:0:
304,40,7621,1,0,0:0:0:0:
224,368,7771,1,2,0:0:0:0:
128,152,8071,5,0,0:0:0:0:
224,64,8221,1,0,0:0:0:0:
304,160,8371,1,6,0:0:0:0:
416,96,8521,5,2,0:0:0:0:
352,296,8671,1,2,0:0:0:0:
168,192,8821,1,2,0:0:0:0:
72,128,8971,5,6,0:0:0:0:
96,112,9046,1,2,0:0:0:0:
128,104,9121,1,2,0:0:0:0:
160,104,9196,1,2,0:0:0:0:
192,112,9271,1,2,0:0:0:0:
232,136,9346,1,2,0:0:0:0:
272,160,9421,1,2,0:0:0:0:
320,160,9496,1,2,0:0:0:0:
360,136,9571,5,6,0:0:0:0:
280,48,9721,1,2,0:0:0:0:
200,344,9871,1,2,0:0:0:0:
320,280,10021,1,2,0:0:0:0:
160,88,10171,2,0,L|160:200,1,97.9999970092774,6|0,0:0|0:0,0:0:0:0:
352,104,10771,6,0,L|240:120,1,105.000004005432,2|0,0:0|0:0,0:0:0:0:
72,224,11071,2,2,L|208:256,1,105.000004005432
256,336,11371,1,2,0:0:0:0:
144,144,11521,1,2,0:0:0:0:
168,136,11596,1,2,0:0:0:0:
192,128,11671,1,0,0:0:0:0:
408,216,11821,1,2,0:0:0:0:
168,248,11971,5,2,0:0:0:0:
240,48,12121,1,0,0:0:0:0:
328,240,12271,1,2,0:0:0:0:
240,64,12421,1,2,0:0:0:0:
168,264,12571,2,0,B|240:232|208:152|208:152|272:120|256:56|256:56|296:88|328:72,1,315.000012016297,0|2,0:0|0:0,0:0:0:0:
408,144,13171,5,2,0:0:0:0:
296,320,13321,1,2,0:0:0:0:
224,144,13471,1,0,0:0:0:0:
296,336,13621,5,2,0:0:0:0:
408,160,13771,1,2,0:0:0:0:
184,264,13921,1,2,0:0:0:0:
160,272,13996,1,2,0:0:0:0:
136,280,14071,1,2,0:0:0:0:
88,344,14221,5,0,0:0:0:0:
88,96,14371,1,2,0:0:0:0:
136,280,14521,5,2,0:0:0:0:
264,48,14671,1,2,0:0:0:0:
184,216,14821,5,2,0:0:0:0:
416,144,14971,2,0,B|400:216|440:248|440:248|368:248|368:248|408:312|368:384,1,315.000012016297,8|8,0:0|0:0,0:0:0:0:
296,304,15571,2,0,B|264:256|264:200|312:168|336:168|336:168|336:128|360:88|360:88|304:128,1,315.000012016297
216,112,16171,5,2,0:0:0:0:
64,288,16321,1,0,0:0:0:0:
216,72,16471,1,2,0:0:0:0:
128,360,16621,1,0,0:0:0:0:
136,72,16771,5,0,0:0:0:0:
216,280,16921,1,2,0:0:0:0:
32,120,17071,1,2,0:0:0:0:
256,176,17221,1,0,0:0:0:0:
64,256,17371,1,2,0:0:0:0:
224,80,17671,6,0,P|272:72|336:112,1,105.000004005432,0|2,0:0|0:0,0:0:0:0:
241,273,17971,2,0,P|233:221|255:175,1,105.000004005432,2|0,0:0|0:0,0:0:0:0:
376,224,18271,5,0,0:0:0:0:
112,160,18421,1,2,0:0:0:0:
392,304,18571,1,0,0:0:0:0:
192,112,18721,1,2,0:0:0:0:
176,96,18796,1,2,0:0:0:0:
160,80,18871,1,0,0:0:0:0:
152,320,19021,6,0,L|176:208,1,105.000004005432,2|0,0:0|0:0,0:0:0:0:
312,240,19321,2,0,L|296:104,1,105.000004005432,2|0,0:0|0:0,0:0:0:0:
256,312,19621,2,0,P|336:328|384:288,1,105.000004005432,2|0,0:0|0:0,0:0:0:0:
376,72,19921,1,0,0:0:0:0:
312,240,20071,1,0,0:0:0:0:
72,104,20221,6,0,P|128:88|184:96,1,105.000004005432,2|2,0:0|0:0,0:0:0:0:
312,192,20521,2,2,P|259:196|210:180,1,105.000004005432,0|2,0:0|0:0,0:0:0:0:
344,8,20821,6,0,P|360:64|352:120,1,105.000004005432,2|2,0:0|0:0,0:0:0:0:
256,312,21121,1,2,0:0:0:0:
264,280,21196,1,2,0:0:0:0:
272,248,21271,1,2,0:0:0:0:
392,272,21421,5,0,0:0:0:0:
184,160,21571,1,2,0:0:0:0:
360,192,21721,5,0,0:0:0:0:
112,120,21871,1,2,0:0:0:0:
328,112,22021,5,0,0:0:0:0:
48,80,22171,1,2,0:0:0:0:
144,232,22471,6,0,L|120:344,1,105.000004005432,0|2,0:0|0:0,0:0:0:0:
368,152,22771,1,2,0:0:0:0:
288,336,22921,1,0,0:0:0:0:
224,104,23071,6,0,L|264:248,1,105.000004005432,0|2,0:0|0:0,0:0:0:0:
80,112,23371,1,2,0:0:0:0:
192,288,23521,1,2,0:0:0:0:
208,312,23596,1,2,0:0:0:0:
224,336,23671,1,0,0:0:0:0:
64,248,23821,5,0,0:0:0:0:
344,144,23971,1,2,0:0:0:0:
128,168,24121,5,2,0:0:0:0:
400,88,24271,1,0,0:0:0:0:
192,88,24421,5,2,0:0:0:0:
456,32,24571,1,2,0:0:0:0:
144,240,24871,6,2,P|200:256|256:224,1,105.000004005432
304,328,25171,1,6,0:0:0:0:
344,128,25321,1,0,0:0:0:0:
224,320,25471,1,0,0:0:0:0:
416,168,25621,1,2,0:0:0:0:
152,280,25771,1,2,0:0:0:0:
456,240,25921,1,0,0:0:0:0:
128,232,26071,5,2,0:0:0:0:
304,64,26221,1,0,0:0:0:0:
192,272,26371,1,6,0:0:0:0:
232,40,26521,1,2,0:0:0:0:
264,240,26671,1,2,0:0:0:0:
160,72,26821,1,0,0:0:0:0:
384,112,26971,5,2,0:0:0:0:
336,344,27121,1,0,0:0:0:0:
288,128,27271,1,0,0:0:0:0:
432,328,27421,1,2,0:0:0:0:
264,264,27571,1,6,0:0:0:0:
224,248,27646,1,2,0:0:0:0:
184,256,27721,1,2,0:0:0:0:
152,288,27796,1,2,0:0:0:0:
120,256,27871,1,2,0:0:0:0:
96,216,27946,1,2,0:0:0:0:
72,176,28021,1,2,0:0:0:0:
72,128,28096,5,2,0:0:0:0:
96,88,28171,1,6,0:0:0:0:
136,64,28246,1,2,0:0:0:0:
184,64,28321,1,2,0:0:0:0:
224,88,28396,1,2,0:0:0:0:
264,136,28471,5,2,0:0:0:0:
328,144,28546,1,2,0:0:0:0:
384,112,28621,1,2,0:0:0:0:
392,48,28696,1,2,0:0:0:0:
312,64,28771,5,6,0:0:0:0:
224,288,28921,1,2,0:0:0:0:
424,184,29071,1,2,0:0:0:0:
184,144,29221,1,2,0:0:0:0:
352,312,29371,1,2,0:0:0:0:
312,192,29521,1,0,0:0:0:0:
312,192,29671,1,0,0:0:0:0:
104,136,29971,5,2,0:0:0:0:
200,104,30121,1,0,0:0:0:0:
104,136,30271,1,2,0:0:0:0:
200,104,30421,1,0,0:0:0:0:
104,136,30571,1,2,0:0:0:0:
200,104,30721,1,0,0:0:0:0:
104,136,30871,1,2,0:0:0:0:
200,104,31021,1,2,0:0:0:0:
296,64,31171,5,2,0:0:0:0:
392,96,31321,1,0,0:0:0:0:
296,64,31471,1,2,0:0:0:0:
392,96,31621,1,0,0:0:0:0:
296,64,31771,1,2,0:0:0:0:
392,96,31921,1,0,0:0:0:0:
296,64,32071,1,2,0:0:0:0:
392,96,32221,1,2,0:0:0:0:
224,160,32371,5,2,0:0:0:0:
256,256,32521,1,0,0:0:0:0:
224,160,32671,1,2,0:0:0:0:
256,256,32821,1,0,0:0:0:0:
224,160,32971,1,2,0:0:0:0:
256,256,33121,1,0,0:0:0:0:
224,160,33271,1,2,0:0:0:0:
256,256,33421,1,2,0:0:0:0:
384,96,33571,5,2,0:0:0:0:
352,192,33721,1,0,0:0:0:0:
384,96,33871,1,2,0:0:0:0:
352,192,34021,1,0,0:0:0:0:
384,96,34171,1,2,0:0:0:0:
352,192,34321,1,2,0:0:0:0:
352,208,34396,1,2,0:0:0:0:
352,224,34471,1,2,0:0:0:0:
384,96,34621,1,2,0:0:0:0:
256,128,34771,5,2,0:0:0:0:
152,88,34921,1,0,0:0:0:0:
256,128,35071,1,2,0:0:0:0:
152,88,35221,1,0,0:0:0:0:
256,128,35371,1,2,0:0:0:0:
152,88,35521,1,0,0:0:0:0:
256,128,35671,1,2,0:0:0:0:
152,88,35821,1,0,0:0:0:0:
168,200,35971,5,2,0:0:0:0:
64,240,36121,1,0,0:0:0:0:
168,200,36271,1,2,0:0:0:0:
64,240,36421,1,0,0:0:0:0:
168,200,36571,1,2,0:0:0:0:
64,240,36721,1,0,0:0:0:0:
168,200,36871,1,2,0:0:0:0:
64,240,37021,1,2,0:0:0:0:
256,280,37171,5,2,0:0:0:0:
296,176,37321,1,0,0:0:0:0:
256,280,37471,1,2,0:0:0:0:
296,176,37621,1,0,0:0:0:0:
256,280,37771,1,2,0:0:0:0:
296,176,37921,1,0,0:0:0:0:
256,280,38071,1,2,0:0:0:0:
296,176,38221,1,2,0:0:0:0:
384,88,38371,5,2,0:0:0:0:
424,192,38521,1,0,0:0:0:0:
384,88,38671,1,0,0:0:0:0:
424,192,38821,1,0,0:0:0:0:
384,88,38971,1,0,0:0:0:0:
424,192,39121,1,0,0:0:0:0:
424,208,39196,1,0,0:0:0:0:
424,224,39271,1,0,0:0:0:0:
384,88,39421,1,0,0:0:0:0:
280,96,39571,6,0,B|320:184|416:184|416:184|392:256|392:256|288:264|224:192|208:136,1,472.499985580445
192,72,40771,2,0,B|112:112|144:192|144:192|88:216|88:216|168:288|136:368|136:368|80:328|80:328|112:304,1,472.499985580445,2|0,0:0|0:0,0:0:0:0:
136,240,41971,2,0,B|200:272|304:240|304:240|256:224,1,220.499993270874,2|0,0:0|0:0,0:0:0:0:
344,136,42571,2,0,B|280:104|176:136|176:136|224:152,1,220.499993270874,2|0,0:0|0:0,0:0:0:0:
264,88,43171,2,0,P|296:168|272:208,1,125.999996154785,2|0,0:0|0:0,0:0:0:0:
176,304,43621,1,2,0:0:0:0:
160,272,43696,1,2,0:0:0:0:
144,232,43771,2,0,P|216:248|288:224,1,125.999996154785,2|2,0:0|0:0,0:0:0:0:
360,280,44371,6,2,L|440:296,1,77.0000023498536,6|2,0:0|0:0,0:0:0:0:
152,280,44671,2,2,L|72:296,1,77.0000023498536
368,208,44971,2,2,L|448:224,1,77.0000023498536
160,208,45271,2,2,L|80:224,1,77.0000023498536
376,136,45571,2,2,L|456:152,1,77.0000023498536,6|2,0:0|0:0,0:0:0:0:
168,136,45871,2,2,L|88:152,1,77.0000023498536
392,64,46171,2,2,L|472:80,1,77.0000023498536
184,64,46471,2,2,L|104:80,1,77.0000023498536
288,112,46771,6,2,L|288:160,1,38.5000011749268,6|2,0:0|0:0,0:0:0:0:
288,272,46921,2,2,L|288:224,1,38.5000011749268
280,109,47071,6,2,L|285:157,1,38.5000011749268
294,268,47221,2,2,L|290:221,1,38.5000011749268
273,107,47371,6,2,L|281:154,1,38.5000011749268,6|2,0:0|0:0,0:0:0:0:
301,265,47521,2,2,L|293:217,1,38.5000011749268
266,106,47671,6,2,L|278:152,1,38.5000011749268
307,260,47821,2,2,L|295:214,1,38.5000011749268
288,184,47971,5,12,0:0:0:0:
192,312,48121,1,8,0:0:0:0:
184,96,48271,5,8,0:0:0:0:
192,248,48421,1,8,0:0:0:0:
48,120,48571,5,8,0:0:0:0:
192,184,48721,1,8,0:0:0:0:
192,160,48796,1,8,0:0:0:0:
192,136,48871,1,8,0:0:0:0:
192,312,49021,1,8,0:0:0:0:
384,264,49171,6,0,L|400:264,6,12.2499996261597
416,264,49471,1,2,0:0:0:0:
376,136,49696,5,0,0:0:0:0:
368,144,49771,1,2,0:0:0:0:
256,88,49996,5,2,0:0:0:0:
256,72,50071,1,0,0:0:0:0:
128,128,50296,5,0,0:0:0:0:
136,136,50371,1,2,0:0:0:0:
104,264,50596,5,2,0:0:0:0:
88,264,50671,1,0,0:0:0:0:
256,264,50896,5,0,0:0:0:0:
256,248,50971,1,2,0:0:0:0:
256,144,51571,6,0,L|256:128,6,12.2499996261597
256,160,51871,1,2,0:0:0:0:
197,226,52096,1,2,0:0:0:0:
215,239,52171,2,0,P|281:244|322:217,1,97.9999970092774,2|2,0:0|0:0,0:0:0:0:
368,72,52771,2,0,P|344:112|344:160,1,73.4999977569581,2|0,0:0|0:0,0:0:0:0:
208,216,53071,2,0,P|238:208|278:216,1,73.4999977569581,2|0,0:0|0:0,0:0:0:0:
104,256,53371,2,0,P|120:208|112:168,1,73.4999977569581,2|2,0:0|0:0,0:0:0:0:
120,160,53671,1,0,0:0:0:0:
384,120,53971,6,0,L|400:120,6,12.2499996261597
416,120,54271,1,2,0:0:0:0:
376,248,54496,5,2,0:0:0:0:
368,240,54571,1,0,0:0:0:0:
256,296,54796,5,2,0:0:0:0:
256,312,54871,1,0,0:0:0:0:
128,256,55096,5,0,0:0:0:0:
136,248,55171,1,2,0:0:0:0:
104,120,55396,5,0,0:0:0:0:
88,120,55471,1,2,0:0:0:0:
256,120,55696,5,0,0:0:0:0:
256,136,55771,1,2,0:0:0:0:
256,240,56371,6,0,L|256:256,6,12.2499996261597
256,224,56671,2,2,L|256:144,1,73.4999977569581
216,88,56971,2,0,B|256:120|256:120|296:88,1,97.9999970092774,2|2,0:0|0:0,0:0:0:0:
120,240,57571,2,0,P|176:208|200:208,1,73.4999977569581,2|0,0:0|0:0,0:0:0:0:
240,152,57871,2,0,P|264:192|256:232,1,73.4999977569581,2|0,0:0|0:0,0:0:0:0:
408,208,58171,2,0,P|352:200|336:208,1,73.4999977569581,2|2,0:0|0:0,0:0:0:0:
328,216,58471,1,0,0:0:0:0:
224,56,58771,6,0,L|248:56,6,15.7499995193482
200,56,59071,1,2,0:0:0:0:
136,152,59296,5,2,0:0:0:0:
112,152,59371,1,2,0:0:0:0:
224,264,59596,5,2,0:0:0:0:
200,264,59671,1,0,0:0:0:0:
136,352,59896,5,0,0:0:0:0:
112,352,59971,1,2,0:0:0:0:
200,264,60196,5,0,0:0:0:0:
200,240,60271,1,2,0:0:0:0:
288,176,60496,5,2,0:0:0:0:
288,152,60571,1,2,0:0:0:0:
160,72,61171,6,0,L|160:48,6,15.7499995193482
160,96,61471,2,0,L|160:200,1,94.499997116089,2|2,0:0|0:0,0:0:0:0:
128,208,61771,2,0,P|192:192|256:224,1,125.999996154785,2|2,0:0|0:0,0:0:0:0:
320,128,62371,2,0,P|264:120|224:136,1,94.499997116089,2|0,0:0|0:0,0:0:0:0:
128,216,62671,2,0,P|184:224|224:208,1,94.499997116089,2|0,0:0|0:0,0:0:0:0:
320,128,62971,2,0,P|264:120|224:136,1,94.499997116089,2|2,0:0|0:0,0:0:0:0:
240,112,63271,1,2,0:0:0:0:
160,96,63571,5,6,0:0:0:0:
96,296,63721,1,2,0:0:0:0:
256,184,63871,1,2,0:0:0:0:
56,176,64021,1,2,0:0:0:0:
216,296,64171,1,2,0:0:0:0:
186,74,64321,5,2,0:0:0:0:
72,250,64471,1,2,0:0:0:0:
256,184,64621,1,2,0:0:0:0:
64,124,64771,1,6,0:0:0:0:
188,281,64921,1,2,0:0:0:0:
216,59,65071,5,2,0:0:0:0:
61,200,65221,1,2,0:0:0:0:
256,184,65371,1,2,0:0:0:0:
86,76,65521,1,2,0:0:0:0:
165,260,65671,1,2,0:0:0:0:
160,144,65821,1,2,0:0:0:0:
256,184,65971,5,6,0:0:0:0:
280,176,66046,1,2,0:0:0:0:
304,176,66121,1,2,0:0:0:0:
328,184,66196,1,2,0:0:0:0:
344,200,66271,1,2,0:0:0:0:
344,232,66346,5,2,0:0:0:0:
344,264,66421,1,2,0:0:0:0:
344,296,66496,1,2,0:0:0:0:
344,328,66571,1,6,0:0:0:0:
304,312,66646,1,2,0:0:0:0:
264,288,66721,2,2,L|288:272,6,17.500000667572
304,264,66946,1,2,0:0:0:0:
328,248,67021,1,2,0:0:0:0:
352,232,67096,1,2,0:0:0:0:
376,216,67171,1,6,0:0:0:0:
352,112,67396,5,2,0:0:0:0:
320,96,67471,1,2,0:0:0:0:
224,160,67696,5,2,0:0:0:0:
192,176,67771,1,2,0:0:0:0:
88,112,67996,5,2,0:0:0:0:
56,96,68071,1,0,0:0:0:0:
144,240,68371,6,0,L|136:304,1,48.9999985046387,2|0,0:0|0:0,0:0:0:0:
216,144,68671,1,2,0:0:0:0:
288,296,68821,1,2,0:0:0:0:
368,200,68971,2,0,L|376:136,1,48.9999985046387,2|2,0:0|0:0,0:0:0:0:
368,120,69196,1,2,0:0:0:0:
360,88,69271,1,0,0:0:0:0:
224,232,69421,5,0,0:0:0:0:
136,72,69571,1,2,0:0:0:0:
128,288,69721,5,0,0:0:0:0:
232,32,69871,1,2,0:0:0:0:
16,304,70021,5,2,0:0:0:0:
328,48,70171,1,0,0:0:0:0:
336,168,70471,5,0,0:0:0:0:
248,272,70621,1,2,0:0:0:0:
208,136,70771,2,0,L|192:88,1,48.9999985046387,2|0,0:0|0:0,0:0:0:0:
352,336,71071,5,0,0:0:0:0:
288,64,71221,1,2,0:0:0:0:
128,288,71371,2,0,L|96:336,1,48.9999985046387,2|2,0:0|0:0,0:0:0:0:
56,256,71596,2,0,L|48:224,1,24.4999992523194
192,320,71821,5,0,0:0:0:0:
256,184,71971,1,2,0:0:0:0:
320,320,72121,1,2,0:0:0:0:
160,208,72271,5,0,0:0:0:0:
352,208,72421,1,2,0:0:0:0:
256,48,72571,1,2,0:0:0:0:
256,152,72871,5,2,0:0:0:0:
256,216,73021,1,2,0:0:0:0:
192,272,73171,2,2,P|272:304|320:264,1,146.999995513916,0|0,0:0|0:0,0:0:0:0:
192,168,73771,6,0,L|240:120,1,48.9999985046387,2|0,0:0|0:0,0:0:0:0:
368,112,74071,2,0,L|326:155,1,48.9999985046387,2|0,0:0|0:0,0:0:0:0:
200,56,74371,5,2,0:0:0:0:
256,272,74521,1,2,0:0:0:0:
304,96,74671,5,2,0:0:0:0:
200,200,74821,1,2,0:0:0:0:
376,216,74971,1,2,0:0:0:0:
272,288,75271,6,0,L|208:304,1,48.9999985046387,0|2,0:0|0:0,0:0:0:0:
256,176,75571,2,0,L|312:160,1,48.9999985046387,2|0,0:0|0:0,0:0:0:0:
208,232,75871,6,2,L|144:248,1,48.9999985046387
192,120,76171,2,0,L|248:104,1,48.9999985046387,2|2,0:0|0:0,0:0:0:0:
264,96,76396,1,2,0:0:0:0:
288,88,76471,1,0,0:0:0:0:
304,312,76621,1,0,0:0:0:0:
392,152,76771,5,2,0:0:0:0:
216,240,76921,1,2,0:0:0:0:
344,232,77071,5,0,0:0:0:0:
256,160,77221,1,0,0:0:0:0:
320,80,77371,5,2,0:0:0:0:
400,184,77521,1,0,0:0:0:0:
328,304,77671,1,2,0:0:0:0:
240,184,77821,1,2,0:0:0:0:
136,112,77971,6,0,P|112:168|120:216,1,94.499997116089,6|0,0:0|0:0,0:0:0:0:
232,72,78421,1,2,0:0:0:0:
376,112,78721,1,2,0:0:0:0:
376,144,78796,1,0,0:0:0:0:
384,176,78871,1,2,0:0:0:0:
400,208,78946,1,2,0:0:0:0:
424,232,79021,5,0,0:0:0:0:
272,144,79171,2,0,P|216:128|160:136,1,94.499997116089,2|2,0:0|0:0,0:0:0:0:
248,232,79621,1,0,0:0:0:0:
320,160,79921,1,2,0:0:0:0:
288,136,79996,1,0,0:0:0:0:
248,128,80071,1,2,0:0:0:0:
208,136,80146,1,2,0:0:0:0:
176,160,80221,5,2,0:0:0:0:
368,96,80371,2,0,P|400:152|392:192,1,94.499997116089,2|0,0:0|0:0,0:0:0:0:
288,304,80821,2,2,L|288:232,1,62.9999980773926
208,96,81121,1,2,0:0:0:0:
216,128,81196,1,2,0:0:0:0:
224,160,81271,1,0,0:0:0:0:
304,56,81421,1,0,0:0:0:0:
392,152,81571,6,0,L|368:256,2,94.499997116089,0|2|2,0:0|0:0|0:0,0:0:0:0:
224,152,82171,1,2,0:0:0:0:
219,173,82246,2,2,L|192:264,1,94.499997116089
112,88,82621,5,2,0:0:0:0:
328,240,82771,1,6,0:0:0:0:
224,32,82921,1,2,0:0:0:0:
112,240,83071,1,2,0:0:0:0:
336,88,83221,1,2,0:0:0:0:
216,312,83371,1,2,0:0:0:0:
224,32,83521,5,2,0:0:0:0:
112,240,83671,1,2,0:0:0:0:
336,88,83821,1,2,0:0:0:0:
216,312,83971,1,6,0:0:0:0:
112,88,84121,1,2,0:0:0:0:
328,240,84271,1,2,0:0:0:0:
64,224,84421,1,2,0:0:0:0:
320,56,84571,5,2,0:0:0:0:
176,320,84721,1,2,0:0:0:0:
336,80,84871,5,2,0:0:0:0:
296,304,85021,1,2,0:0:0:0:
176,216,85171,6,2,L|216:184,1,38.5000011749268,6|2,0:0|0:0,0:0:0:0:
296,168,85321,2,2,L|256:200,1,38.5000011749268
155,194,85471,6,2,L|212:170,1,38.5000011749268
309,176,85621,2,2,L|253:201,1,38.5000011749268
138,164,85771,6,2,L|211:153,1,38.5000011749268,6|2,0:0|0:0,0:0:0:0:
323,190,85921,2,2,L|250:201,1,38.5000011749268
138,128,86071,6,2,L|208:136,1,38.5000011749268
328,210,86221,2,2,L|256:200,1,38.5000011749268
248,88,86371,5,6,0:0:0:0:
184,296,86521,1,2,0:0:0:0:
312,144,86671,1,2,0:0:0:0:
136,224,86821,1,2,0:0:0:0:
328,232,86971,2,0,P|416:248|456:224,1,125.999996154785,2|12,0:0|0:0,0:0:0:0:
144,216,87571,6,0,P|136:152|200:48,1,157.500006008148,6|0,0:0|0:0,0:0:0:0:
240,248,88021,1,2,0:0:0:0:
304,96,88321,1,2,0:0:0:0:
360,80,88396,1,2,0:0:0:0:
416,88,88471,1,2,0:0:0:0:
456,128,88546,1,0,0:0:0:0:
472,184,88621,5,0,0:0:0:0:
216,72,88771,2,0,P|224:144|296:192,1,157.500006008148,2|2,0:0|0:0,0:0:0:0:
136,160,89221,1,0,0:0:0:0:
208,336,89521,1,2,0:0:0:0:
224,280,89596,1,2,0:0:0:0:
240,224,89671,1,0,0:0:0:0:
400,168,89821,1,2,0:0:0:0:
256,88,89971,6,0,P|184:96|112:152,1,157.500006008148,2|0,0:0|0:0,0:0:0:0:
96,288,90421,2,2,L|56:184,1,105.000004005432
80,192,90646,1,0,0:0:0:0:
104,192,90721,1,0,0:0:0:0:
128,192,90796,1,2,0:0:0:0:
152,192,90871,5,2,0:0:0:0:
96,88,91021,1,0,0:0:0:0:
200,120,91171,2,0,P|272:144|360:120,2,157.500006008148,2|0|0,0:0|0:0|0:0,0:0:0:0:
96,176,91846,2,0,P|168:144|272:192,1,157.500006008148,2|0,0:0|0:0,0:0:0:0:
176,216,92221,6,2,L|168:72,1,105.000004005432,2|0,0:0|0:0,0:0:0:0:
272,312,92596,1,2,0:0:0:0:
320,152,92821,1,2,0:0:0:0:
272,312,93121,2,2,L|240:256,1,52.5000020027161
208,296,93271,6,0,P|152:328|80:312,1,105.000004005432,0|2,0:0|0:0,0:0:0:0:
144,104,93571,2,0,P|160:184|120:264,2,157.500006008148,0|2|0,0:0|0:0|0:0,0:0:0:0:
200,224,94171,2,2,P|273:200|342:232,1,157.500006008148
200,208,94621,1,0,0:0:0:0:
312,72,94771,6,0,L|288:232,2,157.500006008148,2|0|2,0:0|0:0|0:0,0:0:0:0:
192,264,95371,1,2,0:0:0:0:
208,112,95521,1,2,0:0:0:0:
240,128,95596,1,2,0:0:0:0:
272,144,95671,1,0,0:0:0:0:
80,176,95821,1,0,0:0:0:0:
208,112,95971,6,0,P|160:72|48:104,2,157.500006008148,2|0|0,0:0|0:0|0:0,0:0:0:0:
232,280,96571,1,2,0:0:0:0:
288,208,96721,2,0,P|328:272|312:344,1,105.000004005432
192,136,97021,1,2,0:0:0:0:
128,200,97171,6,0,P|224:224|272:184,2,157.500006008148,6|0|2,0:0|0:0|0:0,0:0:0:0:
344,328,97921,1,0,0:0:0:0:
368,296,97996,1,0,0:0:0:0:
392,264,98071,2,0,P|328:272|256:240,1,105.000004005432,2|0,0:0|0:0,0:0:0:0:
280,96,98371,5,2,0:0:0:0:
192,288,98596,1,0,0:0:0:0:
152,144,98821,2,0,P|216:200|336:224,1,210.000008010865
336,240,99196,1,2,0:0:0:0:
336,256,99271,1,2,0:0:0:0:
240,120,99421,1,0,0:0:0:0:
128,288,99571,1,2,0:0:0:0:
80,192,99796,2,2,P|184:208|232:288,1,157.500006008148
136,96,100171,1,2,0:0:0:0:
320,312,100321,5,2,0:0:0:0:
336,288,100396,1,2,0:0:0:0:
352,264,100471,1,0,0:0:0:0:
160,288,100621,1,0,0:0:0:0:
136,192,100771,2,0,P|216:208|264:272,2,157.500006008148,2|0|0,0:0|0:0|0:0,0:0:0:0:
208,80,101446,1,0,0:0:0:0:
208,96,101521,2,0,L|208:240,2,105.000004005432,2|0|0,0:0|0:0|0:0,0:0:0:0:
112,328,101971,5,6,0:0:0:0:
304,224,102121,1,2,0:0:0:0:
88,304,102271,5,2,0:0:0:0:
336,240,102421,1,2,0:0:0:0:
80,272,102571,5,2,0:0:0:0:
368,256,102721,1,2,0:0:0:0:
88,240,102871,5,2,0:0:0:0:
400,272,103021,1,2,0:0:0:0:
368,120,103171,5,6,0:0:0:0:
152,88,103321,1,2,0:0:0:0:
368,144,103471,5,2,0:0:0:0:
128,112,103621,1,2,0:0:0:0:
368,168,103771,5,2,0:0:0:0:
104,136,103921,1,2,0:0:0:0:
368,200,104071,5,2,0:0:0:0:
80,160,104221,1,2,0:0:0:0:
368,232,104371,5,6,0:0:0:0:
336,216,104446,1,2,0:0:0:0:
304,200,104521,1,2,0:0:0:0:
272,184,104596,1,2,0:0:0:0:
240,168,104671,1,2,0:0:0:0:
200,136,104746,1,2,0:0:0:0:
168,96,104821,1,2,0:0:0:0:
152,48,104896,1,2,0:0:0:0:
200,64,104971,5,6,0:0:0:0:
232,104,105046,1,2,0:0:0:0:
248,152,105121,1,2,0:0:0:0:
232,200,105196,1,2,0:0:0:0:
216,256,105271,1,2,0:0:0:0:
248,304,105346,1,2,0:0:0:0:
304,312,105421,1,2,0:0:0:0:
352,280,105496,1,2,0:0:0:0:
360,224,105571,5,6,0:0:0:0:
120,128,105721,1,2,0:0:0:0:
184,312,105871,1,2,0:0:0:0:
280,32,106021,1,2,0:0:0:0:
296,336,106171,1,2,0:0:0:0:
264,184,106321,1,0,0:0:0:0:
264,184,106471,1,0,0:0:0:0:
168,248,106771,6,0,P|224:296|336:280,2,178.500003404617,6|0|2,0:0|0:0|0:0,0:0:0:0:
136,104,107521,1,2,0:0:0:0:
168,128,107596,1,2,0:0:0:0:
200,152,107671,2,0,P|272:176|328:144,1,119.000002269745
352,64,107971,2,0,P|408:152|384:224,2,178.500003404617,2|2|0,0:0|0:0|0:0,0:0:0:0:
176,288,108721,6,2,L|208:224,1,59.5000011348725
184,200,108871,2,0,P|256:248|320:224,1,119.000002269745,0|2,0:0|0:0,0:0:0:0:
120,128,109171,2,0,P|224:112|272:160,2,178.500003404617,2|0|2,0:0|0:0|0:0,0:0:0:0:
296,48,109771,1,2,0:0:0:0:
136,280,109921,2,2,L|160:208,1,59.5000011348725
184,256,110071,2,0,P|240:288|336:248,1,119.000002269745
280,40,110371,6,0,L|248:232,2,178.500003404617,2|0|0,0:0|0:0|0:0,0:0:0:0:
288,176,111046,2,2,P|192:136|136:184,1,178.500003404617
192,56,111421,1,2,0:0:0:0:
216,320,111571,1,0,0:0:0:0:
344,128,111796,2,0,P|320:208|376:280,1,178.500003404617,0|2,0:0|0:0,0:0:0:0:
352,152,112321,5,2,0:0:0:0:
328,176,112396,1,2,0:0:0:0:
304,200,112471,1,0,0:0:0:0:
272,72,112621,1,0,0:0:0:0:
152,264,112771,2,0,P|232:240|328:288,2,178.500003404617,2|2|0,0:0|0:0|0:0,0:0:0:0:
232,328,113371,2,0,L|248:112,2,178.500003404617,2|2|0,0:0|0:0|0:0,0:0:0:0:
176,88,113971,6,0,B|248:144|248:144|336:152,2,178.500003404617,2|0|2,0:0|0:0|0:0,0:0:0:0:
336,296,114571,2,0,P|232:256|184:280,1,119.000002269745,2|2,0:0|0:0,0:0:0:0:
216,240,114796,1,2,0:0:0:0:
200,224,114871,1,0,0:0:0:0:
368,192,115021,1,0,0:0:0:0:
136,88,115171,2,0,P|208:112|312:80,2,178.500003404617,2|0|0,0:0|0:0|0:0,0:0:0:0:
304,312,115771,1,2,0:0:0:0:
256,240,115921,2,0,P|320:224|384:272,1,119.000002269745
160,168,116221,5,2,0:0:0:0:
224,96,116371,2,0,P|264:184|208:256,2,178.500003404617,6|0|2,0:0|0:0|0:0,0:0:0:0:
120,176,117121,1,2,0:0:0:0:
152,160,117196,1,0,0:0:0:0:
184,144,117271,1,2,0:0:0:0:
160,272,117421,1,0,0:0:0:0:
216,128,117571,2,0,P|152:160|40:136,2,178.500003404617,2|2|0,0:0|0:0|0:0,0:0:0:0:
336,128,118321,5,2,0:0:0:0:
336,152,118396,1,2,0:0:0:0:
336,176,118471,1,0,0:0:0:0:
232,72,118621,1,2,0:0:0:0:
296,264,118771,2,2,P|232:288|104:256,2,178.500003404617
208,184,119371,1,2,0:0:0:0:
352,328,119521,5,2,0:0:0:0:
368,304,119596,1,2,0:0:0:0:
384,280,119671,1,0,0:0:0:0:
248,304,119821,1,2,0:0:0:0:
272,56,119971,1,0,0:0:0:0:
184,136,120196,2,0,P|296:168|360:136,2,178.500003404617,2|2|2,0:0|0:0|0:0,0:0:0:0:
264,72,120871,1,2,0:0:0:0:
224,312,121021,1,2,0:0:0:0:
296,184,121171,5,6,0:0:0:0:
128,128,121321,1,2,0:0:0:0:
328,176,121471,5,2,0:0:0:0:
96,144,121621,1,2,0:0:0:0:
360,168,121771,5,2,0:0:0:0:
64,160,121921,1,2,0:0:0:0:
392,160,122071,5,2,0:0:0:0:
32,176,122221,1,2,0:0:0:0:
232,312,122371,5,6,0:0:0:0:
256,232,122521,1,2,0:0:0:0:
232,328,122671,5,2,0:0:0:0:
256,200,122821,1,2,0:0:0:0:
232,344,122971,5,2,0:0:0:0:
256,168,123121,1,2,0:0:0:0:
232,360,123271,5,2,0:0:0:0:
256,136,123421,1,2,0:0:0:0:
160,256,123571,6,2,L|176:184,1,59.5000011348725,6|2,0:0|0:0,0:0:0:0:
224,120,123721,2,2,L|208:200,1,59.5000011348725
140,199,123871,6,2,L|190:145,1,59.5000011348725
264,113,124021,2,2,L|210:174,1,59.5000011348725
152,140,124171,6,2,L|222:118,1,59.5000011348725,6|2,0:0|0:0,0:0:0:0:
302,128,124321,2,2,L|225:154,1,59.5000011348725
192,96,124471,6,2,L|264:112,1,59.5000011348725
328,160,124621,2,2,L|248:144,1,59.5000011348725
208,200,124771,5,6,0:0:0:0:
128,328,124921,1,2,0:0:0:0:
152,80,125071,1,2,0:0:0:0:
312,328,125221,1,2,0:0:0:0:
152,64,125371,1,2,0:0:0:0:
104,160,125521,2,0,P|160:176|256:128,1,119.000002269745
232,160,125971,5,12,0:0:0:0:
