osu file format v14

[General]
AudioFilename: audio.mp3
AudioLeadIn: 0
PreviewTime: 10752
Countdown: 0
SampleSet: Soft
StackLeniency: 0.2
Mode: 2
LetterboxInBreaks: 0
WidescreenStoryboard: 0

[Editor]
Bookmarks: 1171,5971,10771,20371,29971,38671,38971,39271,49171,63571,68371,77971,105571,106771,125971
DistanceSpacing: 1.2
BeatDivisor: 4
GridSize: 32
TimelineZoom: 4.099998

[Metadata]
Title:Nadeshiko Sensation
TitleUnicode:Nadeshiko Sensation
Artist:yuki.
ArtistUnicode:yuki.
Creator:Multiple Creators
Version:Overdose
Source:
Tags:
BeatmapID:1243826
BeatmapSetID:587388

[Difficulty]
HPDrainRate:7
CircleSize:4
OverallDifficulty:9.6
ApproachRate:9.6
SliderMultiplier:1.66
SliderTickRate:2

[Events]
//Background and Video events
0,0,"Nadeshiko Sensation B.jpg",0,0
//Break Periods
//Storyboard Layer 0 (Background)
//Storyboard Layer 1 (Fail)
//Storyboard Layer 2 (Pass)
//Storyboard Layer 3 (Foreground)
//Storyboard Sound Samples

[TimingPoints]
1171,300,4,2,0,100,1,0
1171,-100,4,2,0,100,0,0
1246,-100,4,2,0,75,0,0
3571,-100,4,2,0,100,0,0
3646,-100,4,2,0,75,0,0
5971,-100,4,2,0,50,0,0
10771,-100,4,2,0,100,0,0
68296,-100,4,2,0,5,0,0
68371,-100,4,2,0,100,0,0
87571,-100,4,2,0,100,0,1
97021,-100,4,2,0,100,0,0
97171,-100,4,2,0,100,0,1
105571,-100,4,2,0,100,0,0
106771,-100,4,2,0,100,0,1
116221,-100,4,2,0,100,0,0
116371,-100,4,2,0,100,0,1
125971,-100,4,2,0,100,0,0

[Colours]
Combo1 : 136,58,108
Combo2 : 149,73,120

[HitObjects]
400,320,1171,6,0,L|400:224,1,83,0|0,0:0|0:0,0:0:0:0:
288,240,1471,2,0,L|284:144,1,83
172,240,1771,1,0,0:0:0:0:
416,240,1921,2,0,L|432:192,2,41.5
144,208,2221,1,0,0:0:0:0:
416,48,2371,5,0,0:0:0:0:
464,128,2521,1,0,0:0:0:0:
368,160,2671,1,0,0:0:0:0:
288,96,2821,1,0,0:0:0:0:
496,208,2971,1,0,0:0:0:0:
352,144,3271,2,0,L|336:240,1,83
64,320,3571,6,0,L|47:224,1,83,2|0,0:0|0:0,0:0:0:0:
144,80,3871,2,0,L|160:175,1,83
32,192,4171,1,0,0:0:0:0:
272,192,4321,1,0,0:0:0:0:
320,192,4396,1,0,0:0:0:0:
368,192,4471,1,0,0:0:0:0:
48,64,4621,1,0,0:0:0:0:
416,96,4771,6,0,L|432:192,1,83
320,288,5071,2,0,L|304:192,1,83
64,280,5371,2,0,L|32:112,1,166
128,80,5821,1,0,0:0:0:0:
448,48,5971,6,0,L|464:144,1,83,10|0,0:0|0:0,0:0:0:0:
336,144,6271,2,0,L|336:241,1,83,8|0,0:0|0:0,0:0:0:0:
64,48,6571,2,0,L|48:144,1,83,8|0,0:0|0:0,0:0:0:0:
176,144,6871,2,0,L|177:241,1,83,8|0,0:0|0:0,0:0:0:0:
393,233,7171,6,0,L|462:178,1,83,10|0,0:0|0:0,0:0:0:0:
118,150,7471,2,0,L|49:205,1,83,8|0,0:0|0:0,0:0:0:0:
393,233,7771,6,0,L|476:233,1,83,8|0,0:0|0:0,0:0:0:0:
118,150,8071,2,0,L|35:150,1,83,8|0,0:0|0:0,0:0:0:0:
416,336,8371,5,10,0:0:0:0:
480,256,8521,1,8,0:0:0:0:
448,160,8671,1,8,0:0:0:0:
352,128,8821,1,8,0:0:0:0:
135,112,8971,6,0,L|76:132,1,41.5,10|0,0:0|0:0,0:0:0:0:
376,112,9121,2,0,L|436:132,1,41.5,8|0,0:0|0:0,0:0:0:0:
123,103,9271,2,0,L|57:125,1,41.5,10|0,0:0|0:0,0:0:0:0:
387,103,9421,2,0,L|453:125,1,41.5,8|0,0:0|0:0,0:0:0:0:
109,94,9571,1,14,0:0:0:0:
145,149,10171,5,6,0:0:0:0:
367,149,10471,1,6,0:0:0:0:
176,208,10771,6,0,L|160:304,1,83,6|0,0:0|0:0,0:0:0:0:
304,160,11071,2,0,L|320:64,1,83
448,192,11371,1,8,0:0:0:0:
192,192,11521,1,0,0:0:0:0:
144,192,11596,1,0,0:0:0:0:
96,192,11671,1,0,0:0:0:0:
416,64,11821,1,0,0:0:0:0:
96,96,11971,6,0,L|64:192,1,83,2|0,0:0|0:0,0:0:0:0:
208,192,12271,1,0,0:0:0:0:
80,192,12421,1,0,0:0:0:0:
432,336,12571,6,0,L|448:240,1,83,8|0,0:0|0:0,0:0:0:0:
320,192,12871,2,0,L|304:96,1,83
96,64,13171,5,2,0:0:0:0:
32,128,13321,1,0,0:0:0:0:
112,192,13471,1,0,0:0:0:0:
208,176,13621,1,0,0:0:0:0:
432,48,13771,6,0,L|448:144,1,83,8|0,0:0|0:0,0:0:0:0:
400,160,13996,1,0,0:0:0:0:
352,192,14071,1,0,0:0:0:0:
112,256,14221,1,0,0:0:0:0:
432,256,14371,6,0,L|448:352,1,83,2|0,0:0|0:0,0:0:0:0:
128,160,14671,2,0,L|112:64,1,83
480,192,14971,2,0,L|304:192,1,166,8|0,0:0|0:0,0:0:0:0:
400,192,15421,1,0,0:0:0:0:
160,96,15571,6,0,L|65:96,1,83,10|2,0:0|0:0,0:0:0:0:
448,160,16021,2,0,L|464:256,1,83,2|2,0:0|0:0,0:0:0:0:
160,320,16321,5,2,0:0:0:0:
80,256,16471,1,2,0:0:0:0:
144,176,16621,1,2,0:0:0:0:
416,96,16771,6,0,L|424:208,1,83,2|0,0:0|0:0,0:0:0:0:
96,288,17071,2,0,L|88:176,1,83
416,56,17371,6,0,P|472:96|408:128,1,166,8|0,0:0|0:0,0:0:0:0:
312,128,17821,1,0,0:0:0:0:
96,336,17971,6,0,L|80:240,1,83,2|0,0:0|0:0,0:0:0:0:
224,240,18271,2,0,L|240:144,1,83
368,240,18571,1,8,0:0:0:0:
96,176,18721,2,0,L|80:224,2,41.5
368,144,19021,1,0,0:0:0:0:
96,64,19171,5,2,0:0:0:0:
16,112,19321,1,0,0:0:0:0:
48,208,19471,1,0,0:0:0:0:
144,256,19621,1,0,0:0:0:0:
448,176,19771,5,8,0:0:0:0:
64,96,19921,2,0,L|80:192,1,83,2|2,0:0|0:0,0:0:0:0:
448,320,20371,6,0,L|456:224,1,83,2|0,0:0|0:0,0:0:0:0:
272,112,20671,2,0,L|264:208,1,83
128,128,20971,1,8,0:0:0:0:
352,192,21121,1,0,0:0:0:0:
400,192,21196,1,0,0:0:0:0:
448,192,21271,1,0,0:0:0:0:
48,288,21421,1,0,0:0:0:0:
384,96,21571,5,2,0:0:0:0:
464,144,21721,1,0,0:0:0:0:
400,224,21871,1,0,0:0:0:0:
304,192,22021,1,0,0:0:0:0:
80,64,22171,6,0,L|64:160,1,83,8|0,0:0|0:0,0:0:0:0:
336,272,22471,2,0,L|352:176,1,83
96,96,22771,5,2,0:0:0:0:
16,144,22921,1,0,0:0:0:0:
80,224,23071,1,0,0:0:0:0:
176,192,23221,1,0,0:0:0:0:
400,64,23371,6,0,L|416:160,1,83,8|0,0:0|0:0,0:0:0:0:
368,176,23596,1,0,0:0:0:0:
112,320,23671,2,0,L|96:224,1,83
384,48,23971,5,2,0:0:0:0:
464,112,24121,1,0,0:0:0:0:
400,192,24271,1,0,0:0:0:0:
304,176,24421,1,0,0:0:0:0:
64,80,24571,6,0,L|80:176,1,83,8|0,0:0|0:0,0:0:0:0:
416,352,24871,2,0,L|400:256,1,83
141,172,25171,6,0,L|160:288,1,83,10|0,0:0|0:0,0:0:0:0:
372,211,25471,2,0,L|352:96,1,83,8|0,0:0|0:0,0:0:0:0:
64,96,25771,6,0,L|45:211,1,83,8|0,0:0|0:0,0:0:0:0:
448,288,26071,2,0,L|468:171,1,83,8|0,0:0|0:0,0:0:0:0:
112,64,26371,5,10,0:0:0:0:
32,160,26521,1,0,0:0:0:0:
96,256,26671,1,8,0:0:0:0:
208,208,26821,1,0,0:0:0:0:
448,48,26971,6,0,L|464:144,1,83,8|0,0:0|0:0,0:0:0:0:
128,288,27271,2,0,L|112:192,1,83,8|0,0:0|0:0,0:0:0:0:
352,96,27571,5,10,0:0:0:0:
389,113,27646,1,0,0:0:0:0:
400,152,27721,1,8,0:0:0:0:
379,186,27796,1,0,0:0:0:0:
161,288,27871,1,8,0:0:0:0:
124,270,27946,1,0,0:0:0:0:
113,231,28021,1,8,0:0:0:0:
134,197,28096,1,0,0:0:0:0:
352,240,28171,6,0,L|368:288,1,41.5,8|0,0:0|0:0,0:0:0:0:
176,320,28321,2,0,L|128:320,1,41.5,8|0,0:0|0:0,0:0:0:0:
368,192,28471,2,0,L|352:144,1,41.5,8|0,0:0|0:0,0:0:0:0:
144,48,28621,2,0,L|160:96,1,41.5,8|0,0:0|0:0,0:0:0:0:
400,64,28771,6,8,L|496:64,1,83,8|8,0:0|0:0,0:0:0:0:
112,320,29071,2,8,L|16:320,1,83
400,64,29371,6,8,L|496:64,1,83
128,320,29671,1,0,0:0:0:0:
352,176,29971,5,14,0:0:0:0:
448,176,30121,1,0,0:0:0:0:
336,144,30271,1,0,0:0:0:0:
464,144,30421,1,0,0:0:0:0:
352,112,30571,1,0,0:0:0:0:
480,112,30721,1,0,0:0:0:0:
320,80,30871,1,0,0:0:0:0:
448,80,31021,1,0,0:0:0:0:
160,208,31171,5,2,0:0:0:0:
64,208,31321,1,0,0:0:0:0:
176,240,31471,1,0,0:0:0:0:
48,239,31621,1,0,0:0:0:0:
160,272,31771,1,0,0:0:0:0:
32,272,31921,1,0,0:0:0:0:
192,304,32071,1,0,0:0:0:0:
64,304,32221,1,0,0:0:0:0:
432,80,32371,6,0,L|448:176,1,83,2|0,0:0|0:0,0:0:0:0:
80,304,32671,2,0,L|64:208,1,83
446,222,32971,2,0,L|432:304,1,83
67,161,33271,2,0,L|80:80,1,83
400,64,33571,5,2,0:0:0:0:
480,144,33721,1,0,0:0:0:0:
416,240,33871,1,0,0:0:0:0:
304,208,34021,1,0,0:0:0:0:
64,64,34171,6,0,L|48:160,1,83
96,176,34396,1,0,0:0:0:0:
352,272,34471,2,0,L|368:176,1,83
64,80,34771,5,2,0:0:0:0:
192,80,34921,1,0,0:0:0:0:
32,112,35071,1,0,0:0:0:0:
160,112,35221,1,0,0:0:0:0:
48,144,35371,1,0,0:0:0:0:
176,144,35521,1,0,0:0:0:0:
64,176,35671,1,0,0:0:0:0:
160,176,35821,1,0,0:0:0:0:
448,304,35971,5,2,0:0:0:0:
320,304,36121,1,0,0:0:0:0:
480,272,36271,1,0,0:0:0:0:
352,272,36421,1,0,0:0:0:0:
464,239,36571,1,0,0:0:0:0:
336,240,36721,1,0,0:0:0:0:
448,208,36871,1,0,0:0:0:0:
352,208,37021,1,0,0:0:0:0:
80,80,37171,6,0,L|96:176,1,83,2|0,0:0|0:0,0:0:0:0:
432,304,37471,2,0,L|416:208,1,83
66,222,37771,2,0,L|48:304,1,83
445,161,38071,2,0,L|464:80,1,83
64,224,38371,5,2,0:0:0:0:
192,224,38521,1,2,0:0:0:0:
32,256,38671,1,2,0:0:0:0:
160,256,38821,1,2,0:0:0:0:
48,288,38971,1,2,0:0:0:0:
368,192,39121,1,2,0:0:0:0:
416,192,39196,1,0,0:0:0:0:
368,192,39271,1,2,0:0:0:0:
48,288,39421,1,2,0:0:0:0:
384,64,39571,6,0,L|400:160,1,83,10|0,0:0|0:0,0:0:0:0:
128,319,39871,2,0,L|112:224,1,83,8|0,0:0|0:0,0:0:0:0:
384,64,40171,2,0,L|400:160,1,83,8|0,0:0|0:0,0:0:0:0:
128,319,40471,2,0,L|112:224,1,83,8|0,0:0|0:0,0:0:0:0:
384,192,40771,6,0,L|368:288,1,83,10|0,0:0|0:0,0:0:0:0:
128,192,41071,2,0,L|144:96,1,83,8|0,0:0|0:0,0:0:0:0:
384,192,41371,2,0,L|368:288,1,83,8|0,0:0|0:0,0:0:0:0:
128,192,41671,2,0,L|144:96,1,83,8|0,0:0|0:0,0:0:0:0:
448,96,41971,5,10,0:0:0:0:
352,96,42121,1,0,0:0:0:0:
464,128,42271,1,8,0:0:0:0:
352,128,42421,1,0,0:0:0:0:
448,160,42571,1,8,0:0:0:0:
336,160,42721,1,0,0:0:0:0:
464,192,42871,1,8,0:0:0:0:
336,192,43021,1,0,0:0:0:0:
64,336,43171,6,0,L|48:240,1,83,10|0,0:0|0:0,0:0:0:0:
384,160,43471,2,0,L|416:208,2,41.5,8|0|0,0:0|0:0|0:0,0:0:0:0:
48,256,43771,1,8,0:0:0:0:
176,256,43921,1,0,0:0:0:0:
64,224,44071,1,8,0:0:0:0:
176,224,44221,1,0,0:0:0:0:
464,64,44371,5,10,0:0:0:0:
432,160,44521,1,8,0:0:0:0:
352,224,44671,1,8,0:0:0:0:
256,224,44821,1,8,0:0:0:0:
32,128,44971,5,8,0:0:0:0:
144,128,45121,1,8,0:0:0:0:
16,128,45271,1,8,0:0:0:0:
144,128,45421,1,8,0:0:0:0:
368,272,45571,6,8,L|464:256,1,83,10|8,0:0|0:0,0:0:0:0:
144,112,45871,2,8,L|48:128,1,83
368,272,46171,6,8,L|450:258,1,83
144,112,46471,2,8,L|63:125,1,83
357,108,46771,5,10,0:0:0:0:
394,128,46846,1,0,0:0:0:0:
408,169,46921,1,8,0:0:0:0:
391,208,46996,1,0,0:0:0:0:
156,275,47071,1,8,0:0:0:0:
119,255,47146,1,0,0:0:0:0:
105,214,47221,1,8,0:0:0:0:
122,175,47296,1,0,0:0:0:0:
357,108,47371,5,8,0:0:0:0:
394,128,47446,1,0,0:0:0:0:
408,169,47521,1,8,0:0:0:0:
391,208,47596,1,0,0:0:0:0:
156,275,47671,1,8,0:0:0:0:
119,255,47746,1,0,0:0:0:0:
105,214,47821,1,8,0:0:0:0:
122,175,47896,1,0,0:0:0:0:
352,176,47971,5,8,0:0:0:0:
448,176,48121,1,2,0:0:0:0:
336,144,48271,1,2,0:0:0:0:
464,144,48421,1,2,0:0:0:0:
352,112,48571,1,2,0:0:0:0:
480,112,48721,1,2,0:0:0:0:
320,80,48871,1,2,0:0:0:0:
448,80,49021,1,2,0:0:0:0:
112,48,49171,6,0,P|48:112|64:144,1,124.5,14|0,0:0|0:0,0:0:0:0:
256,192,49471,1,0,0:0:0:0:
400,336,49771,2,0,P|480:239|464:191,1,166,8|0,0:0|0:0,0:0:0:0:
384,176,50221,1,0,0:0:0:0:
112,48,50371,2,0,P|32:144|48:192,1,166
359,192,50971,5,8,0:0:0:0:
154,191,51271,1,0,0:0:0:0:
368,80,51571,6,0,P|400:208|384:240,1,166,8|0,0:0|0:0,0:0:0:0:
64,160,52096,2,0,L|48:224,1,41.5,0|8,0:0|0:0,0:0:0:0:
208,208,52471,1,0,0:0:0:0:
400,208,52771,1,0,0:0:0:0:
32,192,52996,2,0,L|16:240,1,41.5
112,256,53221,1,0,0:0:0:0:
16,256,53371,1,8,0:0:0:0:
384,256,53596,2,0,L|400:192,1,41.5,0|2,0:0|0:0,0:0:0:0:
112,48,53971,6,0,L|128:176,1,124.5
336,208,54271,1,0,0:0:0:0:
112,336,54571,2,0,P|32:239|48:191,1,166,8|0,0:0|0:0,0:0:0:0:
400,48,55171,2,0,P|480:144|464:192,1,166
154,191,55771,5,0,0:0:0:0:
359,192,56071,1,8,0:0:0:0:
128,64,56371,6,0,P|96:192|112:224,1,166,8|0,0:0|0:0,0:0:0:0:
448,160,56896,2,0,L|464:224,1,41.5,0|8,0:0|0:0,0:0:0:0:
304,208,57271,1,0,0:0:0:0:
112,208,57571,1,0,0:0:0:0:
480,192,57796,2,0,L|496:240,1,41.5
400,256,58021,1,0,0:0:0:0:
304,256,58171,1,0,0:0:0:0:
496,256,58396,2,2,L|512:208,1,41.5
128,64,58771,6,0,L|112:160,1,83,14|0,0:0|0:0,0:0:0:0:
240,192,59071,2,0,L|144:192,1,83,8|0,0:0|0:0,0:0:0:0:
320,144,59371,2,0,L|416:144,1,83
208,48,59671,2,0,L|192:144,1,83
448,192,59971,5,0,0:0:0:0:
352,192,60121,1,0,0:0:0:0:
256,192,60271,1,0,0:0:0:0:
352,192,60421,1,0,0:0:0:0:
64,128,60571,2,0,L|160:96,1,83
448,128,60871,2,0,L|352:96,1,83
96,64,61171,5,0,0:0:0:0:
352,64,61321,1,0,0:0:0:0:
256,64,61471,1,0,0:0:0:0:
384,64,61621,1,0,0:0:0:0:
288,64,61771,1,0,0:0:0:0:
400,64,61921,1,0,0:0:0:0:
304,64,62071,1,0,0:0:0:0:
408,64,62221,1,0,0:0:0:0:
160,160,62371,6,0,L|256:160,1,83
32,272,62671,2,0,L|16:176,1,83
352,256,62971,2,0,L|256:256,1,83
480,368,63271,2,0,L|496:272,1,83
160,176,63571,5,10,0:0:0:0:
64,176,63721,1,8,0:0:0:0:
176,144,63871,1,8,0:0:0:0:
48,144,64021,1,8,0:0:0:0:
160,112,64171,1,8,0:0:0:0:
32,112,64321,1,8,0:0:0:0:
192,80,64471,1,8,0:0:0:0:
64,80,64621,1,8,0:0:0:0:
352,208,64771,5,8,0:0:0:0:
448,208,64921,1,8,0:0:0:0:
336,240,65071,1,8,0:0:0:0:
464,239,65221,1,8,0:0:0:0:
352,272,65371,1,8,0:0:0:0:
480,272,65521,1,8,0:0:0:0:
320,304,65671,1,8,0:0:0:0:
448,304,65821,1,8,0:0:0:0:
160,272,65971,5,10,0:0:0:0:
124,254,66046,1,0,0:0:0:0:
113,215,66121,1,8,0:0:0:0:
134,181,66196,1,0,0:0:0:0:
352,112,66271,1,8,0:0:0:0:
389,129,66346,1,0,0:0:0:0:
400,168,66421,1,8,0:0:0:0:
379,202,66496,1,0,0:0:0:0:
144,160,66571,6,0,L|80:144,1,41.5,8|0,0:0|0:0,0:0:0:0:
384,64,66721,6,8,L|400:96,4,20.75
80,256,67021,1,8,0:0:0:0:
416,304,67171,6,0,P|256:64|96:288,1,622.5,8|0,0:0|0:0,0:0:0:0:
96,288,68371,6,0,P|112:160|432:304,1,622.5,6|0,0:0|0:0,0:0:0:0:
432,304,69571,2,0,P|320:336|464:192,1,622.5
448,208,70771,2,0,B|352:256|48:224|48:224|144:160|272:192,1,622.5
288,208,71971,2,0,P|240:112|240:304,1,622.5
256,288,73171,6,0,P|208:208|368:304,1,622.5
352,304,74371,6,0,B|128:336|32:288|32:288|128:224|160:256|128:288|96:256|96:256|144:224|176:256|144:288|224:272,1,622.5
256,256,75571,6,0,P|240:176|204:336,1,622.5
224,336,76771,6,0,P|284:360|216:164,1,498,0|2,0:0|0:0,0:0:0:0:
96,96,77971,6,0,L|80:192,1,83,14|0,0:0|0:0,0:0:0:0:
192,160,78271,2,0,L|192:272,1,83,8|0,0:0|0:0,0:0:0:0:
416,96,78571,2,0,L|432:192,1,83,8|0,0:0|0:0,0:0:0:0:
320,160,78871,2,0,L|320:272,1,83,8|0,0:0|0:0,0:0:0:0:
96,304,79171,6,0,L|8:269,1,83,10|0,0:0|0:0,0:0:0:0:
416,304,79471,2,0,L|504:269,1,83,8|0,0:0|0:0,0:0:0:0:
116,297,79771,2,0,L|10:297,1,83,8|0,0:0|0:0,0:0:0:0:
397,297,80071,2,0,L|503:297,1,83,8|0,0:0|0:0,0:0:0:0:
128,208,80371,6,0,L|96:112,1,83,10|0,0:0|0:0,0:0:0:0:
384,176,80671,2,0,L|416:272,1,83,8|0,0:0|0:0,0:0:0:0:
128,208,80971,2,0,L|96:112,1,83,8|0,0:0|0:0,0:0:0:0:
384,176,81271,2,0,L|416:272,1,83,8|0,0:0|0:0,0:0:0:0:
128,96,81571,6,0,L|144:192,1,83,10|0,0:0|0:0,0:0:0:0:
384,288,81871,2,0,L|368:191,1,83,8|0,0:0|0:0,0:0:0:0:
128,96,82171,2,0,L|144:192,1,83,8|0,0:0|0:0,0:0:0:0:
384,288,82471,2,0,L|368:191,1,83,8|0,0:0|0:0,0:0:0:0:
160,176,82771,5,8,0:0:0:0:
64,176,82921,1,8,0:0:0:0:
176,144,83071,1,8,0:0:0:0:
48,144,83221,1,8,0:0:0:0:
160,112,83371,1,8,0:0:0:0:
32,112,83521,1,8,0:0:0:0:
192,80,83671,1,8,0:0:0:0:
64,80,83821,1,8,0:0:0:0:
352,208,83971,5,8,0:0:0:0:
448,208,84121,1,8,0:0:0:0:
336,240,84271,1,8,0:0:0:0:
464,239,84421,1,8,0:0:0:0:
352,272,84571,1,8,0:0:0:0:
480,272,84721,1,8,0:0:0:0:
320,304,84871,1,8,0:0:0:0:
448,304,85021,1,8,0:0:0:0:
160,192,85171,6,0,L|144:144,1,41.5
352,80,85321,2,0,L|400:80,1,41.5
320,80,85471,2,0,L|304:128,1,41.5
480,176,85621,2,0,L|496:224,1,41.5
160,272,85771,6,0,L|112:272,1,41.5
352,256,85921,2,0,L|400:256,1,41.5
131,295,86071,2,0,L|68:295,1,41.5
380,275,86221,2,0,L|443:275,1,41.5
112,384,86371,6,0,B|0:96|224:224|113:162|113:162|0:96|192:32,1,498,10|0,0:0|0:0,0:0:0:0:
352,96,87571,6,0,L|368:192,1,83,14|0,0:0|0:0,0:0:0:0:
240,160,87871,2,0,L|224:256,1,83
96,160,88171,1,8,0:0:0:0:
368,64,88321,1,0,0:0:0:0:
384,80,88396,1,0,0:0:0:0:
400,96,88471,1,0,0:0:0:0:
96,160,88621,1,0,0:0:0:0:
416,336,88771,6,2,L|432:240,1,83,2|0,0:0|0:0,0:0:0:0:
288,240,89071,2,0,L|272:144,1,83
400,144,89371,1,8,0:0:0:0:
80,176,89521,1,0,0:0:0:0:
64,192,89596,1,0,0:0:0:0:
48,208,89671,1,0,0:0:0:0:
320,64,89821,1,0,0:0:0:0:
80,64,89971,5,2,0:0:0:0:
16,144,90121,1,0,0:0:0:0:
96,208,90271,1,0,0:0:0:0:
192,176,90421,1,0,0:0:0:0:
432,64,90571,6,0,L|448:160,1,83,8|0,0:0|0:0,0:0:0:0:
448,192,90796,1,0,0:0:0:0:
433,230,90871,1,0,0:0:0:0:
401,256,90946,1,0,0:0:0:0:
361,265,91021,1,0,0:0:0:0:
322,253,91096,1,0,0:0:0:0:
112,192,91171,6,0,P|40:144|56:96,2,124.5,2|0|0,0:0|0:0|0:0,0:0:0:0:
352,48,91771,2,0,L|376:144,1,83,8|0,0:0|0:0,0:0:0:0:
160,336,92071,2,0,L|136:240,1,83
352,96,92371,6,0,L|368:192,1,83,2|0,0:0|0:0,0:0:0:0:
240,160,92671,2,0,L|224:256,1,83
96,160,92971,1,8,0:0:0:0:
368,64,93121,1,0,0:0:0:0:
384,80,93196,1,0,0:0:0:0:
400,96,93271,1,0,0:0:0:0:
96,160,93421,1,0,0:0:0:0:
416,336,93571,6,0,L|432:240,1,83,2|0,0:0|0:0,0:0:0:0:
288,240,93871,2,0,L|272:144,1,83
144,144,94171,1,8,0:0:0:0:
432,176,94321,1,0,0:0:0:0:
448,192,94396,1,0,0:0:0:0:
464,208,94471,1,0,0:0:0:0:
192,64,94621,1,0,0:0:0:0:
432,64,94771,5,2,0:0:0:0:
496,144,94921,1,0,0:0:0:0:
416,208,95071,1,0,0:0:0:0:
320,176,95221,1,0,0:0:0:0:
80,64,95371,6,0,L|64:160,1,83,8|0,0:0|0:0,0:0:0:0:
64,192,95596,1,0,0:0:0:0:
79,230,95671,1,0,0:0:0:0:
111,256,95746,1,0,0:0:0:0:
151,265,95821,1,0,0:0:0:0:
190,253,95896,1,0,0:0:0:0:
400,64,95971,6,0,L|416:160,1,83,2|0,0:0|0:0,0:0:0:0:
112,320,96271,2,0,L|96:223,1,83
432,192,96571,1,8,0:0:0:0:
112,64,96721,2,0,L|16:64,1,83,2|2,0:0|0:0,0:0:0:0:
432,192,97021,1,0,0:0:0:0:
160,96,97171,6,0,L|144:192,1,83,6|0,0:0|0:0,0:0:0:0:
272,160,97471,2,0,L|288:256,1,83
416,160,97771,1,8,0:0:0:0:
144,64,97921,1,0,0:0:0:0:
128,80,97996,1,0,0:0:0:0:
112,96,98071,1,0,0:0:0:0:
416,160,98221,1,0,0:0:0:0:
96,336,98371,6,0,L|80:240,1,83,2|0,0:0|0:0,0:0:0:0:
224,240,98671,2,0,L|240:144,1,83
368,144,98971,1,8,0:0:0:0:
80,176,99121,1,0,0:0:0:0:
64,192,99196,1,0,0:0:0:0:
48,208,99271,1,0,0:0:0:0:
320,64,99421,1,0,0:0:0:0:
80,64,99571,5,2,0:0:0:0:
16,144,99721,1,0,0:0:0:0:
96,208,99871,1,0,0:0:0:0:
192,176,100021,1,0,0:0:0:0:
432,64,100171,6,0,L|448:160,1,83,8|0,0:0|0:0,0:0:0:0:
448,192,100396,1,0,0:0:0:0:
433,230,100471,1,0,0:0:0:0:
401,256,100546,1,0,0:0:0:0:
361,265,100621,1,0,0:0:0:0:
322,253,100696,1,0,0:0:0:0:
112,64,100771,6,0,L|96:160,1,83,2|0,0:0|0:0,0:0:0:0:
400,320,101071,2,0,L|416:223,1,83
128,272,101371,2,0,L|32:272,1,83,8|0,0:0|0:0,0:0:0:0:
384,112,101671,2,0,L|480:112,1,83
64,96,101971,5,8,0:0:0:0:
160,96,102121,1,8,0:0:0:0:
256,96,102271,1,8,0:0:0:0:
32,96,102421,1,8,0:0:0:0:
448,224,102571,5,8,0:0:0:0:
352,224,102721,1,8,0:0:0:0:
256,224,102871,1,8,0:0:0:0:
480,224,103021,1,8,0:0:0:0:
160,160,103171,6,8,L|64:128,1,83
352,160,103471,2,8,L|448:128,1,83
64,320,103771,2,8,L|160:320,1,83
448,256,104071,2,8,L|352:256,1,83
96,96,104371,6,0,L|64:160,1,41.5,8|0,0:0|0:0,0:0:0:0:
128,160,104521,2,0,L|192:160,1,41.5,8|0,0:0|0:0,0:0:0:0:
416,96,104671,2,0,L|432:160,3,41.5,8|0|8|0,0:0|0:0|0:0|0:0,0:0:0:0:
128,224,104971,5,8,0:0:0:0:
112,272,105046,1,0,0:0:0:0:
160,304,105121,1,8,0:0:0:0:
216,304,105196,1,0,0:0:0:0:
416,96,105271,2,0,L|432:48,1,41.5,8|0,0:0|0:0,0:0:0:0:
112,272,105421,2,0,L|96:320,1,41.5,8|0,0:0|0:0,0:0:0:0:
384,160,105571,6,8,L|448:144,1,41.5,8|0,0:0|0:0,0:0:0:0:
128,224,105721,2,8,L|64:240,1,41.5,8|0,0:0|0:0,0:0:0:0:
396,156,105871,2,8,L|467:139,1,41.5,8|0,0:0|0:0,0:0:0:0:
115,227,106021,2,8,L|44:244,1,41.5,8|0,0:0|0:0,0:0:0:0:
352,304,106171,5,8,0:0:0:0:
480,208,106321,2,0,L|496:112,1,83,2|2,0:0|0:0,0:0:0:0:
160,96,106771,6,0,L|144:192,1,83,14|0,0:0|0:0,0:0:0:0:
272,160,107071,2,0,L|288:256,1,83
416,160,107371,1,8,0:0:0:0:
144,64,107521,1,0,0:0:0:0:
128,80,107596,1,0,0:0:0:0:
112,96,107671,1,0,0:0:0:0:
416,160,107821,1,0,0:0:0:0:
96,336,107971,6,0,L|80:240,1,83,2|0,0:0|0:0,0:0:0:0:
224,240,108271,2,0,L|240:144,1,83
368,128,108571,1,8,0:0:0:0:
80,176,108721,1,0,0:0:0:0:
64,192,108796,1,0,0:0:0:0:
48,208,108871,1,0,0:0:0:0:
320,64,109021,1,0,0:0:0:0:
80,64,109171,5,2,0:0:0:0:
16,144,109321,1,0,0:0:0:0:
96,208,109471,1,0,0:0:0:0:
192,176,109621,1,0,0:0:0:0:
432,64,109771,6,0,L|448:160,1,83,8|0,0:0|0:0,0:0:0:0:
448,192,109996,1,0,0:0:0:0:
433,230,110071,1,0,0:0:0:0:
401,256,110146,1,0,0:0:0:0:
361,265,110221,1,0,0:0:0:0:
322,253,110296,1,0,0:0:0:0:
112,192,110371,6,0,P|40:144|56:96,2,124.5,2|0|0,0:0|0:0|0:0,0:0:0:0:
352,48,110971,2,0,L|376:144,1,83,8|0,0:0|0:0,0:0:0:0:
160,336,111271,2,0,L|136:240,1,83
352,96,111571,6,0,L|368:192,1,83,2|0,0:0|0:0,0:0:0:0:
240,160,111871,2,0,L|224:256,1,83
96,160,112171,1,8,0:0:0:0:
368,64,112321,1,0,0:0:0:0:
384,80,112396,1,0,0:0:0:0:
400,96,112471,1,0,0:0:0:0:
96,160,112621,1,0,0:0:0:0:
416,336,112771,6,0,L|432:240,1,83,2|0,0:0|0:0,0:0:0:0:
288,240,113071,2,0,L|272:144,1,83
144,144,113371,1,8,0:0:0:0:
432,176,113521,1,0,0:0:0:0:
448,192,113596,1,0,0:0:0:0:
464,208,113671,1,0,0:0:0:0:
192,64,113821,1,0,0:0:0:0:
432,64,113971,5,2,0:0:0:0:
496,144,114121,1,0,0:0:0:0:
416,208,114271,1,0,0:0:0:0:
320,176,114421,1,0,0:0:0:0:
80,64,114571,6,0,L|64:160,1,83,8|0,0:0|0:0,0:0:0:0:
64,192,114796,1,0,0:0:0:0:
79,230,114871,1,0,0:0:0:0:
111,256,114946,1,0,0:0:0:0:
151,265,115021,1,0,0:0:0:0:
190,253,115096,1,0,0:0:0:0:
400,64,115171,6,0,L|416:160,1,83,2|0,0:0|0:0,0:0:0:0:
112,320,115471,2,0,L|96:223,1,83
432,192,115771,1,8,0:0:0:0:
112,64,115921,2,0,L|16:64,1,83
432,192,116221,1,0,0:0:0:0:
160,96,116371,6,0,L|144:192,1,83,2|0,0:0|0:0,0:0:0:0:
272,160,116671,2,0,L|288:256,1,83
416,160,116971,1,8,0:0:0:0:
144,64,117121,1,0,0:0:0:0:
128,80,117196,1,0,0:0:0:0:
112,96,117271,1,0,0:0:0:0:
416,160,117421,1,0,0:0:0:0:
96,336,117571,6,0,L|80:240,1,83,2|0,0:0|0:0,0:0:0:0:
224,240,117871,2,0,L|240:144,1,83
368,144,118171,1,8,0:0:0:0:
80,176,118321,1,0,0:0:0:0:
64,192,118396,1,0,0:0:0:0:
48,208,118471,1,0,0:0:0:0:
320,64,118621,1,0,0:0:0:0:
80,64,118771,5,2,0:0:0:0:
16,144,118921,1,0,0:0:0:0:
96,208,119071,1,0,0:0:0:0:
192,176,119221,1,0,0:0:0:0:
432,64,119371,6,0,L|448:160,1,83,8|0,0:0|0:0,0:0:0:0:
448,192,119596,1,0,0:0:0:0:
433,230,119671,1,0,0:0:0:0:
401,256,119746,1,0,0:0:0:0:
361,265,119821,1,0,0:0:0:0:
322,253,119896,1,0,0:0:0:0:
112,64,119971,6,0,L|96:160,1,83,2|0,0:0|0:0,0:0:0:0:
400,320,120271,2,0,L|416:223,1,83
128,272,120571,2,0,L|32:272,1,83,8|0,0:0|0:0,0:0:0:0:
384,112,120871,2,0,L|480:112,1,83
80,96,121171,6,8,L|192:96,3,83
432,288,121771,2,8,L|320:288,3,83
112,288,122371,5,8,0:0:0:0:
416,192,122521,2,8,L|320:192,2,83
64,112,122971,2,8,L|160:112,1,83
448,112,123271,2,8,L|352:112,1,83
112,128,123571,5,8,0:0:0:0:
96,165,123646,1,0,0:0:0:0:
128,208,123721,1,8,0:0:0:0:
184,224,123796,1,0,0:0:0:0:
368,128,123871,2,0,L|416:128,1,41.5,8|0,0:0|0:0,0:0:0:0:
192,160,124021,2,0,L|144:160,1,41.5,8|0,0:0|0:0,0:0:0:0:
440,224,124171,5,8,0:0:0:0:
456,261,124246,1,0,0:0:0:0:
424,304,124321,1,8,0:0:0:0:
368,320,124396,1,0,0:0:0:0:
184,224,124471,2,0,L|136:224,1,41.5,8|0,0:0|0:0,0:0:0:0:
360,256,124621,2,0,L|408:256,1,41.5,8|0,0:0|0:0,0:0:0:0:
128,160,124771,6,0,L|64:144,1,41.5,8|0,0:0|0:0,0:0:0:0:
384,224,124921,2,0,L|448:240,1,41.5,8|0,0:0|0:0,0:0:0:0:
116,156,125071,2,0,L|45:139,1,41.5,8|0,0:0|0:0,0:0:0:0:
397,227,125221,2,0,L|468:244,1,41.5,8|0,0:0|0:0,0:0:0:0:
160,304,125371,5,8,0:0:0:0:
32,208,125521,2,0,L|16:112,1,83,2|2,0:0|0:0,0:0:0:0:
384,64,125821,1,0,0:0:0:0:
64,64,125971,1,0,0:0:0:0:
