osu file format v14

[General]
AudioFilename: audio.mp3
AudioLeadIn: 0
PreviewTime: 10752
Countdown: 0
SampleSet: Normal
StackLeniency: 0.7
Mode: 1
LetterboxInBreaks: 0
WidescreenStoryboard: 0

[Editor]
Bookmarks: 10771,29971,49171,68371,77971,87571,97021
DistanceSpacing: 0.8
BeatDivisor: 4
GridSize: 8
TimelineZoom: 1.8

[Metadata]
Title:Nadeshiko Sensation
TitleUnicode:Nadeshiko Sensation
Artist:yuki.
ArtistUnicode:yuki.
Creator:Multiple Creators
Version:Oni
Source:
Tags:
BeatmapID:1243825
BeatmapSetID:587388

[Difficulty]
HPDrainRate:5
CircleSize:5
OverallDifficulty:6
ApproachRate:5
SliderMultiplier:1.4
SliderTickRate:1

[Events]
//Background and Video events
0,0,"Nadeshiko Sensation B.jpg",0,0
//Break Periods
//Storyboard Layer 0 (Background)
//Storyboard Layer 1 (Fail)
//Storyboard Layer 2 (Pass)
//Storyboard Layer 3 (Foreground)
//Storyboard Sound Samples

[TimingPoints]
1171,300,4,1,0,100,1,0
10771,-100,4,1,0,100,0,1
29971,-100,4,1,0,100,0,0
68446,-133.333333333333,4,1,0,100,0,0
77671,-117.647058823529,4,1,0,100,0,0
82771,-105.263157894737,4,1,0,100,0,0
87571,-100,4,1,0,100,0,1
105571,-100,4,1,0,100,0,0
106771,-100,4,1,0,100,0,1
125971,-100,4,1,0,100,0,0

[HitObjects]
416,88,1171,5,12,0:0:0:0:
272,152,5971,1,12,0:0:0:0:
272,152,6271,1,0,0:0:0:0:
272,152,6571,1,0,0:0:0:0:
272,152,6871,1,0,0:0:0:0:
272,152,7171,1,12,0:0:0:0:
272,152,7471,1,0,0:0:0:0:
272,152,7771,1,0,0:0:0:0:
272,152,8071,1,0,0:0:0:0:
272,152,8371,1,12,0:0:0:0:
320,144,8521,1,0,0:0:0:0:
360,128,8671,1,0,0:0:0:0:
360,128,8821,1,0,0:0:0:0:
360,128,8971,1,12,0:0:0:0:
360,128,9121,1,0,0:0:0:0:
368,144,9271,1,8,0:0:0:0:
368,144,9346,1,8,0:0:0:0:
368,144,9421,1,0,0:0:0:0:
360,128,9571,1,12,0:0:0:0:
304,152,9721,1,0,0:0:0:0:
240,176,9871,1,8,0:0:0:0:
240,176,10021,1,0,0:0:0:0:
240,176,10171,1,8,0:0:0:0:
240,176,10471,1,12,0:0:0:0:
344,176,10771,1,12,0:0:0:0:
344,176,10921,1,0,0:0:0:0:
344,176,10996,1,0,0:0:0:0:
344,176,11071,1,8,0:0:0:0:
344,176,11221,1,8,0:0:0:0:
344,176,11371,1,0,0:0:0:0:
344,176,11521,1,0,0:0:0:0:
344,176,11596,1,0,0:0:0:0:
328,160,11671,1,8,0:0:0:0:
280,128,11821,1,0,0:0:0:0:
240,96,11971,1,8,0:0:0:0:
272,120,12121,1,0,0:0:0:0:
328,160,12196,1,0,0:0:0:0:
304,144,12271,1,0,0:0:0:0:
352,136,12421,1,8,0:0:0:0:
400,136,12571,1,8,0:0:0:0:
400,136,12871,1,0,0:0:0:0:
400,136,13021,1,0,0:0:0:0:
400,136,13171,1,8,0:0:0:0:
384,184,13321,1,0,0:0:0:0:
416,200,13396,1,0,0:0:0:0:
400,192,13471,1,8,0:0:0:0:
352,176,13621,1,8,0:0:0:0:
304,152,13771,1,8,0:0:0:0:
304,152,13921,1,8,0:0:0:0:
304,152,13996,1,8,0:0:0:0:
304,152,14071,1,0,0:0:0:0:
256,144,14221,1,0,0:0:0:0:
208,144,14371,1,8,0:0:0:0:
208,144,14446,1,8,0:0:0:0:
208,144,14521,1,0,0:0:0:0:
208,144,14671,1,8,0:0:0:0:
208,144,14821,1,0,0:0:0:0:
208,144,14971,1,8,0:0:0:0:
208,144,15271,1,0,0:0:0:0:
208,144,15421,1,8,0:0:0:0:
208,144,15571,1,0,0:0:0:0:
312,120,15871,1,8,0:0:0:0:
280,160,16021,1,0,0:0:0:0:
296,216,16171,1,8,0:0:0:0:
280,160,16321,1,8,0:0:0:0:
280,160,16471,1,0,0:0:0:0:
252,157,16546,1,0,0:0:0:0:
280,160,16621,1,0,0:0:0:0:
280,160,16771,1,8,0:0:0:0:
248,128,16921,1,0,0:0:0:0:
248,128,17071,1,8,0:0:0:0:
248,128,17146,1,8,0:0:0:0:
248,128,17221,1,0,0:0:0:0:
248,128,17371,1,8,0:0:0:0:
248,128,17671,1,0,0:0:0:0:
248,128,17821,1,8,0:0:0:0:
248,128,17971,1,8,0:0:0:0:
277,174,18121,1,0,0:0:0:0:
303,217,18271,1,8,0:0:0:0:
279,178,18421,1,8,0:0:0:0:
309,226,18571,1,0,0:0:0:0:
295,204,18721,1,0,0:0:0:0:
295,204,18796,1,0,0:0:0:0:
295,204,18871,1,8,0:0:0:0:
295,204,19021,1,0,0:0:0:0:
242,224,19171,1,8,0:0:0:0:
297,234,19321,1,0,0:0:0:0:
297,213,19396,1,0,0:0:0:0:
295,204,19471,1,8,0:0:0:0:
297,234,19621,1,0,0:0:0:0:
295,204,19771,1,8,0:0:0:0:
251,177,19921,1,12,0:0:0:0:
204,152,20071,1,12,0:0:0:0:
314,159,20371,1,12,0:0:0:0:
369,161,20521,1,0,0:0:0:0:
341,156,20596,1,0,0:0:0:0:
313,151,20671,1,8,0:0:0:0:
257,140,20821,1,8,0:0:0:0:
201,130,20971,1,8,0:0:0:0:
145,120,21121,1,8,0:0:0:0:
145,120,21196,1,8,0:0:0:0:
145,120,21271,1,0,0:0:0:0:
166,164,21421,1,0,0:0:0:0:
188,210,21571,1,8,0:0:0:0:
199,232,21721,1,0,0:0:0:0:
175,216,21796,1,0,0:0:0:0:
199,232,21871,1,8,0:0:0:0:
199,232,22021,1,0,0:0:0:0:
199,232,22171,1,8,0:0:0:0:
199,232,22471,1,0,0:0:0:0:
199,232,22621,1,8,0:0:0:0:
239,197,22771,1,8,0:0:0:0:
239,197,22921,1,0,0:0:0:0:
239,197,22996,1,0,0:0:0:0:
239,197,23071,1,8,0:0:0:0:
239,197,23221,1,8,0:0:0:0:
239,197,23371,1,0,0:0:0:0:
239,197,23521,1,0,0:0:0:0:
239,197,23596,1,0,0:0:0:0:
239,197,23671,1,8,0:0:0:0:
239,197,23821,1,0,0:0:0:0:
239,197,23971,1,8,0:0:0:0:
239,197,24046,1,8,0:0:0:0:
239,197,24121,1,0,0:0:0:0:
239,197,24271,1,8,0:0:0:0:
239,197,24421,1,8,0:0:0:0:
239,197,24571,1,8,0:0:0:0:
328,136,24871,1,0,0:0:0:0:
288,160,25021,1,8,0:0:0:0:
288,160,25171,1,12,0:0:0:0:
288,160,25471,1,8,0:0:0:0:
288,160,25621,1,0,0:0:0:0:
288,160,25771,1,8,0:0:0:0:
232,144,25921,1,8,0:0:0:0:
280,272,26071,1,0,0:0:0:0:
264,248,26146,1,0,0:0:0:0:
280,216,26221,1,0,0:0:0:0:
280,264,26371,1,12,0:0:0:0:
280,264,26521,1,0,0:0:0:0:
240,232,26671,1,8,0:0:0:0:
232,200,26746,1,8,0:0:0:0:
208,200,26821,1,0,0:0:0:0:
160,152,26971,1,8,0:0:0:0:
232,64,27271,1,0,0:0:0:0:
232,64,27421,1,8,0:0:0:0:
232,64,27571,1,12,0:0:0:0:
232,64,27721,1,0,0:0:0:0:
208,56,27796,1,0,0:0:0:0:
232,64,27871,1,8,0:0:0:0:
232,64,28021,1,8,0:0:0:0:
232,64,28171,1,12,0:0:0:0:
232,64,28321,1,0,0:0:0:0:
208,72,28396,1,0,0:0:0:0:
232,64,28471,1,8,0:0:0:0:
248,88,28621,1,0,0:0:0:0:
251,172,28771,1,12,0:0:0:0:
276,132,28921,1,0,0:0:0:0:
276,132,29071,1,12,0:0:0:0:
276,132,29221,1,0,0:0:0:0:
276,132,29371,1,12,0:0:0:0:
276,132,29521,1,12,0:0:0:0:
276,132,29671,1,12,0:0:0:0:
329,225,29971,1,12,0:0:0:0:
374,226,30121,1,0,0:0:0:0:
426,226,30271,1,8,0:0:0:0:
481,226,30421,1,0,0:0:0:0:
428,223,30571,1,0,0:0:0:0:
459,229,30871,1,0,0:0:0:0:
459,229,31021,1,0,0:0:0:0:
459,229,31171,1,8,0:0:0:0:
459,229,31321,1,0,0:0:0:0:
459,229,31471,1,8,0:0:0:0:
459,229,31621,1,0,0:0:0:0:
459,229,31771,1,0,0:0:0:0:
459,229,32071,1,0,0:0:0:0:
459,229,32221,1,0,0:0:0:0:
459,229,32371,1,8,0:0:0:0:
459,229,32521,1,0,0:0:0:0:
459,229,32671,1,8,0:0:0:0:
459,229,32821,1,0,0:0:0:0:
459,229,32971,1,0,0:0:0:0:
459,229,33271,1,0,0:0:0:0:
459,229,33421,1,0,0:0:0:0:
459,229,33571,1,8,0:0:0:0:
459,229,33721,1,0,0:0:0:0:
459,229,33871,1,8,0:0:0:0:
459,229,34021,1,0,0:0:0:0:
459,229,34171,1,8,0:0:0:0:
420,191,34321,1,8,0:0:0:0:
402,174,34396,1,0,0:0:0:0:
383,155,34471,1,8,0:0:0:0:
337,114,34621,1,0,0:0:0:0:
303,81,34771,1,8,0:0:0:0:
323,118,34921,1,0,0:0:0:0:
383,162,35071,1,8,0:0:0:0:
340,120,35221,1,0,0:0:0:0:
340,120,35371,1,0,0:0:0:0:
278,212,35671,1,0,0:0:0:0:
278,212,35821,1,0,0:0:0:0:
278,212,35971,1,8,0:0:0:0:
278,212,36121,1,0,0:0:0:0:
278,212,36271,1,8,0:0:0:0:
278,212,36421,1,0,0:0:0:0:
278,212,36571,1,0,0:0:0:0:
389,230,36871,1,0,0:0:0:0:
334,219,37021,1,0,0:0:0:0:
385,229,37171,1,8,0:0:0:0:
345,208,37321,1,0,0:0:0:0:
345,208,37471,1,8,0:0:0:0:
345,208,37621,1,0,0:0:0:0:
345,208,37771,1,0,0:0:0:0:
345,208,38071,1,0,0:0:0:0:
345,208,38221,1,0,0:0:0:0:
345,208,38371,1,8,0:0:0:0:
345,208,38521,1,0,0:0:0:0:
345,208,38671,1,8,0:0:0:0:
345,208,38821,1,0,0:0:0:0:
345,208,38971,1,8,0:0:0:0:
327,194,39046,1,8,0:0:0:0:
327,194,39121,1,0,0:0:0:0:
307,173,39196,1,0,0:0:0:0:
327,194,39271,1,8,0:0:0:0:
327,194,39421,1,0,0:0:0:0:
353,151,39571,1,12,0:0:0:0:
298,151,39721,1,0,0:0:0:0:
246,151,39871,1,8,0:0:0:0:
191,152,40021,1,0,0:0:0:0:
139,152,40171,1,0,0:0:0:0:
139,152,40471,1,0,0:0:0:0:
139,152,40621,1,0,0:0:0:0:
139,152,40771,1,8,0:0:0:0:
139,152,40921,1,0,0:0:0:0:
139,152,41071,1,8,0:0:0:0:
139,152,41221,1,0,0:0:0:0:
139,152,41371,1,0,0:0:0:0:
234,198,41671,1,0,0:0:0:0:
278,219,41821,1,0,0:0:0:0:
278,219,41971,1,8,0:0:0:0:
278,219,42121,1,0,0:0:0:0:
278,219,42271,1,8,0:0:0:0:
278,219,42421,1,0,0:0:0:0:
278,219,42571,1,0,0:0:0:0:
247,108,42871,1,0,0:0:0:0:
232,53,43021,1,0,0:0:0:0:
232,53,43171,1,8,0:0:0:0:
232,53,43321,1,0,0:0:0:0:
232,53,43471,1,8,0:0:0:0:
232,53,43621,1,0,0:0:0:0:
232,53,43771,1,8,0:0:0:0:
224,104,43921,1,8,0:0:0:0:
200,112,43996,1,0,0:0:0:0:
232,53,44071,1,8,0:0:0:0:
232,53,44221,1,0,0:0:0:0:
232,53,44371,1,12,0:0:0:0:
232,53,44521,1,0,0:0:0:0:
232,53,44671,1,8,0:0:0:0:
232,53,44821,1,0,0:0:0:0:
232,53,44971,1,0,0:0:0:0:
232,53,45271,1,0,0:0:0:0:
232,53,45421,1,0,0:0:0:0:
232,53,45571,1,12,0:0:0:0:
232,53,45721,1,0,0:0:0:0:
232,53,45871,1,8,0:0:0:0:
232,53,46021,1,0,0:0:0:0:
232,53,46171,1,0,0:0:0:0:
232,53,46471,1,0,0:0:0:0:
232,53,46621,1,0,0:0:0:0:
232,53,46771,1,12,0:0:0:0:
220,30,46921,1,0,0:0:0:0:
219,57,46996,1,0,0:0:0:0:
220,30,47071,1,0,0:0:0:0:
220,30,47221,1,0,0:0:0:0:
220,30,47371,1,12,0:0:0:0:
220,30,47521,1,0,0:0:0:0:
218,53,47596,1,0,0:0:0:0:
220,30,47671,1,0,0:0:0:0:
220,30,47821,1,0,0:0:0:0:
220,30,47971,1,8,0:0:0:0:
170,40,48121,1,0,0:0:0:0:
121,49,48271,1,8,0:0:0:0:
121,49,48421,1,0,0:0:0:0:
121,49,48571,1,8,0:0:0:0:
121,49,48721,1,8,0:0:0:0:
121,49,48796,1,0,0:0:0:0:
121,49,48871,1,8,0:0:0:0:
121,49,49021,1,0,0:0:0:0:
121,49,49171,1,12,0:0:0:0:
133,132,49396,1,0,0:0:0:0:
160,126,49471,1,8,0:0:0:0:
233,167,49696,1,0,0:0:0:0:
255,179,49771,1,8,0:0:0:0:
330,219,49996,1,8,0:0:0:0:
330,219,50071,1,0,0:0:0:0:
267,156,50296,1,0,0:0:0:0:
286,174,50371,1,8,0:0:0:0:
351,148,50596,1,8,0:0:0:0:
365,141,50671,1,0,0:0:0:0:
441,85,50896,1,8,0:0:0:0:
413,81,50971,1,0,0:0:0:0:
197,105,51571,1,4,0:0:0:0:
297,141,51871,1,8,0:0:0:0:
297,141,52096,1,8,0:0:0:0:
297,141,52171,1,8,0:0:0:0:
297,141,52471,1,8,0:0:0:0:
297,141,52771,1,8,0:0:0:0:
297,141,52996,1,8,0:0:0:0:
297,141,53071,1,8,0:0:0:0:
297,141,53296,1,8,0:0:0:0:
297,141,53371,1,8,0:0:0:0:
297,141,53596,1,8,0:0:0:0:
297,141,53671,1,0,0:0:0:0:
297,141,53971,1,4,0:0:0:0:
297,141,54196,1,0,0:0:0:0:
297,141,54271,1,8,0:0:0:0:
297,141,54496,1,0,0:0:0:0:
297,141,54571,1,8,0:0:0:0:
297,141,54796,1,8,0:0:0:0:
297,141,54871,1,0,0:0:0:0:
297,141,55096,1,0,0:0:0:0:
297,141,55171,1,8,0:0:0:0:
297,141,55396,1,8,0:0:0:0:
297,141,55471,1,0,0:0:0:0:
297,141,55696,1,8,0:0:0:0:
297,141,55771,1,0,0:0:0:0:
74,139,56371,1,4,0:0:0:0:
202,140,56671,1,8,0:0:0:0:
285,142,56896,1,8,0:0:0:0:
309,143,56971,1,8,0:0:0:0:
420,146,57271,1,8,0:0:0:0:
308,143,57571,1,8,0:0:0:0:
392,145,57796,1,8,0:0:0:0:
392,145,57871,1,8,0:0:0:0:
392,145,58096,1,8,0:0:0:0:
370,145,58171,1,8,0:0:0:0:
370,145,58396,1,8,0:0:0:0:
370,145,58471,1,0,0:0:0:0:
370,145,58771,1,12,0:0:0:0:
370,145,58996,1,0,0:0:0:0:
370,145,59071,1,8,0:0:0:0:
370,145,59296,1,0,0:0:0:0:
337,145,59371,1,8,0:0:0:0:
337,145,59596,1,8,0:0:0:0:
337,145,59671,1,0,0:0:0:0:
337,145,59896,1,0,0:0:0:0:
337,145,59971,1,8,0:0:0:0:
337,145,60196,1,8,0:0:0:0:
337,145,60271,1,0,0:0:0:0:
337,145,60496,1,8,0:0:0:0:
337,145,60571,1,0,0:0:0:0:
337,145,60871,1,8,0:0:0:0:
337,145,61171,1,4,0:0:0:0:
337,145,61471,1,8,0:0:0:0:
337,145,61696,1,8,0:0:0:0:
337,145,61771,1,8,0:0:0:0:
337,145,62071,1,8,0:0:0:0:
253,212,62371,1,8,0:0:0:0:
314,160,62596,1,8,0:0:0:0:
314,160,62671,1,8,0:0:0:0:
314,160,62896,1,8,0:0:0:0:
314,160,62971,1,8,0:0:0:0:
314,160,63196,1,8,0:0:0:0:
314,160,63271,1,0,0:0:0:0:
314,160,63571,1,12,0:0:0:0:
224,144,63796,1,0,0:0:0:0:
192,136,63871,1,8,0:0:0:0:
256,200,64096,1,0,0:0:0:0:
280,224,64171,1,8,0:0:0:0:
344,272,64396,1,8,0:0:0:0:
328,264,64471,1,0,0:0:0:0:
272,208,64696,1,0,0:0:0:0:
306,110,64771,1,8,0:0:0:0:
224,112,64996,1,8,0:0:0:0:
200,112,65071,1,0,0:0:0:0:
120,112,65296,1,8,0:0:0:0:
96,112,65371,1,0,0:0:0:0:
192,152,65671,1,8,0:0:0:0:
306,110,65971,1,12,0:0:0:0:
306,110,66271,1,0,0:0:0:0:
306,110,66421,1,0,0:0:0:0:
306,110,66496,1,0,0:0:0:0:
306,110,66571,1,0,0:0:0:0:
306,110,66721,1,0,0:0:0:0:
330,110,66796,1,0,0:0:0:0:
330,110,66871,1,8,0:0:0:0:
306,110,67021,1,8,0:0:0:0:
321,90,67096,1,8,0:0:0:0:
306,110,67171,1,0,0:0:0:0:
314,190,67396,1,8,0:0:0:0:
314,190,67471,1,8,0:0:0:0:
314,190,67696,1,8,0:0:0:0:
314,190,67771,1,8,0:0:0:0:
314,190,67996,1,8,0:0:0:0:
314,190,68071,1,0,0:0:0:0:
314,190,68371,1,12,0:0:0:0:
381,246,69571,1,0,0:0:0:0:
381,246,70771,1,0,0:0:0:0:
381,246,71971,1,0,0:0:0:0:
381,246,73171,1,0,0:0:0:0:
381,246,74371,1,0,0:0:0:0:
381,246,75571,1,0,0:0:0:0:
381,246,76771,1,0,0:0:0:0:
381,246,77671,1,12,0:0:0:0:
381,246,77971,1,12,0:0:0:0:
272,224,78196,1,0,0:0:0:0:
216,216,78421,1,8,0:0:0:0:
216,216,78721,1,8,0:0:0:0:
216,216,78871,1,8,0:0:0:0:
216,216,79021,1,0,0:0:0:0:
216,216,79171,1,8,0:0:0:0:
240,136,79396,1,0,0:0:0:0:
352,232,79621,1,8,0:0:0:0:
280,160,79921,1,0,0:0:0:0:
264,136,79996,1,8,0:0:0:0:
240,120,80071,1,0,0:0:0:0:
312,192,80221,1,0,0:0:0:0:
312,192,80371,1,8,0:0:0:0:
240,176,80596,1,0,0:0:0:0:
240,176,80821,1,8,0:0:0:0:
296,192,80971,1,8,0:0:0:0:
344,208,81121,1,8,0:0:0:0:
328,184,81196,1,0,0:0:0:0:
384,216,81271,1,8,0:0:0:0:
424,224,81421,1,0,0:0:0:0:
424,224,81571,1,8,0:0:0:0:
424,224,81796,1,8,0:0:0:0:
424,224,82021,1,8,0:0:0:0:
352,176,82246,1,8,0:0:0:0:
280,128,82471,1,8,0:0:0:0:
232,88,82621,1,0,0:0:0:0:
232,88,82771,1,12,0:0:0:0:
352,176,82996,1,0,0:0:0:0:
352,176,83221,1,8,0:0:0:0:
248,184,83521,1,8,0:0:0:0:
248,184,83596,1,8,0:0:0:0:
248,184,83671,1,0,0:0:0:0:
248,184,83821,1,8,0:0:0:0:
296,200,83971,1,12,0:0:0:0:
260,137,84196,1,0,0:0:0:0:
260,137,84421,1,8,0:0:0:0:
260,137,84571,1,0,0:0:0:0:
260,137,84796,1,8,0:0:0:0:
180,126,85021,1,0,0:0:0:0:
224,96,85171,1,12,0:0:0:0:
224,96,85396,1,0,0:0:0:0:
192,48,85621,1,8,0:0:0:0:
224,96,85771,1,12,0:0:0:0:
224,96,85921,1,8,0:0:0:0:
192,80,85996,1,8,0:0:0:0:
160,64,86071,1,0,0:0:0:0:
160,64,86221,1,0,0:0:0:0:
160,64,86371,1,8,0:0:0:0:
160,64,86521,1,0,0:0:0:0:
152,112,86671,1,8,0:0:0:0:
152,152,86821,1,0,0:0:0:0:
152,152,86971,1,8,0:0:0:0:
152,152,87271,1,12,0:0:0:0:
254,124,87571,1,12,0:0:0:0:
303,111,87721,1,0,0:0:0:0:
303,111,87796,1,8,0:0:0:0:
303,111,87946,1,0,0:0:0:0:
303,111,88021,1,8,0:0:0:0:
303,111,88171,1,0,0:0:0:0:
303,111,88321,1,8,0:0:0:0:
276,105,88396,5,0,0:0:0:0:
303,111,88471,1,8,0:0:0:0:
303,111,88621,1,0,0:0:0:0:
255,101,88771,1,8,0:0:0:0:
205,91,88921,1,0,0:0:0:0:
181,86,88996,1,8,0:0:0:0:
127,78,89146,1,0,0:0:0:0:
152,75,89221,1,0,0:0:0:0:
235,145,89521,1,0,0:0:0:0:
254,160,89596,1,8,0:0:0:0:
274,172,89671,1,0,0:0:0:0:
248,122,89821,1,0,0:0:0:0:
258,217,89971,1,8,0:0:0:0:
205,206,90121,5,0,0:0:0:0:
205,206,90196,1,8,0:0:0:0:
205,206,90346,1,0,0:0:0:0:
221,184,90421,1,8,0:0:0:0:
221,184,90571,1,8,0:0:0:0:
221,184,90721,1,8,0:0:0:0:
221,184,90796,1,8,0:0:0:0:
221,184,90871,1,0,0:0:0:0:
244,135,91021,1,0,0:0:0:0:
264,93,91171,1,8,0:0:0:0:
244,135,91321,1,0,0:0:0:0:
304,30,91396,1,8,0:0:0:0:
244,135,91546,1,0,0:0:0:0:
264,93,91621,1,8,0:0:0:0:
279,142,91771,1,0,0:0:0:0:
280,216,91846,1,8,0:0:0:0:
384,240,91996,1,0,0:0:0:0:
293,205,92071,1,0,0:0:0:0:
234,202,92221,1,8,0:0:0:0:
293,205,92371,1,8,0:0:0:0:
341,196,92521,1,0,0:0:0:0:
341,196,92596,1,8,0:0:0:0:
341,196,92746,1,0,0:0:0:0:
326,172,92821,1,8,0:0:0:0:
394,184,93121,1,8,0:0:0:0:
362,181,93196,1,0,0:0:0:0:
342,196,93271,1,0,0:0:0:0:
296,176,93421,1,0,0:0:0:0:
237,161,93571,1,8,0:0:0:0:
278,196,93721,1,0,0:0:0:0:
278,196,93796,1,8,0:0:0:0:
278,196,93946,1,0,0:0:0:0:
278,196,94021,1,8,0:0:0:0:
278,196,94171,1,0,0:0:0:0:
267,145,94321,1,0,0:0:0:0:
262,119,94396,1,8,0:0:0:0:
254,64,94546,1,0,0:0:0:0:
254,64,94621,1,0,0:0:0:0:
254,64,94771,1,8,0:0:0:0:
254,64,94921,1,0,0:0:0:0:
254,64,94996,1,8,0:0:0:0:
254,64,95146,1,0,0:0:0:0:
254,64,95221,1,8,0:0:0:0:
254,64,95371,1,0,0:0:0:0:
254,64,95521,1,0,0:0:0:0:
254,64,95596,1,0,0:0:0:0:
254,64,95671,1,8,0:0:0:0:
254,64,95821,1,0,0:0:0:0:
254,64,95971,1,8,0:0:0:0:
254,64,96121,1,0,0:0:0:0:
254,64,96196,1,8,0:0:0:0:
254,64,96346,1,0,0:0:0:0:
254,64,96421,1,8,0:0:0:0:
254,64,96571,1,0,0:0:0:0:
254,64,96721,1,12,0:0:0:0:
254,64,96871,1,12,0:0:0:0:
188,153,97171,1,12,0:0:0:0:
241,163,97321,1,0,0:0:0:0:
263,167,97396,1,8,0:0:0:0:
307,176,97546,1,0,0:0:0:0:
307,176,97621,1,8,0:0:0:0:
271,215,97771,1,0,0:0:0:0:
239,253,97921,1,8,0:0:0:0:
239,253,97996,1,0,0:0:0:0:
232,233,98071,1,8,0:0:0:0:
213,171,98221,1,0,0:0:0:0:
197,119,98371,1,8,0:0:0:0:
182,70,98521,1,0,0:0:0:0:
174,44,98596,1,8,0:0:0:0:
174,44,98746,1,0,0:0:0:0:
174,44,98821,1,0,0:0:0:0:
273,60,99121,1,0,0:0:0:0:
292,58,99196,1,8,0:0:0:0:
292,58,99271,1,0,0:0:0:0:
239,76,99421,1,0,0:0:0:0:
292,58,99571,1,8,0:0:0:0:
292,144,99721,1,0,0:0:0:0:
292,144,99796,1,8,0:0:0:0:
292,144,99946,1,0,0:0:0:0:
292,144,100021,1,8,0:0:0:0:
292,144,100171,1,8,0:0:0:0:
292,144,100321,1,8,0:0:0:0:
292,144,100396,1,8,0:0:0:0:
292,144,100471,1,0,0:0:0:0:
292,144,100621,1,0,0:0:0:0:
292,144,100771,1,8,0:0:0:0:
292,144,100921,1,0,0:0:0:0:
292,144,100996,1,8,0:0:0:0:
292,144,101146,1,0,0:0:0:0:
292,144,101221,1,8,0:0:0:0:
292,144,101371,1,0,0:0:0:0:
306,117,101446,1,8,0:0:0:0:
246,135,101596,1,0,0:0:0:0:
215,142,101671,1,0,0:0:0:0:
158,156,101821,1,8,0:0:0:0:
158,156,101971,1,12,0:0:0:0:
306,117,102121,1,0,0:0:0:0:
158,156,102196,1,8,0:0:0:0:
306,117,102346,1,0,0:0:0:0:
306,117,102421,1,8,0:0:0:0:
306,117,102721,1,8,0:0:0:0:
306,117,102796,1,0,0:0:0:0:
306,117,102871,1,0,0:0:0:0:
306,117,103021,1,0,0:0:0:0:
306,117,103171,1,12,0:0:0:0:
311,164,103321,1,0,0:0:0:0:
336,184,103396,1,8,0:0:0:0:
368,240,103546,1,0,0:0:0:0:
368,240,103621,1,8,0:0:0:0:
368,240,103771,1,8,0:0:0:0:
368,240,103921,1,0,0:0:0:0:
368,240,103996,1,8,0:0:0:0:
368,240,104146,1,0,0:0:0:0:
368,240,104221,1,0,0:0:0:0:
368,240,104371,1,12,0:0:0:0:
264,216,104521,1,0,0:0:0:0:
264,216,104596,1,8,0:0:0:0:
264,216,104746,1,0,0:0:0:0:
264,216,104821,1,8,0:0:0:0:
320,104,104971,1,12,0:0:0:0:
192,160,105121,1,8,0:0:0:0:
192,160,105196,1,8,0:0:0:0:
192,160,105271,1,0,0:0:0:0:
192,160,105421,1,0,0:0:0:0:
304,32,105571,1,12,0:0:0:0:
304,32,105721,1,0,0:0:0:0:
304,32,105871,1,12,0:0:0:0:
304,32,106021,1,0,0:0:0:0:
304,32,106171,1,12,0:0:0:0:
280,80,106321,1,12,0:0:0:0:
256,120,106471,1,12,0:0:0:0:
312,216,106771,1,12,0:0:0:0:
312,216,106921,1,0,0:0:0:0:
312,216,106996,1,8,0:0:0:0:
312,216,107146,1,0,0:0:0:0:
312,216,107221,1,8,0:0:0:0:
312,216,107371,1,0,0:0:0:0:
312,216,107521,1,0,0:0:0:0:
312,216,107596,1,8,0:0:0:0:
312,216,107671,1,0,0:0:0:0:
264,184,107821,1,8,0:0:0:0:
224,152,107971,1,8,0:0:0:0:
224,152,108121,1,0,0:0:0:0:
224,152,108196,1,8,0:0:0:0:
224,152,108346,1,0,0:0:0:0:
224,152,108421,1,0,0:0:0:0:
136,208,108721,1,0,0:0:0:0:
152,200,108796,1,8,0:0:0:0:
168,184,108871,1,0,0:0:0:0:
168,184,109021,1,0,0:0:0:0:
168,184,109171,1,8,0:0:0:0:
168,184,109321,1,0,0:0:0:0:
168,184,109396,1,8,0:0:0:0:
168,184,109546,1,0,0:0:0:0:
168,184,109621,1,8,0:0:0:0:
224,176,109771,1,8,0:0:0:0:
224,176,109846,1,0,0:0:0:0:
224,176,109921,1,8,0:0:0:0:
224,176,109996,1,8,0:0:0:0:
224,176,110071,1,0,0:0:0:0:
224,176,110221,1,0,0:0:0:0:
224,176,110371,1,8,0:0:0:0:
224,144,110521,1,0,0:0:0:0:
224,176,110596,1,8,0:0:0:0:
224,176,110746,1,0,0:0:0:0:
224,176,110821,1,8,0:0:0:0:
224,176,110971,1,0,0:0:0:0:
224,152,111046,1,8,0:0:0:0:
272,120,111196,1,0,0:0:0:0:
288,104,111271,1,0,0:0:0:0:
328,80,111421,1,8,0:0:0:0:
288,104,111571,1,8,0:0:0:0:
328,88,111721,1,0,0:0:0:0:
312,88,111796,1,8,0:0:0:0:
312,88,111946,1,0,0:0:0:0:
312,88,112021,1,8,0:0:0:0:
312,88,112321,1,0,0:0:0:0:
312,88,112396,1,8,0:0:0:0:
312,88,112471,1,0,0:0:0:0:
312,88,112621,1,0,0:0:0:0:
312,88,112771,1,8,0:0:0:0:
312,88,112921,1,0,0:0:0:0:
312,88,112996,1,8,0:0:0:0:
312,88,113146,1,0,0:0:0:0:
312,88,113221,1,8,0:0:0:0:
312,88,113371,1,8,0:0:0:0:
312,88,113521,1,0,0:0:0:0:
312,88,113596,1,8,0:0:0:0:
312,88,113746,1,0,0:0:0:0:
312,64,113821,1,0,0:0:0:0:
312,64,113971,1,8,0:0:0:0:
312,64,114121,1,0,0:0:0:0:
312,64,114196,1,8,0:0:0:0:
312,64,114346,1,0,0:0:0:0:
312,64,114421,1,8,0:0:0:0:
312,64,114571,1,0,0:0:0:0:
312,64,114646,1,8,0:0:0:0:
312,64,114721,1,0,0:0:0:0:
312,64,114796,1,0,0:0:0:0:
312,64,114871,1,8,0:0:0:0:
272,72,115021,1,0,0:0:0:0:
216,88,115171,1,8,0:0:0:0:
288,144,115321,1,0,0:0:0:0:
312,152,115396,1,8,0:0:0:0:
360,168,115546,1,0,0:0:0:0:
376,176,115621,1,8,0:0:0:0:
416,192,115771,1,0,0:0:0:0:
376,160,115921,1,12,0:0:0:0:
336,120,116071,1,12,0:0:0:0:
228,89,116371,1,12,0:0:0:0:
255,185,116521,1,0,0:0:0:0:
268,196,116596,1,8,0:0:0:0:
268,196,116746,1,0,0:0:0:0:
268,196,116821,1,8,0:0:0:0:
219,167,116971,1,0,0:0:0:0:
268,196,117121,1,0,0:0:0:0:
268,196,117196,1,8,0:0:0:0:
268,196,117271,1,0,0:0:0:0:
268,196,117421,1,0,0:0:0:0:
219,197,117571,1,8,0:0:0:0:
174,198,117721,1,0,0:0:0:0:
153,199,117796,1,8,0:0:0:0:
107,201,117946,1,0,0:0:0:0:
107,201,118021,1,0,0:0:0:0:
107,201,118321,1,0,0:0:0:0:
107,201,118396,1,8,0:0:0:0:
107,201,118471,1,0,0:0:0:0:
107,201,118621,1,0,0:0:0:0:
107,201,118771,1,8,0:0:0:0:
107,201,118921,1,0,0:0:0:0:
107,201,118996,1,8,0:0:0:0:
107,201,119146,1,0,0:0:0:0:
107,201,119221,1,8,0:0:0:0:
107,201,119371,1,8,0:0:0:0:
109,182,119446,1,0,0:0:0:0:
107,201,119521,1,8,0:0:0:0:
107,201,119596,1,8,0:0:0:0:
107,201,119671,1,0,0:0:0:0:
109,182,119821,1,0,0:0:0:0:
109,182,119971,1,8,0:0:0:0:
109,182,120121,1,0,0:0:0:0:
109,182,120196,1,8,0:0:0:0:
109,182,120346,1,0,0:0:0:0:
109,182,120421,1,8,0:0:0:0:
109,182,120571,1,0,0:0:0:0:
109,182,120646,1,8,0:0:0:0:
109,182,120796,1,0,0:0:0:0:
109,182,120871,1,8,0:0:0:0:
109,182,121021,1,0,0:0:0:0:
109,182,121171,1,12,0:0:0:0:
162,175,121321,1,0,0:0:0:0:
187,172,121396,1,8,0:0:0:0:
235,167,121546,1,0,0:0:0:0:
235,167,121621,1,8,0:0:0:0:
235,167,121771,1,0,0:0:0:0:
235,167,121921,1,8,0:0:0:0:
235,167,121996,1,8,0:0:0:0:
235,167,122071,1,0,0:0:0:0:
235,167,122221,1,0,0:0:0:0:
235,167,122371,1,12,0:0:0:0:
235,167,122521,1,0,0:0:0:0:
235,167,122596,1,8,0:0:0:0:
235,167,122746,1,0,0:0:0:0:
235,167,122821,1,8,0:0:0:0:
235,167,122971,1,0,0:0:0:0:
235,167,123121,1,0,0:0:0:0:
235,167,123196,1,8,0:0:0:0:
235,167,123346,1,0,0:0:0:0:
235,167,123421,1,0,0:0:0:0:
235,167,123571,1,12,0:0:0:0:
235,167,123721,1,0,0:0:0:0:
235,167,123796,1,8,0:0:0:0:
235,167,123946,1,0,0:0:0:0:
235,167,124021,1,8,0:0:0:0:
214,217,124171,1,12,0:0:0:0:
226,164,124321,1,8,0:0:0:0:
226,164,124396,1,0,0:0:0:0:
226,164,124471,1,8,0:0:0:0:
199,153,124546,1,8,0:0:0:0:
226,164,124621,1,0,0:0:0:0:
226,164,124771,1,12,0:0:0:0:
226,164,124921,1,0,0:0:0:0:
226,164,125071,1,12,0:0:0:0:
226,164,125221,1,0,0:0:0:0:
226,164,125371,1,12,0:0:0:0:
208,225,125521,1,12,0:0:0:0:
226,164,125671,1,12,0:0:0:0:
225,168,125971,1,12,0:0:0:0:
