osu file format v14

[General]
AudioFilename: audio.mp3
AudioLeadIn: 0
PreviewTime: 10752
Countdown: 0
SampleSet: Normal
StackLeniency: 0.7
Mode: 1
LetterboxInBreaks: 0
WidescreenStoryboard: 1

[Editor]
DistanceSpacing: 0.8
BeatDivisor: 4
GridSize: 32
TimelineZoom: 2.4

[Metadata]
Title:Nadeshiko Sensation
TitleUnicode:Nadeshiko Sensation
Artist:yuki.
ArtistUnicode:yuki.
Creator:Multiple Creators
Version:Inner Oni
Source:
Tags:
BeatmapID:1243820
BeatmapSetID:587388

[Difficulty]
HPDrainRate:6
CircleSize:2
OverallDifficulty:5
ApproachRate:5
SliderMultiplier:1.4
SliderTickRate:1

[Events]
//Background and Video events
0,0,"Nadeshiko Sensation B.jpg",0,0
//Break Periods
//Storyboard Layer 0 (Background)
//Storyboard Layer 1 (Fail)
//Storyboard Layer 2 (Pass)
//Storyboard Layer 3 (Foreground)
//Storyboard Sound Samples

[TimingPoints]
1171,300,4,1,0,100,1,0
5971,-95.2380952380952,4,1,0,100,0,0
6271,-94.3396226415094,4,1,0,100,0,0
6571,-93.4579439252336,4,1,0,100,0,0
6871,-92.5925925925926,4,1,0,100,0,0
7171,-90.9090909090909,4,1,0,100,0,0
7471,-90.0900900900901,4,1,0,100,0,0
7771,-89.2857142857143,4,1,0,100,0,0
8071,-88.4955752212389,4,1,0,100,0,0
8371,-86.9565217391304,4,1,0,100,0,0
8521,-86.2068965517241,4,1,0,100,0,0
8671,-85.4700854700855,4,1,0,100,0,0
8821,-84.7457627118644,4,1,0,100,0,0
8971,-83.3333333333333,4,1,0,100,0,0
9121,-82.6446280991736,4,1,0,100,0,0
9196,-81.9672131147541,4,1,0,100,0,0
9271,-81.3008130081301,4,1,0,100,0,0
9421,-80.6451612903226,4,1,0,100,0,0
9571,-80,4,1,0,100,0,0
10471,-133.333333333333,4,1,0,100,0,0
10771,-100,4,1,0,100,0,1
25171,-95.2380952380952,4,1,0,100,0,1
25471,-94.3396226415094,4,1,0,100,0,1
25696,-93.4579439252336,4,1,0,100,0,1
25771,-92.5925925925926,4,1,0,100,0,1
26071,-91.743119266055,4,1,0,100,0,1
26371,-90.9090909090909,4,1,0,100,0,1
26671,-90.0900900900901,4,1,0,100,0,1
26971,-89.2857142857143,4,1,0,100,0,1
27121,-88.4955752212389,4,1,0,100,0,1
27271,-87.719298245614,4,1,0,100,0,1
27571,-86.9565217391304,4,1,0,100,0,1
27721,-86.2068965517241,4,1,0,100,0,1
27871,-85.4700854700855,4,1,0,100,0,1
28021,-84.7457627118644,4,1,0,100,0,1
28096,-84.0336134453781,4,1,0,100,0,1
28171,-83.3333333333333,4,1,0,100,0,1
28321,-82.6446280991736,4,1,0,100,0,1
28471,-81.9672131147541,4,1,0,100,0,1
28621,-81.3008130081301,4,1,0,100,0,1
28696,-80.6451612903226,4,1,0,100,0,1
28771,-80,4,1,0,100,0,1
28921,-83.3333333333333,4,1,0,100,0,1
29071,-86.9565217391304,4,1,0,100,0,1
29221,-90.9090909090909,4,1,0,100,0,1
29371,-95.2380952380952,4,1,0,100,0,1
29971,-91.743119266055,4,1,0,100,0,0
30121,-92.5925925925926,4,1,0,100,0,0
30196,-93.4579439252336,4,1,0,100,0,0
30271,-94.3396226415094,4,1,0,100,0,0
30421,-95.2380952380952,4,1,0,100,0,0
30571,-96.1538461538461,4,1,0,100,0,0
30721,-97.0873786407767,4,1,0,100,0,0
30871,-98.0392156862745,4,1,0,100,0,0
31021,-99.009900990099,4,1,0,100,0,0
31171,-91.743119266055,4,1,0,100,0,0
31321,-92.5925925925926,4,1,0,100,0,0
31396,-93.4579439252336,4,1,0,100,0,0
31471,-94.3396226415094,4,1,0,100,0,0
31621,-95.2380952380952,4,1,0,100,0,0
31771,-96.1538461538461,4,1,0,100,0,0
31921,-97.0873786407767,4,1,0,100,0,0
32071,-98.0392156862745,4,1,0,100,0,0
32221,-99.009900990099,4,1,0,100,0,0
32371,-91.743119266055,4,1,0,100,0,0
32521,-92.5925925925926,4,1,0,100,0,0
32596,-93.4579439252336,4,1,0,100,0,0
32671,-94.3396226415094,4,1,0,100,0,0
32821,-95.2380952380952,4,1,0,100,0,0
32971,-96.1538461538461,4,1,0,100,0,0
33121,-97.0873786407767,4,1,0,100,0,0
33271,-98.0392156862745,4,1,0,100,0,0
33421,-99.009900990099,4,1,0,100,0,0
33571,-100,4,1,0,100,0,0
33721,-99.009900990099,4,1,0,100,0,0
33796,-98.0392156862745,4,1,0,100,0,0
33871,-97.0873786407767,4,1,0,100,0,0
34021,-96.1538461538461,4,1,0,100,0,0
34171,-95.2380952380952,4,1,0,100,0,0
34321,-94.3396226415094,4,1,0,100,0,0
34471,-93.4579439252336,4,1,0,100,0,0
34621,-92.5925925925926,4,1,0,100,0,0
34771,-91.743119266055,4,1,0,100,0,0
34921,-92.5925925925926,4,1,0,100,0,0
34996,-93.4579439252336,4,1,0,100,0,0
35071,-94.3396226415094,4,1,0,100,0,0
35221,-95.2380952380952,4,1,0,100,0,0
35371,-96.1538461538461,4,1,0,100,0,0
35521,-97.0873786407767,4,1,0,100,0,0
35671,-98.0392156862745,4,1,0,100,0,0
35821,-99.009900990099,4,1,0,100,0,0
35971,-91.743119266055,4,1,0,100,0,0
36121,-92.5925925925926,4,1,0,100,0,0
36196,-93.4579439252336,4,1,0,100,0,0
36271,-94.3396226415094,4,1,0,100,0,0
36421,-95.2380952380952,4,1,0,100,0,0
36571,-96.1538461538461,4,1,0,100,0,0
36721,-97.0873786407767,4,1,0,100,0,0
36871,-98.0392156862745,4,1,0,100,0,0
37021,-99.009900990099,4,1,0,100,0,0
37171,-91.743119266055,4,1,0,100,0,0
37321,-92.5925925925926,4,1,0,100,0,0
37396,-93.4579439252336,4,1,0,100,0,0
37471,-94.3396226415094,4,1,0,100,0,0
37621,-95.2380952380952,4,1,0,100,0,0
37771,-96.1538461538461,4,1,0,100,0,0
37921,-97.0873786407767,4,1,0,100,0,0
38071,-98.0392156862745,4,1,0,100,0,0
38221,-99.009900990099,4,1,0,100,0,0
38371,-100,4,1,0,100,0,0
38521,-99.009900990099,4,1,0,100,0,0
38596,-98.0392156862745,4,1,0,100,0,0
38671,-97.0873786407767,4,1,0,100,0,0
38821,-96.1538461538461,4,1,0,100,0,0
38971,-95.2380952380952,4,1,0,100,0,0
39121,-94.3396226415094,4,1,0,100,0,0
39271,-93.4579439252336,4,1,0,100,0,0
39421,-92.5925925925926,4,1,0,100,0,0
39571,-91.743119266055,4,1,0,100,0,0
39871,-93.4579439252336,4,1,0,100,0,0
40171,-95.2380952380952,4,1,0,100,0,0
40471,-97.0873786407767,4,1,0,100,0,0
40771,-99.009900990099,4,1,0,100,0,0
40921,-97.0873786407767,4,1,0,100,0,0
41221,-95.2380952380952,4,1,0,100,0,0
41521,-93.4579439252336,4,1,0,100,0,0
41821,-91.743119266055,4,1,0,100,0,0
42271,-93.4579439252336,4,1,0,100,0,0
42571,-95.2380952380952,4,1,0,100,0,0
42871,-97.0873786407767,4,1,0,100,0,0
43171,-99.009900990099,4,1,0,100,0,0
43321,-97.0873786407767,4,1,0,100,0,0
43621,-95.2380952380952,4,1,0,100,0,0
43921,-93.4579439252336,4,1,0,100,0,0
44371,-95.2380952380952,4,1,0,100,0,0
44521,-94.3396226415094,4,1,0,100,0,0
44671,-93.4579439252336,4,1,0,100,0,0
44971,-92.5925925925926,4,1,0,100,0,0
45271,-91.743119266055,4,1,0,100,0,0
45571,-90.9090909090909,4,1,0,100,0,0
45721,-90.0900900900901,4,1,0,100,0,0
45871,-89.2857142857143,4,1,0,100,0,0
46171,-88.4955752212389,4,1,0,100,0,0
46471,-87.719298245614,4,1,0,100,0,0
46771,-86.9565217391304,4,1,0,100,0,0
46921,-86.2068965517241,4,1,0,100,0,0
47146,-85.4700854700855,4,1,0,100,0,0
47371,-84.7457627118644,4,1,0,100,0,0
47671,-84.0336134453781,4,1,0,100,0,0
47971,-83.3333333333333,4,1,0,100,0,0
48121,-86.9565217391304,4,1,0,100,0,0
48271,-90.9090909090909,4,1,0,100,0,0
48421,-95.2380952380952,4,1,0,100,0,0
48571,-100,4,1,0,100,0,0
49171,-83.3333333333333,4,1,0,100,0,1
51571,-83.3333333333333,4,1,0,100,0,0
51721,-111.111111111111,4,1,0,100,0,0
53971,-83.3333333333333,4,1,0,100,0,1
56371,-83.3333333333333,4,1,0,100,0,0
56521,-111.111111111111,4,1,0,100,0,0
58771,-76.9230769230769,4,1,0,100,0,1
61171,-76.9230769230769,4,1,0,100,0,0
61246,-100,4,1,0,100,0,0
63571,-95.2380952380952,4,1,0,100,0,1
63871,-94.3396226415094,4,1,0,100,0,1
64171,-93.4579439252336,4,1,0,100,0,1
64471,-92.5925925925926,4,1,0,100,0,1
64621,-91.743119266055,4,1,0,100,0,1
64771,-90.9090909090909,4,1,0,100,0,1
65071,-90.0900900900901,4,1,0,100,0,1
65371,-89.2857142857143,4,1,0,100,0,1
65671,-88.4955752212389,4,1,0,100,0,1
65821,-87.719298245614,4,1,0,100,0,1
65971,-86.9565217391304,4,1,0,100,0,0
66271,-86.2068965517241,4,1,0,100,0,0
66571,-85.4700854700855,4,1,0,100,0,0
66871,-84.7457627118644,4,1,0,100,0,0
67021,-84.0336134453781,4,1,0,100,0,0
67171,-83.3333333333333,4,1,0,100,0,0
67396,-95.2380952380952,4,1,0,100,0,0
67696,-105.263157894737,4,1,0,100,0,0
67996,-111.111111111111,4,1,0,100,0,0
68371,-133.333333333333,4,1,0,100,0,0
77971,-100,4,1,0,100,0,0
82771,-95.2380952380952,4,1,0,100,0,0
83071,-94.3396226415094,4,1,0,100,0,0
83371,-93.4579439252336,4,1,0,100,0,0
83521,-92.5925925925926,4,1,0,100,0,0
83671,-91.743119266055,4,1,0,100,0,0
83971,-90.9090909090909,4,1,0,100,0,0
84271,-90.0900900900901,4,1,0,100,0,0
84571,-89.2857142857143,4,1,0,100,0,0
84796,-88.4955752212389,4,1,0,100,0,0
85021,-87.719298245614,4,1,0,100,0,0
85171,-86.9565217391304,4,1,0,100,0,0
85471,-86.2068965517241,4,1,0,100,0,0
85771,-85.4700854700855,4,1,0,100,0,0
86071,-84.7457627118644,4,1,0,100,0,0
86221,-84.0336134453781,4,1,0,100,0,0
86371,-83.3333333333333,4,1,0,100,0,0
87271,-133.333333333333,4,1,0,100,0,0
87571,-100,4,1,0,100,0,1
101971,-95.2380952380952,4,1,0,100,0,1
102271,-94.3396226415094,4,1,0,100,0,1
102571,-93.4579439252336,4,1,0,100,0,1
102871,-92.5925925925926,4,1,0,100,0,1
103021,-91.743119266055,4,1,0,100,0,1
103171,-90.9090909090909,4,1,0,100,0,1
103471,-90.0900900900901,4,1,0,100,0,1
103771,-89.2857142857143,4,1,0,100,0,1
103921,-88.4955752212389,4,1,0,100,0,1
104146,-87.719298245614,4,1,0,100,0,1
104371,-86.9565217391304,4,1,0,100,0,1
104671,-86.2068965517241,4,1,0,100,0,1
104971,-85.4700854700855,4,1,0,100,0,1
105271,-84.7457627118644,4,1,0,100,0,1
105421,-84.0336134453781,4,1,0,100,0,1
105571,-83.3333333333333,4,1,0,100,0,1
105721,-86.9565217391304,4,1,0,100,0,1
105871,-90.9090909090909,4,1,0,100,0,1
106021,-95.2380952380952,4,1,0,100,0,1
106171,-100,4,1,0,100,0,1
106771,-90.9090909090909,4,1,0,100,0,1
116371,-86.9565217391304,4,1,0,100,0,1
121171,-83.3333333333333,4,1,0,100,0,1
121471,-82.6446280991736,4,1,0,100,0,1
121771,-81.9672131147541,4,1,0,100,0,1
122071,-81.3008130081301,4,1,0,100,0,1
122221,-80.6451612903226,4,1,0,100,0,1
122371,-80,4,1,0,100,0,1
122521,-79.3650793650794,4,1,0,100,0,1
122671,-78.7401574803149,4,1,0,100,0,1
122971,-78.125,4,1,0,100,0,1
123271,-77.5193798449612,4,1,0,100,0,1
123571,-76.9230769230769,4,1,0,100,0,1
123871,-76.3358778625954,4,1,0,100,0,1
124171,-75.7575757575758,4,1,0,100,0,1
124471,-75.187969924812,4,1,0,100,0,1
124621,-74.6268656716418,4,1,0,100,0,1
124771,-74.0740740740741,4,1,0,100,0,1
124921,-76.9230769230769,4,1,0,100,0,1
125071,-80,4,1,0,100,0,1
125221,-83.3333333333333,4,1,0,100,0,1
125371,-86.9565217391304,4,1,0,100,0,1
125971,-66.6666666666667,4,1,0,100,0,0

[HitObjects]
256,192,1171,5,4,0:0:0:0:
288,160,1621,1,8,0:0:0:0:
288,160,1771,1,8,0:0:0:0:
288,160,2071,1,8,0:0:0:0:
256,192,2371,1,8,0:0:0:0:
256,192,2521,1,8,0:0:0:0:
256,192,2821,1,8,0:0:0:0:
256,192,2971,1,8,0:0:0:0:
288,192,3571,1,8,0:0:0:0:
256,128,4021,1,8,0:0:0:0:
256,128,4171,1,8,0:0:0:0:
256,128,4471,1,8,0:0:0:0:
256,128,4771,1,8,0:0:0:0:
224,128,4921,1,8,0:0:0:0:
256,128,5221,1,8,0:0:0:0:
256,128,5371,1,8,0:0:0:0:
288,128,5671,1,8,0:0:0:0:
256,192,5971,1,4,0:0:0:0:
256,192,6271,1,8,0:0:0:0:
256,192,6571,1,8,0:0:0:0:
256,192,6871,1,8,0:0:0:0:
160,128,7171,1,4,0:0:0:0:
256,192,7471,1,8,0:0:0:0:
256,192,7771,1,8,0:0:0:0:
256,192,8071,1,8,0:0:0:0:
256,192,8371,1,4,0:0:0:0:
256,192,8521,1,8,0:0:0:0:
256,192,8671,1,8,0:0:0:0:
256,192,8821,1,8,0:0:0:0:
256,192,8971,1,4,0:0:0:0:
256,192,9121,1,8,0:0:0:0:
256,192,9196,1,8,0:0:0:0:
256,192,9271,1,8,0:0:0:0:
256,192,9421,1,8,0:0:0:0:
256,192,9571,1,4,0:0:0:0:
256,192,10471,1,8,0:0:0:0:
256,192,10771,1,4,0:0:0:0:
224,192,10921,1,0,0:0:0:0:
256,96,10996,1,0,0:0:0:0:
224,192,11071,1,8,0:0:0:0:
224,192,11221,1,8,0:0:0:0:
224,192,11371,1,0,0:0:0:0:
224,192,11521,1,8,0:0:0:0:
224,192,11596,1,8,0:0:0:0:
224,192,11671,1,0,0:0:0:0:
256,128,11746,1,0,0:0:0:0:
224,192,11821,1,8,0:0:0:0:
224,192,11971,1,0,0:0:0:0:
256,192,12121,1,8,0:0:0:0:
256,192,12271,1,8,0:0:0:0:
256,96,12346,1,8,0:0:0:0:
256,192,12421,1,0,0:0:0:0:
256,192,12571,1,8,0:0:0:0:
256,192,12871,1,0,0:0:0:0:
256,192,13021,1,8,0:0:0:0:
256,192,13171,1,8,0:0:0:0:
256,192,13321,1,0,0:0:0:0:
256,96,13396,1,0,0:0:0:0:
256,192,13471,1,0,0:0:0:0:
256,192,13621,1,8,0:0:0:0:
256,192,13771,1,0,0:0:0:0:
320,96,13921,1,8,0:0:0:0:
320,96,13971,1,8,0:0:0:0:
288,96,14021,1,8,0:0:0:0:
256,192,14071,1,0,0:0:0:0:
256,192,14221,1,0,0:0:0:0:
256,192,14371,1,8,0:0:0:0:
256,128,14521,1,0,0:0:0:0:
256,64,14596,1,0,0:0:0:0:
256,128,14671,1,8,0:0:0:0:
256,128,14821,1,8,0:0:0:0:
256,128,14971,1,8,0:0:0:0:
256,96,15271,1,8,0:0:0:0:
256,96,15421,1,8,0:0:0:0:
256,96,15496,1,8,0:0:0:0:
256,96,15571,1,0,0:0:0:0:
256,64,15721,1,0,0:0:0:0:
256,64,15871,1,8,0:0:0:0:
256,64,16021,1,0,0:0:0:0:
256,64,16096,1,0,0:0:0:0:
256,64,16171,1,0,0:0:0:0:
256,64,16321,1,0,0:0:0:0:
256,64,16471,1,8,0:0:0:0:
256,64,16621,1,0,0:0:0:0:
256,64,16771,1,0,0:0:0:0:
256,64,16921,1,0,0:0:0:0:
256,64,16996,1,0,0:0:0:0:
256,64,17071,1,8,0:0:0:0:
256,64,17221,1,8,0:0:0:0:
256,64,17371,1,0,0:0:0:0:
288,128,17671,1,8,0:0:0:0:
288,128,17821,1,8,0:0:0:0:
288,128,17896,1,8,0:0:0:0:
256,64,17971,1,0,0:0:0:0:
224,96,18121,1,0,0:0:0:0:
224,96,18271,1,8,0:0:0:0:
192,32,18421,1,8,0:0:0:0:
192,32,18496,1,8,0:0:0:0:
224,96,18571,1,0,0:0:0:0:
192,64,18721,1,8,0:0:0:0:
192,64,18771,1,8,0:0:0:0:
192,64,18821,1,8,0:0:0:0:
224,96,18871,1,0,0:0:0:0:
224,96,19021,1,0,0:0:0:0:
224,96,19171,1,8,0:0:0:0:
192,96,19321,1,0,0:0:0:0:
192,96,19396,1,0,0:0:0:0:
192,96,19471,1,8,0:0:0:0:
192,96,19621,1,8,0:0:0:0:
192,96,19771,1,8,0:0:0:0:
192,96,19921,1,0,0:0:0:0:
224,96,19996,1,8,0:0:0:0:
192,96,20071,1,0,0:0:0:0:
224,96,20221,1,8,0:0:0:0:
192,96,20371,1,4,0:0:0:0:
224,192,20521,1,0,0:0:0:0:
256,96,20596,1,0,0:0:0:0:
224,192,20671,1,8,0:0:0:0:
224,192,20821,1,8,0:0:0:0:
224,192,20971,1,0,0:0:0:0:
224,192,21121,1,8,0:0:0:0:
224,192,21196,1,8,0:0:0:0:
224,192,21271,1,0,0:0:0:0:
224,192,21421,1,8,0:0:0:0:
224,192,21571,1,0,0:0:0:0:
256,192,21721,1,8,0:0:0:0:
256,192,21871,1,8,0:0:0:0:
256,96,21946,1,8,0:0:0:0:
256,192,22021,1,0,0:0:0:0:
256,128,22096,1,0,0:0:0:0:
256,192,22171,1,8,0:0:0:0:
224,160,22321,1,0,0:0:0:0:
192,96,22396,1,0,0:0:0:0:
256,192,22471,1,8,0:0:0:0:
256,192,22621,1,8,0:0:0:0:
256,192,22771,1,8,0:0:0:0:
256,192,22921,1,0,0:0:0:0:
256,96,22996,1,0,0:0:0:0:
256,192,23071,1,0,0:0:0:0:
256,192,23221,1,8,0:0:0:0:
256,192,23371,1,0,0:0:0:0:
320,96,23521,1,8,0:0:0:0:
320,96,23571,1,8,0:0:0:0:
288,96,23621,1,8,0:0:0:0:
256,192,23671,1,0,0:0:0:0:
256,192,23821,1,0,0:0:0:0:
256,192,23971,1,8,0:0:0:0:
256,128,24121,1,0,0:0:0:0:
256,64,24196,1,0,0:0:0:0:
256,128,24271,1,8,0:0:0:0:
256,128,24421,1,8,0:0:0:0:
256,128,24571,1,8,0:0:0:0:
256,96,24871,1,8,0:0:0:0:
256,96,25021,1,8,0:0:0:0:
256,96,25171,1,4,0:0:0:0:
256,64,25321,1,0,0:0:0:0:
256,64,25471,1,8,0:0:0:0:
256,64,25621,1,0,0:0:0:0:
256,64,25696,1,0,0:0:0:0:
256,64,25771,1,0,0:0:0:0:
256,64,25921,1,0,0:0:0:0:
256,64,26071,1,8,0:0:0:0:
256,64,26221,1,0,0:0:0:0:
256,64,26371,1,4,0:0:0:0:
256,64,26521,1,0,0:0:0:0:
256,64,26596,1,0,0:0:0:0:
256,64,26671,1,8,0:0:0:0:
256,64,26821,1,8,0:0:0:0:
256,64,26971,1,0,0:0:0:0:
288,96,27046,1,8,0:0:0:0:
288,96,27121,1,0,0:0:0:0:
288,96,27196,1,0,0:0:0:0:
288,128,27271,1,8,0:0:0:0:
288,128,27421,1,8,0:0:0:0:
256,64,27571,1,4,0:0:0:0:
256,128,27721,1,0,0:0:0:0:
256,128,27796,1,0,0:0:0:0:
256,128,27871,1,8,0:0:0:0:
256,128,27946,1,0,0:0:0:0:
256,128,28021,1,8,0:0:0:0:
192,96,28096,1,8,0:0:0:0:
256,128,28171,1,0,0:0:0:0:
256,96,28221,1,8,0:0:0:0:
256,96,28271,1,8,0:0:0:0:
256,128,28321,1,0,0:0:0:0:
256,128,28396,1,0,0:0:0:0:
256,128,28471,1,8,0:0:0:0:
256,128,28546,1,0,0:0:0:0:
256,128,28621,1,8,0:0:0:0:
288,64,28696,1,8,0:0:0:0:
256,128,28771,1,0,0:0:0:0:
256,128,28921,1,8,0:0:0:0:
256,128,29071,1,8,0:0:0:0:
256,128,29221,1,0,0:0:0:0:
256,128,29371,1,0,0:0:0:0:
256,128,29971,1,4,0:0:0:0:
224,160,30121,1,0,0:0:0:0:
224,192,30196,1,0,0:0:0:0:
224,160,30271,1,8,0:0:0:0:
224,160,30421,1,8,0:0:0:0:
224,160,30571,1,0,0:0:0:0:
224,160,30721,1,8,0:0:0:0:
224,160,30871,1,8,0:0:0:0:
224,160,31021,1,8,0:0:0:0:
224,160,31171,1,0,0:0:0:0:
224,160,31321,1,0,0:0:0:0:
224,192,31396,1,0,0:0:0:0:
224,160,31471,1,8,0:0:0:0:
224,160,31621,1,8,0:0:0:0:
224,160,31771,1,0,0:0:0:0:
224,160,31921,1,8,0:0:0:0:
224,160,32071,1,8,0:0:0:0:
224,160,32221,1,8,0:0:0:0:
224,160,32371,1,0,0:0:0:0:
224,160,32521,1,0,0:0:0:0:
224,192,32596,1,0,0:0:0:0:
224,160,32671,1,8,0:0:0:0:
224,160,32821,1,8,0:0:0:0:
224,160,32971,1,0,0:0:0:0:
224,160,33121,1,8,0:0:0:0:
224,160,33271,1,8,0:0:0:0:
224,160,33421,1,8,0:0:0:0:
224,160,33571,1,0,0:0:0:0:
288,128,33721,1,0,0:0:0:0:
224,192,33796,1,0,0:0:0:0:
288,128,33871,1,8,0:0:0:0:
288,128,34021,1,8,0:0:0:0:
288,128,34171,1,0,0:0:0:0:
320,96,34321,1,8,0:0:0:0:
320,96,34371,1,8,0:0:0:0:
320,96,34421,1,8,0:0:0:0:
320,96,34471,1,0,0:0:0:0:
320,96,34621,1,8,0:0:0:0:
320,96,34771,1,0,0:0:0:0:
224,160,34921,1,0,0:0:0:0:
224,192,34996,1,0,0:0:0:0:
224,160,35071,1,8,0:0:0:0:
224,160,35221,1,8,0:0:0:0:
224,160,35371,1,0,0:0:0:0:
224,160,35521,1,8,0:0:0:0:
224,160,35671,1,8,0:0:0:0:
224,160,35821,1,8,0:0:0:0:
224,160,35971,1,0,0:0:0:0:
224,160,36121,1,0,0:0:0:0:
224,192,36196,1,0,0:0:0:0:
224,160,36271,1,8,0:0:0:0:
224,160,36421,1,8,0:0:0:0:
224,160,36571,1,0,0:0:0:0:
224,160,36721,1,8,0:0:0:0:
224,160,36871,1,8,0:0:0:0:
224,160,37021,1,8,0:0:0:0:
224,160,37171,1,0,0:0:0:0:
224,160,37321,1,0,0:0:0:0:
224,192,37396,1,0,0:0:0:0:
224,160,37471,1,8,0:0:0:0:
224,160,37621,1,8,0:0:0:0:
224,160,37771,1,0,0:0:0:0:
224,160,37921,1,8,0:0:0:0:
224,160,38071,1,8,0:0:0:0:
224,160,38221,1,8,0:0:0:0:
224,160,38371,1,0,0:0:0:0:
288,128,38521,1,0,0:0:0:0:
224,192,38596,1,0,0:0:0:0:
288,128,38671,1,8,0:0:0:0:
224,128,38746,1,0,0:0:0:0:
224,128,38821,1,8,0:0:0:0:
256,128,38896,1,8,0:0:0:0:
288,128,38971,1,0,0:0:0:0:
320,96,39121,1,8,0:0:0:0:
320,96,39171,1,8,0:0:0:0:
320,96,39221,1,8,0:0:0:0:
320,96,39271,1,0,0:0:0:0:
320,96,39421,1,8,0:0:0:0:
224,128,39571,1,4,0:0:0:0:
224,128,39721,1,0,0:0:0:0:
224,128,39871,1,8,0:0:0:0:
224,128,39946,1,8,0:0:0:0:
224,128,40021,1,0,0:0:0:0:
224,128,40171,1,8,0:0:0:0:
224,128,40246,1,8,0:0:0:0:
224,128,40321,1,0,0:0:0:0:
224,128,40471,1,8,0:0:0:0:
224,128,40546,1,8,0:0:0:0:
224,128,40621,1,0,0:0:0:0:
224,128,40771,1,8,0:0:0:0:
256,128,40921,1,0,0:0:0:0:
256,128,40996,1,0,0:0:0:0:
256,128,41071,1,8,0:0:0:0:
256,128,41221,1,0,0:0:0:0:
256,128,41296,1,0,0:0:0:0:
256,128,41371,1,8,0:0:0:0:
256,128,41521,1,0,0:0:0:0:
256,128,41596,1,0,0:0:0:0:
256,128,41671,1,8,0:0:0:0:
256,128,41821,1,0,0:0:0:0:
256,128,41971,1,8,0:0:0:0:
256,128,42121,1,0,0:0:0:0:
256,128,42271,1,8,0:0:0:0:
256,128,42346,1,8,0:0:0:0:
256,128,42421,1,0,0:0:0:0:
256,128,42571,1,8,0:0:0:0:
256,128,42646,1,8,0:0:0:0:
256,128,42721,1,0,0:0:0:0:
256,128,42871,1,8,0:0:0:0:
256,128,42946,1,8,0:0:0:0:
256,128,43021,1,0,0:0:0:0:
256,128,43171,1,8,0:0:0:0:
256,128,43321,1,0,0:0:0:0:
256,128,43396,1,0,0:0:0:0:
256,128,43471,1,8,0:0:0:0:
256,128,43621,1,8,0:0:0:0:
256,128,43696,1,8,0:0:0:0:
256,128,43771,1,0,0:0:0:0:
256,128,43921,1,0,0:0:0:0:
256,128,43996,1,0,0:0:0:0:
256,128,44071,1,8,0:0:0:0:
256,128,44146,1,8,0:0:0:0:
256,128,44221,1,0,0:0:0:0:
256,160,44371,1,12,0:0:0:0:
256,160,44521,1,0,0:0:0:0:
256,160,44596,1,0,0:0:0:0:
256,160,44671,1,8,0:0:0:0:
256,160,44746,1,0,0:0:0:0:
256,160,44821,1,8,0:0:0:0:
256,160,44971,1,0,0:0:0:0:
256,160,45121,1,8,0:0:0:0:
256,160,45196,1,8,0:0:0:0:
256,160,45271,1,8,0:0:0:0:
256,160,45421,1,8,0:0:0:0:
256,160,45571,1,12,0:0:0:0:
256,160,45721,1,0,0:0:0:0:
256,160,45796,1,0,0:0:0:0:
256,160,45871,1,8,0:0:0:0:
256,160,45946,1,0,0:0:0:0:
256,160,46021,1,8,0:0:0:0:
256,160,46171,1,0,0:0:0:0:
256,160,46321,1,8,0:0:0:0:
256,160,46396,1,8,0:0:0:0:
256,160,46471,1,8,0:0:0:0:
256,160,46621,1,8,0:0:0:0:
256,160,46771,1,12,0:0:0:0:
256,160,46921,1,0,0:0:0:0:
256,160,46996,1,0,0:0:0:0:
256,160,47071,1,8,0:0:0:0:
256,160,47146,1,8,0:0:0:0:
256,160,47221,1,0,0:0:0:0:
256,160,47296,1,0,0:0:0:0:
256,160,47371,1,8,0:0:0:0:
256,160,47446,1,0,0:0:0:0:
256,160,47521,1,0,0:0:0:0:
256,160,47596,1,0,0:0:0:0:
256,160,47671,1,8,0:0:0:0:
256,160,47746,1,0,0:0:0:0:
256,160,47821,1,0,0:0:0:0:
256,160,47896,1,0,0:0:0:0:
256,160,47971,1,8,0:0:0:0:
256,160,48121,1,0,0:0:0:0:
256,128,48271,1,8,0:0:0:0:
256,128,48421,1,8,0:0:0:0:
256,128,48571,1,0,0:0:0:0:
384,96,48721,1,8,0:0:0:0:
384,96,48771,1,8,0:0:0:0:
384,96,48821,1,8,0:0:0:0:
384,96,48871,1,0,0:0:0:0:
384,96,49021,1,8,0:0:0:0:
256,160,49171,1,4,0:0:0:0:
320,128,49421,1,8,0:0:0:0:
320,128,49471,1,0,0:0:0:0:
384,128,49721,1,0,0:0:0:0:
384,128,49771,1,8,0:0:0:0:
256,128,50021,1,8,0:0:0:0:
256,128,50071,1,0,0:0:0:0:
256,128,50321,1,8,0:0:0:0:
256,128,50371,1,0,0:0:0:0:
320,128,50621,1,8,0:0:0:0:
256,128,50671,1,0,0:0:0:0:
256,128,50921,1,0,0:0:0:0:
256,128,50971,1,8,0:0:0:0:
256,128,51271,1,8,0:0:0:0:
192,128,51371,1,8,0:0:0:0:
256,128,51471,1,8,0:0:0:0:
256,128,51571,1,0,0:0:0:0:
288,128,51871,1,8,0:0:0:0:
256,64,52121,1,8,0:0:0:0:
288,128,52171,1,8,0:0:0:0:
288,128,52471,1,8,0:0:0:0:
288,128,52771,1,8,0:0:0:0:
256,96,53021,1,8,0:0:0:0:
288,128,53071,1,8,0:0:0:0:
288,128,53321,1,8,0:0:0:0:
288,128,53371,1,8,0:0:0:0:
288,128,53621,1,8,0:0:0:0:
288,128,53671,1,0,0:0:0:0:
288,128,53971,1,4,0:0:0:0:
224,128,54221,1,0,0:0:0:0:
224,128,54271,1,8,0:0:0:0:
320,64,54521,1,8,0:0:0:0:
320,64,54571,1,8,0:0:0:0:
288,128,54821,1,8,0:0:0:0:
288,128,54871,1,0,0:0:0:0:
288,128,55121,1,8,0:0:0:0:
256,128,55171,1,0,0:0:0:0:
256,128,55421,1,0,0:0:0:0:
256,128,55471,1,8,0:0:0:0:
256,128,55721,1,8,0:0:0:0:
256,128,55771,1,8,0:0:0:0:
256,128,56071,1,8,0:0:0:0:
256,128,56171,1,8,0:0:0:0:
256,128,56271,1,8,0:0:0:0:
256,128,56371,1,0,0:0:0:0:
256,128,56671,1,8,0:0:0:0:
256,128,56921,1,8,0:0:0:0:
256,128,56971,1,8,0:0:0:0:
256,128,57271,1,8,0:0:0:0:
256,128,57571,1,8,0:0:0:0:
256,128,57821,1,8,0:0:0:0:
256,128,57871,1,8,0:0:0:0:
256,128,58121,1,8,0:0:0:0:
256,128,58171,1,8,0:0:0:0:
256,128,58421,1,8,0:0:0:0:
256,128,58471,1,0,0:0:0:0:
256,128,58771,1,4,0:0:0:0:
320,128,59021,1,8,0:0:0:0:
320,128,59071,1,0,0:0:0:0:
384,128,59321,1,0,0:0:0:0:
384,128,59371,1,8,0:0:0:0:
256,128,59621,1,8,0:0:0:0:
256,128,59671,1,0,0:0:0:0:
256,128,59921,1,8,0:0:0:0:
256,128,59971,1,0,0:0:0:0:
320,128,60221,1,8,0:0:0:0:
256,128,60271,1,0,0:0:0:0:
256,128,60521,1,0,0:0:0:0:
256,128,60571,1,8,0:0:0:0:
256,128,60871,1,8,0:0:0:0:
192,128,60971,1,8,0:0:0:0:
256,128,61071,1,8,0:0:0:0:
256,128,61171,1,0,0:0:0:0:
288,128,61471,1,8,0:0:0:0:
256,64,61721,1,8,0:0:0:0:
288,128,61771,1,8,0:0:0:0:
288,128,62071,1,8,0:0:0:0:
288,128,62371,1,8,0:0:0:0:
256,96,62621,1,8,0:0:0:0:
288,128,62671,1,8,0:0:0:0:
288,128,62921,1,8,0:0:0:0:
288,128,62971,1,8,0:0:0:0:
288,128,63221,1,8,0:0:0:0:
288,128,63271,1,0,0:0:0:0:
288,128,63571,1,4,0:0:0:0:
256,96,63721,1,0,0:0:0:0:
256,96,63796,1,0,0:0:0:0:
224,128,63871,1,8,0:0:0:0:
256,96,64021,1,0,0:0:0:0:
320,64,64096,1,8,0:0:0:0:
320,64,64171,1,8,0:0:0:0:
128,96,64321,1,0,0:0:0:0:
288,128,64396,1,8,0:0:0:0:
288,128,64471,1,0,0:0:0:0:
192,96,64621,1,8,0:0:0:0:
256,96,64771,1,4,0:0:0:0:
160,128,64921,1,0,0:0:0:0:
256,128,64996,1,0,0:0:0:0:
256,128,65071,1,8,0:0:0:0:
224,128,65221,1,0,0:0:0:0:
256,128,65296,1,8,0:0:0:0:
256,128,65371,1,8,0:0:0:0:
192,96,65521,1,0,0:0:0:0:
256,128,65671,1,8,0:0:0:0:
192,96,65746,1,8,0:0:0:0:
192,96,65821,1,8,0:0:0:0:
192,96,65896,1,8,0:0:0:0:
256,128,65971,1,0,0:0:0:0:
192,96,66121,1,0,0:0:0:0:
192,96,66196,1,0,0:0:0:0:
256,128,66271,1,8,0:0:0:0:
192,96,66346,1,8,0:0:0:0:
192,96,66421,1,0,0:0:0:0:
256,128,66496,1,0,0:0:0:0:
256,128,66571,1,0,0:0:0:0:
192,32,66646,1,8,0:0:0:0:
224,96,66721,1,0,0:0:0:0:
384,96,66771,1,0,0:0:0:0:
448,64,66821,1,0,0:0:0:0:
256,128,66871,1,8,0:0:0:0:
224,96,66946,1,8,0:0:0:0:
224,96,67021,1,0,0:0:0:0:
224,96,67096,1,0,0:0:0:0:
256,128,67171,1,8,0:0:0:0:
256,128,67421,1,8,0:0:0:0:
256,128,67471,1,8,0:0:0:0:
256,128,67721,1,8,0:0:0:0:
256,128,67771,1,8,0:0:0:0:
256,128,68021,1,8,0:0:0:0:
256,128,68071,1,0,0:0:0:0:
256,128,68371,1,4,0:0:0:0:
256,192,68521,1,0,0:0:0:0:
256,192,68671,1,8,0:0:0:0:
256,192,68821,1,8,0:0:0:0:
192,128,68971,1,0,0:0:0:0:
192,128,69121,1,8,0:0:0:0:
224,96,69171,1,8,0:0:0:0:
224,96,69221,1,8,0:0:0:0:
224,96,69271,1,0,0:0:0:0:
224,96,69421,1,8,0:0:0:0:
192,96,69571,1,0,0:0:0:0:
256,160,69721,1,0,0:0:0:0:
256,160,69871,1,8,0:0:0:0:
256,160,70021,1,0,0:0:0:0:
256,160,70171,1,8,0:0:0:0:
256,160,70471,1,0,0:0:0:0:
256,160,70621,1,8,0:0:0:0:
256,160,70771,1,0,0:0:0:0:
224,96,70921,1,0,0:0:0:0:
224,96,71071,1,8,0:0:0:0:
224,96,71221,1,8,0:0:0:0:
224,96,71371,1,0,0:0:0:0:
288,96,71521,1,0,0:0:0:0:
288,96,71571,1,8,0:0:0:0:
288,96,71621,1,8,0:0:0:0:
288,96,71671,1,0,0:0:0:0:
288,96,71821,1,8,0:0:0:0:
288,96,71971,1,0,0:0:0:0:
224,128,72121,1,8,0:0:0:0:
224,128,72271,1,8,0:0:0:0:
224,128,72421,1,0,0:0:0:0:
224,128,72571,1,8,0:0:0:0:
224,128,72871,1,8,0:0:0:0:
224,128,73021,1,8,0:0:0:0:
224,128,73171,1,0,0:0:0:0:
224,128,73621,1,8,0:0:0:0:
224,128,73771,1,8,0:0:0:0:
224,128,73921,1,0,0:0:0:0:
224,128,74071,1,0,0:0:0:0:
224,128,74221,1,8,0:0:0:0:
224,128,74371,1,0,0:0:0:0:
224,128,74521,1,8,0:0:0:0:
224,128,74671,1,8,0:0:0:0:
224,128,74821,1,0,0:0:0:0:
224,128,74971,1,8,0:0:0:0:
224,128,75271,1,8,0:0:0:0:
224,128,75421,1,8,0:0:0:0:
224,128,75571,1,0,0:0:0:0:
224,128,75721,1,8,0:0:0:0:
224,128,75871,1,8,0:0:0:0:
224,128,76021,1,0,0:0:0:0:
224,128,76171,1,8,0:0:0:0:
224,128,76321,1,0,0:0:0:0:
320,64,76371,1,8,0:0:0:0:
320,64,76421,1,8,0:0:0:0:
224,128,76471,1,0,0:0:0:0:
224,128,76621,1,8,0:0:0:0:
224,128,76771,1,0,0:0:0:0:
224,128,76921,1,8,0:0:0:0:
224,128,77071,1,8,0:0:0:0:
224,128,77221,1,8,0:0:0:0:
224,128,77371,1,0,0:0:0:0:
224,128,77521,1,8,0:0:0:0:
224,128,77671,1,8,0:0:0:0:
224,128,77821,1,0,0:0:0:0:
224,128,77971,1,4,0:0:0:0:
224,128,78121,1,0,0:0:0:0:
224,128,78196,1,8,0:0:0:0:
224,128,78346,1,8,0:0:0:0:
224,128,78421,1,0,0:0:0:0:
224,64,78571,1,0,0:0:0:0:
224,64,78721,1,8,0:0:0:0:
224,64,78796,1,8,0:0:0:0:
224,64,78871,1,0,0:0:0:0:
224,64,78946,1,8,0:0:0:0:
192,32,79021,1,8,0:0:0:0:
224,64,79096,1,8,0:0:0:0:
224,64,79171,1,0,0:0:0:0:
224,64,79321,1,0,0:0:0:0:
224,64,79396,1,8,0:0:0:0:
224,64,79546,1,8,0:0:0:0:
224,64,79621,1,0,0:0:0:0:
224,64,79771,1,0,0:0:0:0:
224,64,79921,1,8,0:0:0:0:
224,64,79996,1,8,0:0:0:0:
160,96,80071,1,8,0:0:0:0:
192,64,80146,1,0,0:0:0:0:
224,32,80221,1,8,0:0:0:0:
224,64,80296,1,8,0:0:0:0:
224,64,80371,1,0,0:0:0:0:
192,64,80521,1,0,0:0:0:0:
192,64,80596,1,8,0:0:0:0:
192,64,80746,1,8,0:0:0:0:
192,64,80821,1,0,0:0:0:0:
192,64,80971,1,0,0:0:0:0:
288,64,81121,1,8,0:0:0:0:
288,64,81171,1,8,0:0:0:0:
288,64,81221,1,8,0:0:0:0:
288,64,81271,1,0,0:0:0:0:
288,64,81421,1,8,0:0:0:0:
288,64,81571,1,0,0:0:0:0:
288,96,81721,1,0,0:0:0:0:
288,96,81796,1,8,0:0:0:0:
288,96,81946,1,8,0:0:0:0:
288,96,82021,1,0,0:0:0:0:
288,96,82171,1,8,0:0:0:0:
288,96,82246,1,0,0:0:0:0:
288,96,82396,1,8,0:0:0:0:
288,96,82471,1,0,0:0:0:0:
288,96,82546,1,0,0:0:0:0:
288,96,82621,1,8,0:0:0:0:
288,96,82771,1,4,0:0:0:0:
256,160,82921,1,0,0:0:0:0:
256,160,82996,1,8,0:0:0:0:
256,160,83146,1,0,0:0:0:0:
256,160,83221,1,8,0:0:0:0:
256,160,83371,1,0,0:0:0:0:
256,160,83446,1,8,0:0:0:0:
256,160,83521,1,8,0:0:0:0:
256,160,83596,1,0,0:0:0:0:
256,160,83671,1,8,0:0:0:0:
256,160,83821,1,8,0:0:0:0:
256,160,83971,1,4,0:0:0:0:
224,96,84121,1,0,0:0:0:0:
224,96,84196,1,8,0:0:0:0:
224,96,84346,1,8,0:0:0:0:
224,96,84421,1,0,0:0:0:0:
224,96,84571,1,8,0:0:0:0:
224,96,84646,1,0,0:0:0:0:
224,96,84721,1,0,0:0:0:0:
224,96,84796,1,8,0:0:0:0:
224,96,84871,1,0,0:0:0:0:
224,96,84946,1,0,0:0:0:0:
224,96,85021,1,8,0:0:0:0:
224,96,85171,1,4,0:0:0:0:
256,160,85321,1,0,0:0:0:0:
256,160,85396,1,8,0:0:0:0:
256,160,85471,1,0,0:0:0:0:
256,160,85546,1,0,0:0:0:0:
256,160,85621,1,8,0:0:0:0:
256,160,85696,1,0,0:0:0:0:
352,64,85771,1,8,0:0:0:0:
320,96,85821,1,8,0:0:0:0:
320,96,85871,1,8,0:0:0:0:
320,96,85921,1,0,0:0:0:0:
256,160,85996,1,8,0:0:0:0:
256,160,86071,1,8,0:0:0:0:
256,160,86146,1,0,0:0:0:0:
256,160,86221,1,0,0:0:0:0:
256,160,86296,1,0,0:0:0:0:
256,160,86371,1,8,0:0:0:0:
256,160,87271,1,8,0:0:0:0:
256,160,87571,1,4,0:0:0:0:
256,192,87796,1,0,0:0:0:0:
256,192,87871,1,8,0:0:0:0:
256,192,88021,1,8,0:0:0:0:
256,128,88321,1,0,0:0:0:0:
256,192,88396,1,8,0:0:0:0:
256,192,88471,1,0,0:0:0:0:
256,192,88546,1,0,0:0:0:0:
256,192,88621,1,8,0:0:0:0:
256,128,88771,1,8,0:0:0:0:
256,128,88846,1,0,0:0:0:0:
256,128,88996,1,8,0:0:0:0:
256,128,89071,1,0,0:0:0:0:
256,192,89221,1,8,0:0:0:0:
256,128,89521,1,8,0:0:0:0:
256,128,89596,1,8,0:0:0:0:
256,128,89671,1,0,0:0:0:0:
256,128,89821,1,8,0:0:0:0:
256,128,89971,1,0,0:0:0:0:
224,160,90121,1,0,0:0:0:0:
224,160,90196,1,8,0:0:0:0:
224,160,90346,1,8,0:0:0:0:
224,160,90421,1,8,0:0:0:0:
224,160,90571,1,0,0:0:0:0:
256,128,90721,1,8,0:0:0:0:
256,128,90771,1,8,0:0:0:0:
256,128,90821,1,8,0:0:0:0:
256,128,90871,1,0,0:0:0:0:
256,128,91021,1,8,0:0:0:0:
256,128,91171,1,0,0:0:0:0:
256,160,91321,1,0,0:0:0:0:
256,160,91396,1,8,0:0:0:0:
256,160,91546,1,8,0:0:0:0:
256,160,91621,1,8,0:0:0:0:
256,160,91771,1,0,0:0:0:0:
256,160,91846,1,8,0:0:0:0:
256,160,91996,1,0,0:0:0:0:
256,160,92071,1,8,0:0:0:0:
224,128,92146,1,0,0:0:0:0:
256,160,92221,1,8,0:0:0:0:
256,160,92371,1,0,0:0:0:0:
256,160,92446,1,8,0:0:0:0:
224,96,92596,1,0,0:0:0:0:
224,96,92671,1,8,0:0:0:0:
224,96,92821,1,8,0:0:0:0:
352,96,93121,1,0,0:0:0:0:
352,96,93171,1,8,0:0:0:0:
352,96,93221,1,8,0:0:0:0:
352,96,93271,1,0,0:0:0:0:
352,96,93421,1,8,0:0:0:0:
288,96,93571,1,0,0:0:0:0:
224,128,93721,1,0,0:0:0:0:
224,128,93796,1,8,0:0:0:0:
224,128,93946,1,8,0:0:0:0:
224,128,94021,1,0,0:0:0:0:
224,128,94171,1,8,0:0:0:0:
224,96,94321,1,0,0:0:0:0:
224,96,94396,1,8,0:0:0:0:
224,96,94546,1,8,0:0:0:0:
224,96,94621,1,8,0:0:0:0:
224,96,94771,1,8,0:0:0:0:
224,64,94921,1,0,0:0:0:0:
224,96,94996,1,8,0:0:0:0:
192,64,95071,1,0,0:0:0:0:
224,96,95146,1,0,0:0:0:0:
224,96,95221,1,8,0:0:0:0:
224,96,95371,1,0,0:0:0:0:
224,128,95521,1,8,0:0:0:0:
224,128,95571,1,8,0:0:0:0:
224,128,95621,1,8,0:0:0:0:
224,128,95671,1,0,0:0:0:0:
224,128,95821,1,0,0:0:0:0:
224,128,95971,1,8,0:0:0:0:
224,160,96121,1,0,0:0:0:0:
224,160,96196,1,8,0:0:0:0:
224,160,96346,1,8,0:0:0:0:
224,160,96421,1,0,0:0:0:0:
224,160,96571,1,8,0:0:0:0:
192,96,96721,1,0,0:0:0:0:
192,96,96796,1,8,0:0:0:0:
192,96,96871,1,0,0:0:0:0:
192,96,97021,1,8,0:0:0:0:
192,96,97171,1,4,0:0:0:0:
256,192,97396,1,0,0:0:0:0:
256,192,97471,1,8,0:0:0:0:
256,192,97621,1,8,0:0:0:0:
256,128,97921,1,0,0:0:0:0:
256,192,97996,1,8,0:0:0:0:
256,192,98071,1,0,0:0:0:0:
256,192,98146,1,0,0:0:0:0:
256,192,98221,1,8,0:0:0:0:
256,128,98371,1,8,0:0:0:0:
256,128,98446,1,0,0:0:0:0:
256,128,98596,1,8,0:0:0:0:
256,128,98671,1,0,0:0:0:0:
256,192,98821,1,8,0:0:0:0:
256,128,99121,1,8,0:0:0:0:
256,128,99196,1,8,0:0:0:0:
256,128,99271,1,0,0:0:0:0:
256,128,99421,1,8,0:0:0:0:
256,128,99571,1,0,0:0:0:0:
224,160,99721,1,0,0:0:0:0:
224,160,99796,1,8,0:0:0:0:
224,160,99946,1,8,0:0:0:0:
224,160,100021,1,8,0:0:0:0:
224,160,100171,1,0,0:0:0:0:
256,128,100321,1,8,0:0:0:0:
256,128,100371,1,8,0:0:0:0:
256,128,100421,1,8,0:0:0:0:
256,128,100471,1,0,0:0:0:0:
256,128,100621,1,8,0:0:0:0:
256,128,100771,1,0,0:0:0:0:
256,160,100921,1,0,0:0:0:0:
256,160,100996,1,8,0:0:0:0:
256,160,101146,1,8,0:0:0:0:
256,160,101221,1,8,0:0:0:0:
256,160,101371,1,0,0:0:0:0:
256,160,101446,1,8,0:0:0:0:
256,160,101596,1,0,0:0:0:0:
256,160,101671,1,8,0:0:0:0:
224,128,101746,1,0,0:0:0:0:
256,160,101821,1,8,0:0:0:0:
256,160,101971,1,4,0:0:0:0:
224,96,102196,1,0,0:0:0:0:
224,96,102271,1,8,0:0:0:0:
224,96,102421,1,8,0:0:0:0:
256,128,102571,1,0,0:0:0:0:
352,96,102721,1,0,0:0:0:0:
352,96,102771,1,8,0:0:0:0:
352,96,102821,1,8,0:0:0:0:
352,96,102871,1,0,0:0:0:0:
352,96,103021,1,8,0:0:0:0:
288,96,103171,1,4,0:0:0:0:
224,128,103321,1,0,0:0:0:0:
224,128,103396,1,8,0:0:0:0:
224,128,103546,1,8,0:0:0:0:
224,128,103621,1,0,0:0:0:0:
224,128,103771,1,8,0:0:0:0:
224,96,103921,1,0,0:0:0:0:
224,96,103996,1,8,0:0:0:0:
224,96,104146,1,8,0:0:0:0:
224,96,104221,1,8,0:0:0:0:
224,96,104371,1,4,0:0:0:0:
224,64,104521,1,0,0:0:0:0:
224,96,104596,1,8,0:0:0:0:
192,64,104671,1,0,0:0:0:0:
224,96,104746,1,0,0:0:0:0:
224,96,104821,1,8,0:0:0:0:
160,96,104896,1,8,0:0:0:0:
224,96,104971,1,0,0:0:0:0:
160,96,105046,1,8,0:0:0:0:
224,128,105121,1,8,0:0:0:0:
224,128,105171,1,8,0:0:0:0:
224,128,105221,1,8,0:0:0:0:
224,128,105271,1,0,0:0:0:0:
160,96,105346,1,8,0:0:0:0:
224,128,105421,1,0,0:0:0:0:
160,96,105496,1,0,0:0:0:0:
224,128,105571,1,8,0:0:0:0:
256,96,105721,1,8,0:0:0:0:
256,96,105871,1,8,0:0:0:0:
256,96,106021,1,0,0:0:0:0:
256,96,106171,1,8,0:0:0:0:
256,96,106771,1,4,0:0:0:0:
256,192,106996,1,0,0:0:0:0:
256,192,107071,1,8,0:0:0:0:
256,192,107221,1,8,0:0:0:0:
192,128,107371,1,0,0:0:0:0:
256,128,107521,1,0,0:0:0:0:
256,192,107596,1,8,0:0:0:0:
256,192,107671,1,0,0:0:0:0:
256,192,107746,1,0,0:0:0:0:
256,192,107821,1,8,0:0:0:0:
256,128,107971,1,8,0:0:0:0:
256,128,108046,1,0,0:0:0:0:
256,128,108196,1,8,0:0:0:0:
256,128,108271,1,0,0:0:0:0:
256,192,108421,1,8,0:0:0:0:
192,128,108571,1,0,0:0:0:0:
256,128,108721,1,8,0:0:0:0:
256,128,108796,1,8,0:0:0:0:
256,128,108871,1,0,0:0:0:0:
256,128,109021,1,8,0:0:0:0:
256,128,109171,1,0,0:0:0:0:
224,160,109321,1,0,0:0:0:0:
224,160,109396,1,8,0:0:0:0:
224,160,109546,1,8,0:0:0:0:
224,160,109621,1,8,0:0:0:0:
224,160,109771,1,0,0:0:0:0:
256,128,109921,1,8,0:0:0:0:
256,128,109971,1,8,0:0:0:0:
256,128,110021,1,8,0:0:0:0:
256,128,110071,1,0,0:0:0:0:
256,128,110221,1,8,0:0:0:0:
256,128,110371,1,0,0:0:0:0:
256,160,110521,1,0,0:0:0:0:
256,160,110596,1,8,0:0:0:0:
256,160,110746,1,8,0:0:0:0:
256,160,110821,1,8,0:0:0:0:
256,160,110971,1,0,0:0:0:0:
256,160,111046,1,8,0:0:0:0:
256,160,111196,1,0,0:0:0:0:
256,160,111271,1,8,0:0:0:0:
224,128,111346,1,0,0:0:0:0:
256,160,111421,1,8,0:0:0:0:
256,160,111571,1,0,0:0:0:0:
256,160,111646,1,8,0:0:0:0:
224,96,111796,1,0,0:0:0:0:
224,96,111871,1,8,0:0:0:0:
224,96,112021,1,8,0:0:0:0:
192,128,112171,1,0,0:0:0:0:
352,96,112321,1,0,0:0:0:0:
352,96,112371,1,8,0:0:0:0:
352,96,112421,1,8,0:0:0:0:
352,96,112471,1,0,0:0:0:0:
352,96,112621,1,8,0:0:0:0:
288,96,112771,1,0,0:0:0:0:
224,128,112921,1,0,0:0:0:0:
224,128,112996,1,8,0:0:0:0:
224,128,113146,1,8,0:0:0:0:
224,128,113221,1,0,0:0:0:0:
224,128,113371,1,8,0:0:0:0:
224,96,113521,1,0,0:0:0:0:
224,96,113596,1,8,0:0:0:0:
224,96,113746,1,8,0:0:0:0:
224,96,113821,1,8,0:0:0:0:
224,96,113971,1,8,0:0:0:0:
224,64,114121,1,0,0:0:0:0:
224,96,114196,1,8,0:0:0:0:
192,64,114271,1,0,0:0:0:0:
224,96,114346,1,0,0:0:0:0:
224,96,114421,1,8,0:0:0:0:
224,96,114571,1,0,0:0:0:0:
224,128,114721,1,8,0:0:0:0:
224,128,114771,1,8,0:0:0:0:
224,128,114821,1,8,0:0:0:0:
224,128,114871,1,0,0:0:0:0:
224,128,115021,1,0,0:0:0:0:
224,128,115171,1,8,0:0:0:0:
224,160,115321,1,0,0:0:0:0:
224,160,115396,1,8,0:0:0:0:
224,160,115546,1,8,0:0:0:0:
224,160,115621,1,0,0:0:0:0:
224,160,115771,1,8,0:0:0:0:
192,96,115921,1,0,0:0:0:0:
192,96,115996,1,8,0:0:0:0:
192,96,116071,1,0,0:0:0:0:
192,96,116221,1,8,0:0:0:0:
192,96,116371,1,4,0:0:0:0:
256,192,116596,1,0,0:0:0:0:
256,192,116671,1,8,0:0:0:0:
256,192,116821,1,8,0:0:0:0:
192,128,116971,1,8,0:0:0:0:
192,128,117046,1,8,0:0:0:0:
256,128,117121,1,0,0:0:0:0:
256,192,117196,1,8,0:0:0:0:
256,192,117271,1,0,0:0:0:0:
192,32,117346,1,0,0:0:0:0:
256,192,117421,1,8,0:0:0:0:
256,128,117571,1,8,0:0:0:0:
256,128,117646,1,0,0:0:0:0:
256,128,117796,1,8,0:0:0:0:
256,128,117871,1,0,0:0:0:0:
256,192,118021,1,8,0:0:0:0:
192,128,118171,1,0,0:0:0:0:
192,128,118246,1,8,0:0:0:0:
256,128,118321,1,8,0:0:0:0:
256,128,118396,1,8,0:0:0:0:
256,128,118471,1,0,0:0:0:0:
256,128,118621,1,8,0:0:0:0:
256,128,118771,1,0,0:0:0:0:
224,160,118921,1,0,0:0:0:0:
224,160,118996,1,8,0:0:0:0:
224,160,119146,1,8,0:0:0:0:
224,160,119221,1,8,0:0:0:0:
224,160,119371,1,0,0:0:0:0:
256,128,119521,1,8,0:0:0:0:
256,128,119571,1,8,0:0:0:0:
256,128,119621,1,8,0:0:0:0:
256,128,119671,1,0,0:0:0:0:
256,128,119821,1,8,0:0:0:0:
256,128,119971,1,0,0:0:0:0:
256,160,120121,1,0,0:0:0:0:
256,160,120196,1,8,0:0:0:0:
256,160,120346,1,8,0:0:0:0:
256,160,120421,1,8,0:0:0:0:
256,160,120571,1,0,0:0:0:0:
256,160,120646,1,8,0:0:0:0:
256,160,120796,1,0,0:0:0:0:
256,160,120871,1,8,0:0:0:0:
224,128,120946,1,0,0:0:0:0:
256,160,121021,1,8,0:0:0:0:
256,160,121171,1,4,0:0:0:0:
192,128,121321,1,0,0:0:0:0:
224,96,121396,1,0,0:0:0:0:
224,96,121471,1,8,0:0:0:0:
192,64,121546,1,0,0:0:0:0:
224,96,121621,1,8,0:0:0:0:
256,128,121771,1,0,0:0:0:0:
352,96,121921,1,0,0:0:0:0:
352,96,121971,1,8,0:0:0:0:
352,96,122021,1,8,0:0:0:0:
352,96,122071,1,0,0:0:0:0:
352,96,122221,1,8,0:0:0:0:
288,96,122371,1,4,0:0:0:0:
224,128,122521,1,0,0:0:0:0:
224,128,122596,1,8,0:0:0:0:
192,128,122671,1,8,0:0:0:0:
224,128,122746,1,0,0:0:0:0:
224,128,122821,1,8,0:0:0:0:
224,128,122971,1,8,0:0:0:0:
192,128,123046,1,0,0:0:0:0:
224,96,123121,1,0,0:0:0:0:
224,96,123196,1,8,0:0:0:0:
192,96,123271,1,0,0:0:0:0:
224,96,123346,1,8,0:0:0:0:
224,96,123421,1,8,0:0:0:0:
224,96,123571,1,4,0:0:0:0:
224,64,123721,1,0,0:0:0:0:
224,96,123796,1,8,0:0:0:0:
192,64,123871,1,0,0:0:0:0:
224,96,123946,1,0,0:0:0:0:
224,96,124021,1,8,0:0:0:0:
160,96,124096,1,8,0:0:0:0:
224,96,124171,1,0,0:0:0:0:
160,96,124246,1,8,0:0:0:0:
224,128,124321,1,8,0:0:0:0:
224,128,124371,1,8,0:0:0:0:
224,128,124421,1,8,0:0:0:0:
224,128,124471,1,0,0:0:0:0:
160,96,124546,1,8,0:0:0:0:
224,128,124621,1,0,0:0:0:0:
160,96,124696,1,0,0:0:0:0:
224,128,124771,1,8,0:0:0:0:
256,96,124921,1,8,0:0:0:0:
256,96,125071,1,8,0:0:0:0:
256,96,125221,1,0,0:0:0:0:
256,96,125371,1,8,0:0:0:0:
256,96,125971,1,4,0:0:0:0:
