osu file format v14

[General]
AudioFilename: audio.mp3
AudioLeadIn: 0
PreviewTime: 10752
Countdown: 0
SampleSet: Soft
StackLeniency: 0.7
Mode: 3
LetterboxInBreaks: 0
SpecialStyle: 0
WidescreenStoryboard: 1

[Editor]
DistanceSpacing: 0.8
BeatDivisor: 4
GridSize: 8
TimelineZoom: 1.8

[Metadata]
Title:Nadeshiko Sensation
TitleUnicode:Nadeshiko Sensation
Artist:yuki.
ArtistUnicode:yuki.
Creator:Multiple Creators
Version:7K Hard
Source:
Tags:
BeatmapID:1243818
BeatmapSetID:587388

[Difficulty]
HPDrainRate:7.5
CircleSize:7
OverallDifficulty:8
ApproachRate:5
SliderMultiplier:1.4
SliderTickRate:1

[Events]
//Background and Video events
0,0,"Nadeshiko Sensation B.jpg",0,0
//Break Periods
//Storyboard Layer 0 (Background)
//Storyboard Layer 1 (Fail)
//Storyboard Layer 2 (Pass)
//Storyboard Layer 3 (Foreground)
//Storyboard Sound Samples

[TimingPoints]
1171,300,4,2,1,70,1,0
10771,-100,4,2,1,70,0,1
20071,-100,4,2,1,70,0,0
20371,-100,4,2,1,70,0,1
29971,-100,4,2,1,70,0,0
87571,-100,4,2,1,70,0,1
96871,-100,4,2,1,70,0,0
97171,-100,4,2,1,70,0,1
105571,-100,4,2,1,70,0,0
106771,-100,4,2,1,70,0,1
116071,-100,4,2,1,70,0,0
116371,-100,4,2,1,70,0,1
125971,-100,4,2,1,70,0,0

[HitObjects]
182,192,885,5,0,0:0:0:0:
109,192,1035,1,0,0:0:0:0:
329,192,1171,1,2,0:0:0:0:
36,192,1171,128,4,2371:0:0:0:0:
475,192,1171,1,0,0:0:0:0:
182,192,1321,1,0,0:0:0:0:
329,192,1471,1,0,0:0:0:0:
182,192,1621,1,0,0:0:0:0:
475,192,1771,1,0,0:0:0:0:
402,192,1921,1,0,0:0:0:0:
329,192,2071,1,0,0:0:0:0:
402,192,2221,1,0,0:0:0:0:
182,192,2371,128,0,3571:0:0:0:0:
475,192,2371,1,0,0:0:0:0:
329,192,2521,1,0,0:0:0:0:
475,192,2671,1,0,0:0:0:0:
329,192,2821,1,0,0:0:0:0:
475,192,2971,128,0,3271:0:0:0:0:
329,192,3271,1,0,0:0:0:0:
36,192,3421,1,0,0:0:0:0:
329,192,3571,128,0,4771:0:0:0:0:
475,192,3571,1,0,0:0:0:0:
182,192,3721,1,0,0:0:0:0:
109,192,3871,1,0,0:0:0:0:
36,192,4021,1,0,0:0:0:0:
109,192,4171,1,0,0:0:0:0:
182,192,4321,128,0,4471:0:0:0:0:
36,192,4471,1,0,0:0:0:0:
182,192,4621,1,0,0:0:0:0:
475,192,4771,128,0,5971:0:0:0:0:
36,192,4771,1,0,0:0:0:0:
109,192,4921,1,0,0:0:0:0:
182,192,5071,1,0,0:0:0:0:
256,192,5221,1,0,0:0:0:0:
329,192,5371,128,0,5671:0:0:0:0:
402,192,5671,1,0,0:0:0:0:
329,192,5821,1,0,0:0:0:0:
36,192,5971,1,4,0:0:0:0:
256,192,5971,1,2,0:0:0:0:
36,192,6271,1,2,0:0:0:0:
475,192,6421,1,0,0:0:0:0:
36,192,6571,1,2,0:0:0:0:
402,192,6721,1,0,0:0:0:0:
36,192,6871,1,2,0:0:0:0:
329,192,7021,1,0,0:0:0:0:
475,192,7171,1,4,0:0:0:0:
36,192,7171,1,2,0:0:0:0:
256,192,7321,1,0,0:0:0:0:
475,192,7471,1,2,0:0:0:0:
182,192,7621,1,0,0:0:0:0:
475,192,7771,1,2,0:0:0:0:
36,192,7771,128,0,8071:0:0:0:0:
475,192,8071,1,2,0:0:0:0:
402,192,8221,1,0,0:0:0:0:
329,192,8371,1,4,0:0:0:0:
36,192,8371,1,2,0:0:0:0:
109,192,8521,1,2,0:0:0:0:
182,192,8671,1,2,0:0:0:0:
256,192,8821,1,2,0:0:0:0:
329,192,8971,1,6,0:0:0:0:
475,192,9046,1,2,0:0:0:0:
182,192,9121,1,2,0:0:0:0:
36,192,9196,1,2,0:0:0:0:
329,192,9271,1,2,0:0:0:0:
475,192,9346,1,2,0:0:0:0:
182,192,9421,1,2,0:0:0:0:
36,192,9496,1,2,0:0:0:0:
475,192,9571,128,4,9721:0:0:0:0:
329,192,9571,1,2,0:0:0:0:
36,192,9721,128,0,9871:0:0:0:0:
402,192,9871,128,0,10021:0:0:0:0:
109,192,10021,128,0,10171:0:0:0:0:
329,192,10171,128,0,10621:0:0:0:0:
182,192,10471,128,10,10621:3:0:0:0:
256,192,10771,1,4,0:0:0:0:
36,192,10771,1,2,0:0:0:0:
475,192,10771,1,0,0:0:0:0:
109,192,10921,1,0,0:0:0:0:
182,192,11071,1,2,0:0:0:0:
402,192,11071,1,0,0:0:0:0:
329,192,11221,1,0,0:0:0:0:
256,192,11371,1,2,0:0:0:0:
36,192,11371,1,0,0:0:0:0:
475,192,11521,1,0,0:0:0:0:
402,192,11671,1,2,0:0:0:0:
109,192,11671,1,0,0:0:0:0:
329,192,11821,1,0,0:0:0:0:
182,192,11971,1,2,0:0:0:0:
475,192,11971,1,0,0:0:0:0:
256,192,12121,1,0,0:0:0:0:
329,192,12271,1,2,0:0:0:0:
36,192,12271,1,0,0:0:0:0:
109,192,12421,1,0,0:0:0:0:
182,192,12571,128,2,12871:0:0:0:0:
475,192,12571,1,0,0:0:0:0:
402,192,12721,1,0,0:0:0:0:
329,192,12871,1,2,0:0:0:0:
36,192,12871,1,0,0:0:0:0:
402,192,13021,1,0,0:0:0:0:
475,192,13171,1,2,0:0:0:0:
182,192,13171,1,0,0:0:0:0:
256,192,13321,1,0,0:0:0:0:
329,192,13471,1,2,0:0:0:0:
36,192,13471,1,0,0:0:0:0:
182,192,13621,1,0,0:0:0:0:
475,192,13771,1,2,0:0:0:0:
329,192,13771,1,0,0:0:0:0:
182,192,13921,1,0,0:0:0:0:
109,192,14071,1,2,0:0:0:0:
402,192,14071,1,0,0:0:0:0:
36,192,14221,1,0,0:0:0:0:
256,192,14371,1,2,0:0:0:0:
475,192,14371,1,0,0:0:0:0:
182,192,14521,1,0,0:0:0:0:
109,192,14671,1,2,0:0:0:0:
329,192,14821,1,0,0:0:0:0:
402,192,14971,1,2,0:0:0:0:
36,192,14971,128,0,15421:0:0:0:0:
475,192,15121,1,0,0:0:0:0:
109,192,15271,1,2,0:0:0:0:
329,192,15271,1,0,0:0:0:0:
182,192,15421,1,0,0:0:0:0:
256,192,15571,128,2,15871:0:0:0:0:
475,192,15571,1,0,0:0:0:0:
402,192,15721,1,0,0:0:0:0:
329,192,15871,1,2,0:0:0:0:
36,192,15871,1,0,0:0:0:0:
256,192,16021,128,0,16321:0:0:0:0:
109,192,16021,1,0,0:0:0:0:
182,192,16171,1,2,0:0:0:0:
402,192,16171,1,0,0:0:0:0:
329,192,16321,1,0,0:0:0:0:
256,192,16471,1,2,0:0:0:0:
36,192,16471,1,0,0:0:0:0:
109,192,16621,1,0,0:0:0:0:
182,192,16771,1,2,0:0:0:0:
475,192,16771,1,0,0:0:0:0:
402,192,16921,1,0,0:0:0:0:
329,192,17071,1,2,0:0:0:0:
36,192,17071,1,0,0:0:0:0:
256,192,17221,1,0,0:0:0:0:
182,192,17371,128,2,17671:0:0:0:0:
475,192,17371,1,0,0:0:0:0:
329,192,17521,1,0,0:0:0:0:
36,192,17671,1,2,0:0:0:0:
475,192,17671,128,0,17971:0:0:0:0:
329,192,17821,128,0,17971:0:0:0:0:
182,192,17971,1,2,0:0:0:0:
36,192,17971,128,0,18121:0:0:0:0:
329,192,18121,128,0,18271:0:0:0:0:
109,192,18271,128,2,18421:0:0:0:0:
256,192,18271,1,0,0:0:0:0:
402,192,18421,128,0,18571:0:0:0:0:
182,192,18571,128,2,18721:0:0:0:0:
329,192,18571,1,0,0:0:0:0:
475,192,18721,128,0,18871:0:0:0:0:
109,192,18871,128,2,19021:0:0:0:0:
256,192,18871,1,0,0:0:0:0:
402,192,19021,128,0,19171:0:0:0:0:
182,192,19171,1,2,0:0:0:0:
36,192,19171,128,0,19321:0:0:0:0:
329,192,19321,128,0,19471:0:0:0:0:
36,192,19471,128,2,19621:0:0:0:0:
182,192,19471,1,0,0:0:0:0:
329,192,19621,128,0,19771:0:0:0:0:
182,192,19771,128,2,19921:0:0:0:0:
36,192,19771,1,0,0:0:0:0:
475,192,19921,128,2,20071:3:0:0:0:
182,192,20071,128,2,20221:0:0:0:0:
36,192,20071,1,2,3:0:0:0:
475,192,20221,128,0,20371:0:0:0:0:
182,192,20371,1,4,0:0:0:0:
36,192,20371,1,2,0:0:0:0:
329,192,20371,1,0,0:0:0:0:
402,192,20521,1,0,0:0:0:0:
475,192,20671,1,2,0:0:0:0:
36,192,20671,1,0,0:0:0:0:
109,192,20821,1,0,0:0:0:0:
182,192,20971,1,2,0:0:0:0:
402,192,20971,1,0,0:0:0:0:
329,192,21121,1,0,0:0:0:0:
256,192,21271,1,2,0:0:0:0:
36,192,21271,1,0,0:0:0:0:
329,192,21421,1,0,0:0:0:0:
402,192,21571,1,2,0:0:0:0:
182,192,21571,1,0,0:0:0:0:
109,192,21721,1,0,0:0:0:0:
36,192,21871,1,2,0:0:0:0:
329,192,21871,1,0,0:0:0:0:
256,192,22021,1,0,0:0:0:0:
475,192,22171,1,2,0:0:0:0:
182,192,22171,128,0,22471:0:0:0:0:
402,192,22321,1,0,0:0:0:0:
329,192,22471,1,2,0:0:0:0:
36,192,22471,1,0,0:0:0:0:
402,192,22621,1,0,0:0:0:0:
475,192,22771,1,2,0:0:0:0:
182,192,22771,1,0,0:0:0:0:
256,192,22921,1,0,0:0:0:0:
329,192,23071,1,2,0:0:0:0:
36,192,23071,1,0,0:0:0:0:
109,192,23221,1,0,0:0:0:0:
182,192,23371,1,2,0:0:0:0:
475,192,23371,1,0,0:0:0:0:
329,192,23521,1,0,0:0:0:0:
256,192,23671,1,2,0:0:0:0:
36,192,23671,1,0,0:0:0:0:
182,192,23821,1,0,0:0:0:0:
329,192,23971,1,2,0:0:0:0:
109,192,23971,1,0,0:0:0:0:
402,192,24121,1,0,0:0:0:0:
475,192,24271,1,2,0:0:0:0:
182,192,24271,1,0,0:0:0:0:
109,192,24421,1,0,0:0:0:0:
329,192,24571,1,2,0:0:0:0:
36,192,24571,128,0,25021:0:0:0:0:
256,192,24721,1,0,0:0:0:0:
182,192,24871,1,2,0:0:0:0:
475,192,24871,1,0,0:0:0:0:
256,192,25021,1,0,0:0:0:0:
475,192,25171,1,2,0:0:0:0:
36,192,25171,1,4,0:0:0:0:
329,192,25171,1,0,0:0:0:0:
109,192,25321,1,2,0:0:0:0:
182,192,25471,1,2,0:0:0:0:
402,192,25471,1,0,0:0:0:0:
475,192,25471,1,0,0:0:0:0:
256,192,25621,1,2,0:0:0:0:
329,192,25771,1,2,0:0:0:0:
475,192,25771,1,0,0:0:0:0:
36,192,25771,1,0,0:0:0:0:
109,192,25921,1,2,0:0:0:0:
182,192,26071,1,2,0:0:0:0:
402,192,26071,1,0,0:0:0:0:
475,192,26071,1,0,0:0:0:0:
256,192,26221,1,2,0:0:0:0:
329,192,26371,1,2,0:0:0:0:
36,192,26371,1,4,0:0:0:0:
475,192,26371,1,0,0:0:0:0:
256,192,26521,1,2,0:0:0:0:
182,192,26671,1,2,0:0:0:0:
402,192,26671,1,0,0:0:0:0:
475,192,26671,1,0,0:0:0:0:
109,192,26821,1,2,0:0:0:0:
36,192,26971,1,2,0:0:0:0:
329,192,26971,1,0,0:0:0:0:
475,192,26971,1,0,0:0:0:0:
256,192,27121,1,2,0:0:0:0:
402,192,27271,1,2,0:0:0:0:
475,192,27271,1,0,0:0:0:0:
182,192,27271,1,0,0:0:0:0:
109,192,27421,1,2,0:0:0:0:
329,192,27571,1,2,0:0:0:0:
475,192,27571,1,4,0:0:0:0:
36,192,27571,1,0,0:0:0:0:
109,192,27646,1,2,0:0:0:0:
182,192,27721,1,2,0:0:0:0:
256,192,27796,1,2,0:0:0:0:
402,192,27871,1,2,0:0:0:0:
329,192,27946,1,2,0:0:0:0:
256,192,28021,1,2,0:0:0:0:
182,192,28096,1,2,0:0:0:0:
36,192,28171,1,4,0:0:0:0:
329,192,28171,1,2,0:0:0:0:
475,192,28171,1,0,0:0:0:0:
109,192,28246,1,2,0:0:0:0:
182,192,28321,1,2,0:0:0:0:
256,192,28396,1,2,0:0:0:0:
475,192,28471,1,2,0:0:0:0:
402,192,28546,1,2,0:0:0:0:
329,192,28621,1,2,0:0:0:0:
256,192,28696,1,2,0:0:0:0:
182,192,28771,1,2,0:0:0:0:
36,192,28771,1,4,0:0:0:0:
475,192,28771,1,0,0:0:0:0:
109,192,28921,1,4,0:0:0:0:
256,192,28921,1,2,0:0:0:0:
182,192,29071,1,4,0:0:0:0:
329,192,29071,1,2,0:0:0:0:
256,192,29221,1,4,0:0:0:0:
402,192,29221,1,2,0:0:0:0:
475,192,29371,128,2,29896:0:0:0:0:
329,192,29371,128,4,29896:0:0:0:0:
36,192,29521,1,2,3:0:0:0:
36,192,29671,1,2,3:0:0:0:
475,192,29971,1,4,0:0:0:0:
36,192,29971,1,2,0:0:0:0:
329,192,29971,1,0,0:0:0:0:
256,192,30121,1,0,0:0:0:0:
182,192,30271,1,8,0:0:0:0:
402,192,30271,1,2,0:0:0:0:
109,192,30421,1,0,0:0:0:0:
36,192,30571,1,2,0:0:0:0:
475,192,30571,1,0,0:0:0:0:
182,192,30721,1,0,0:0:0:0:
256,192,30871,1,8,0:0:0:0:
402,192,30871,1,2,0:0:0:0:
329,192,31021,1,0,0:0:0:0:
475,192,31171,1,2,0:0:0:0:
36,192,31171,1,0,0:0:0:0:
256,192,31321,1,0,0:0:0:0:
182,192,31471,1,2,0:0:0:0:
402,192,31471,1,8,0:0:0:0:
109,192,31621,1,0,0:0:0:0:
36,192,31771,1,2,0:0:0:0:
475,192,31771,1,0,0:0:0:0:
182,192,31921,1,0,0:0:0:0:
256,192,32071,1,2,0:0:0:0:
402,192,32071,1,8,0:0:0:0:
329,192,32221,1,0,0:0:0:0:
475,192,32371,1,2,0:0:0:0:
36,192,32371,1,0,0:0:0:0:
256,192,32521,1,0,0:0:0:0:
182,192,32671,1,8,0:0:0:0:
402,192,32671,1,2,0:0:0:0:
109,192,32821,1,0,0:0:0:0:
36,192,32971,1,2,0:0:0:0:
475,192,32971,1,0,0:0:0:0:
182,192,33121,1,0,0:0:0:0:
256,192,33271,1,8,0:0:0:0:
402,192,33271,1,2,0:0:0:0:
329,192,33421,1,0,0:0:0:0:
475,192,33571,1,2,0:0:0:0:
36,192,33571,1,0,0:0:0:0:
109,192,33721,1,0,0:0:0:0:
182,192,33871,1,2,0:0:0:0:
402,192,33871,1,8,0:0:0:0:
256,192,34021,1,0,0:0:0:0:
475,192,34171,1,2,0:0:0:0:
109,192,34171,1,0,0:0:0:0:
182,192,34321,1,0,0:0:0:0:
109,192,34396,1,0,0:0:0:0:
36,192,34471,1,0,0:0:0:0:
402,192,34471,1,2,0:0:0:0:
256,192,34471,1,8,0:0:0:0:
329,192,34621,128,0,34771:0:0:0:0:
475,192,34771,1,2,0:0:0:0:
36,192,34771,1,0,0:0:0:0:
256,192,34921,1,0,0:0:0:0:
182,192,35071,1,8,0:0:0:0:
402,192,35071,1,2,0:0:0:0:
109,192,35221,1,0,0:0:0:0:
36,192,35371,1,2,0:0:0:0:
475,192,35371,1,0,0:0:0:0:
182,192,35521,1,0,0:0:0:0:
256,192,35671,1,8,0:0:0:0:
402,192,35671,1,2,0:0:0:0:
329,192,35821,1,0,0:0:0:0:
475,192,35971,1,2,0:0:0:0:
36,192,35971,1,0,0:0:0:0:
256,192,36121,1,0,0:0:0:0:
182,192,36271,1,2,0:0:0:0:
402,192,36271,1,8,0:0:0:0:
109,192,36421,1,0,0:0:0:0:
36,192,36571,1,2,0:0:0:0:
475,192,36571,1,0,0:0:0:0:
182,192,36721,1,0,0:0:0:0:
256,192,36871,1,2,0:0:0:0:
402,192,36871,1,8,0:0:0:0:
329,192,37021,1,0,0:0:0:0:
475,192,37171,1,2,0:0:0:0:
36,192,37171,1,0,0:0:0:0:
256,192,37321,1,0,0:0:0:0:
182,192,37471,1,8,0:0:0:0:
402,192,37471,1,2,0:0:0:0:
109,192,37621,1,0,0:0:0:0:
36,192,37771,1,2,0:0:0:0:
475,192,37771,1,0,0:0:0:0:
182,192,37921,1,0,0:0:0:0:
256,192,38071,1,8,0:0:0:0:
402,192,38071,1,2,0:0:0:0:
329,192,38221,1,0,0:0:0:0:
475,192,38371,1,2,0:0:0:0:
36,192,38371,1,0,0:0:0:0:
109,192,38521,1,0,0:0:0:0:
402,192,38671,1,2,0:0:0:0:
182,192,38671,1,8,0:0:0:0:
256,192,38821,1,0,0:0:0:0:
475,192,38971,1,2,0:0:0:0:
109,192,38971,1,0,0:0:0:0:
182,192,39121,1,0,0:0:0:0:
109,192,39196,1,0,0:0:0:0:
36,192,39271,1,0,0:0:0:0:
402,192,39271,1,2,0:0:0:0:
256,192,39271,1,8,0:0:0:0:
329,192,39421,128,0,39571:0:0:0:0:
36,192,39571,1,4,0:0:0:0:
182,192,39571,1,2,0:0:0:0:
475,192,39571,128,0,40621:0:0:0:0:
402,192,39721,1,0,0:0:0:0:
109,192,39871,1,2,0:0:0:0:
329,192,39871,1,0,0:0:0:0:
256,192,40021,1,0,0:0:0:0:
36,192,40171,1,2,0:0:0:0:
182,192,40171,1,0,0:0:0:0:
402,192,40321,1,0,0:0:0:0:
329,192,40471,1,2,0:0:0:0:
109,192,40471,1,0,0:0:0:0:
256,192,40621,1,0,0:0:0:0:
36,192,40771,1,2,0:0:0:0:
182,192,40771,128,0,41821:0:0:0:0:
402,192,40771,1,0,0:0:0:0:
329,192,40921,1,0,0:0:0:0:
109,192,41071,1,2,0:0:0:0:
256,192,41071,1,0,0:0:0:0:
475,192,41221,1,0,0:0:0:0:
36,192,41371,1,2,0:0:0:0:
402,192,41371,1,0,0:0:0:0:
329,192,41521,1,0,0:0:0:0:
109,192,41671,1,2,0:0:0:0:
402,192,41671,1,0,0:0:0:0:
475,192,41821,1,0,0:0:0:0:
36,192,41971,1,2,0:0:0:0:
329,192,41971,128,0,42571:0:0:0:0:
182,192,41971,1,0,0:0:0:0:
475,192,42121,1,0,0:0:0:0:
109,192,42271,1,2,0:0:0:0:
36,192,42271,1,0,0:0:0:0:
475,192,42421,1,0,0:0:0:0:
36,192,42571,1,2,0:0:0:0:
256,192,42571,128,0,43171:0:0:0:0:
182,192,42571,1,0,0:0:0:0:
402,192,42721,1,0,0:0:0:0:
109,192,42871,1,2,0:0:0:0:
36,192,42871,1,0,0:0:0:0:
329,192,43021,1,0,0:0:0:0:
36,192,43171,1,2,0:0:0:0:
475,192,43171,1,0,0:0:0:0:
182,192,43171,128,0,43771:0:0:0:0:
329,192,43321,1,0,0:0:0:0:
109,192,43471,1,2,0:0:0:0:
36,192,43471,1,0,0:0:0:0:
329,192,43621,1,0,0:0:0:0:
36,192,43771,1,2,0:0:0:0:
475,192,43771,128,0,44371:0:0:0:0:
256,192,43921,1,0,0:0:0:0:
109,192,44071,1,2,0:0:0:0:
329,192,44071,128,0,44371:0:0:0:0:
36,192,44071,1,0,0:0:0:0:
182,192,44221,1,0,0:0:0:0:
36,192,44371,1,2,0:0:0:0:
256,192,44371,1,4,0:0:0:0:
402,192,44371,128,0,45421:0:0:0:0:
109,192,44521,1,2,0:0:0:0:
182,192,44671,1,2,0:0:0:0:
329,192,44671,1,0,0:0:0:0:
109,192,44821,1,2,0:0:0:0:
36,192,44971,1,2,0:0:0:0:
256,192,44971,1,0,0:0:0:0:
182,192,45121,1,2,0:0:0:0:
109,192,45271,1,2,0:0:0:0:
329,192,45271,1,0,0:0:0:0:
256,192,45421,1,2,0:0:0:0:
109,192,45571,128,4,46621:0:0:0:0:
36,192,45571,1,2,0:0:0:0:
182,192,45571,1,0,0:0:0:0:
475,192,45571,1,0,0:0:0:0:
402,192,45721,1,2,0:0:0:0:
329,192,45871,1,2,0:0:0:0:
182,192,45871,1,0,0:0:0:0:
402,192,46021,1,2,0:0:0:0:
475,192,46171,1,2,0:0:0:0:
256,192,46171,1,0,0:0:0:0:
329,192,46321,1,2,0:0:0:0:
402,192,46471,1,2,0:0:0:0:
182,192,46471,1,0,0:0:0:0:
329,192,46621,1,2,0:0:0:0:
36,192,46771,1,2,0:0:0:0:
475,192,46771,1,4,0:0:0:0:
256,192,46771,1,0,0:0:0:0:
109,192,46846,1,2,0:0:0:0:
182,192,46921,1,2,0:0:0:0:
475,192,46996,1,2,0:0:0:0:
402,192,47071,1,2,0:0:0:0:
329,192,47146,1,2,0:0:0:0:
36,192,47221,1,2,0:0:0:0:
109,192,47296,1,2,0:0:0:0:
182,192,47371,1,4,0:0:0:0:
475,192,47371,1,2,0:0:0:0:
402,192,47446,1,2,0:0:0:0:
329,192,47521,1,2,0:0:0:0:
36,192,47596,1,2,0:0:0:0:
109,192,47671,1,2,0:0:0:0:
182,192,47746,1,2,0:0:0:0:
475,192,47821,1,2,0:0:0:0:
402,192,47896,1,2,0:0:0:0:
36,192,47971,128,2,49171:0:0:0:0:
329,192,47971,128,4,49171:0:0:0:0:
475,192,49171,128,4,49471:0:0:0:0:
182,192,49171,1,2,0:0:0:0:
329,192,49396,1,0,0:0:0:0:
182,192,49471,1,0,0:0:0:0:
256,192,49696,1,0,0:0:0:0:
402,192,49771,1,8,0:0:0:0:
36,192,49771,1,0,0:0:0:0:
109,192,49771,1,0,0:0:0:0:
182,192,49996,1,0,0:0:0:0:
36,192,50071,1,0,0:0:0:0:
329,192,50296,1,0,0:0:0:0:
475,192,50371,1,0,0:0:0:0:
256,192,50596,1,0,0:0:0:0:
109,192,50671,1,2,0:0:0:0:
402,192,50671,1,0,0:0:0:0:
329,192,50896,1,0,0:0:0:0:
475,192,50971,1,8,0:0:0:0:
182,192,50971,1,0,0:0:0:0:
36,192,50971,1,0,0:0:0:0:
256,192,51571,128,2,51871:0:0:0:0:
36,192,51571,1,0,0:0:0:0:
402,192,51871,128,0,51946:0:0:0:0:
402,192,52096,128,0,52171:0:0:0:0:
109,192,52171,128,8,52246:0:0:0:0:
109,192,52471,128,2,52546:0:0:0:0:
256,192,52471,1,0,0:0:0:0:
475,192,52771,1,2,0:0:0:0:
109,192,52771,128,0,52846:0:0:0:0:
402,192,52996,1,2,0:0:0:0:
182,192,52996,128,0,53071:0:0:0:0:
36,192,53071,128,0,53146:0:0:0:0:
329,192,53221,1,2,0:0:0:0:
182,192,53296,128,0,53371:0:0:0:0:
36,192,53371,128,8,53446:0:0:0:0:
475,192,53371,1,0,0:0:0:0:
329,192,53596,128,0,53671:0:0:0:0:
475,192,53671,128,2,53746:0:0:0:0:
109,192,53671,1,2,3:0:0:0:
36,192,53971,128,2,54271:0:0:0:0:
256,192,53971,1,0,0:0:0:0:
182,192,54196,1,0,0:0:0:0:
329,192,54271,1,0,0:0:0:0:
256,192,54496,1,0,0:0:0:0:
402,192,54571,1,8,0:0:0:0:
475,192,54571,1,0,0:0:0:0:
109,192,54571,1,0,0:0:0:0:
329,192,54796,1,0,0:0:0:0:
475,192,54871,1,0,0:0:0:0:
182,192,55096,1,0,0:0:0:0:
36,192,55171,1,0,0:0:0:0:
256,192,55396,1,0,0:0:0:0:
109,192,55471,1,2,0:0:0:0:
402,192,55471,1,0,0:0:0:0:
182,192,55696,1,0,0:0:0:0:
475,192,55771,1,8,0:0:0:0:
329,192,55771,1,0,0:0:0:0:
36,192,55771,1,0,0:0:0:0:
475,192,56371,1,2,0:0:0:0:
256,192,56371,128,0,56671:0:0:0:0:
109,192,56671,128,0,56746:0:0:0:0:
109,192,56896,128,0,56971:0:0:0:0:
402,192,56971,128,8,57046:0:0:0:0:
256,192,57271,1,2,0:0:0:0:
402,192,57271,128,0,57346:0:0:0:0:
402,192,57571,128,2,57646:0:0:0:0:
36,192,57571,1,0,0:0:0:0:
329,192,57796,128,2,57871:0:0:0:0:
109,192,57796,1,0,0:0:0:0:
475,192,57871,128,0,57946:0:0:0:0:
182,192,58021,1,2,0:0:0:0:
329,192,58096,128,0,58171:0:0:0:0:
475,192,58171,128,8,58246:0:0:0:0:
36,192,58171,1,0,0:0:0:0:
182,192,58396,128,0,58471:0:0:0:0:
402,192,58471,1,2,0:0:0:0:
36,192,58471,128,2,58546:3:0:0:0:
475,192,58771,128,2,59071:0:0:0:0:
256,192,58771,1,4,0:0:0:0:
36,192,58771,1,0,0:0:0:0:
329,192,58996,1,0,0:0:0:0:
182,192,59071,1,8,0:0:0:0:
36,192,59071,1,2,0:0:0:0:
256,192,59296,1,0,0:0:0:0:
402,192,59371,1,2,0:0:0:0:
109,192,59371,1,0,0:0:0:0:
182,192,59596,1,0,0:0:0:0:
475,192,59671,1,2,0:0:0:0:
329,192,59671,1,8,0:0:0:0:
182,192,59896,1,0,0:0:0:0:
36,192,59971,1,2,0:0:0:0:
329,192,59971,1,0,0:0:0:0:
256,192,60196,1,0,0:0:0:0:
402,192,60271,1,2,0:0:0:0:
109,192,60271,1,8,0:0:0:0:
329,192,60496,1,0,0:0:0:0:
475,192,60571,1,2,0:0:0:0:
182,192,60571,1,0,0:0:0:0:
109,192,60871,1,2,0:0:0:0:
402,192,60871,1,8,0:0:0:0:
36,192,61171,1,2,0:0:0:0:
256,192,61171,128,0,61471:0:0:0:0:
402,192,61471,128,8,61546:0:0:0:0:
182,192,61471,1,2,0:0:0:0:
36,192,61471,1,0,0:0:0:0:
402,192,61696,128,0,61771:0:0:0:0:
109,192,61771,128,2,61846:0:0:0:0:
36,192,61771,1,0,0:0:0:0:
109,192,62071,128,8,62146:0:0:0:0:
36,192,62071,1,2,0:0:0:0:
329,192,62071,1,0,0:0:0:0:
475,192,62071,1,0,0:0:0:0:
109,192,62371,128,2,62446:0:0:0:0:
475,192,62371,1,0,0:0:0:0:
36,192,62371,1,0,0:0:0:0:
182,192,62596,128,0,62671:0:0:0:0:
36,192,62671,128,2,62746:0:0:0:0:
329,192,62671,1,8,0:0:0:0:
475,192,62671,1,0,0:0:0:0:
182,192,62896,128,0,62971:0:0:0:0:
36,192,62971,128,2,63046:0:0:0:0:
475,192,62971,1,0,0:0:0:0:
329,192,63196,128,0,63271:0:0:0:0:
475,192,63271,128,2,63346:0:0:0:0:
182,192,63271,1,8,0:0:0:0:
36,192,63271,1,0,0:0:0:0:
36,192,63571,1,4,0:0:0:0:
475,192,63571,1,2,0:0:0:0:
256,192,63571,128,0,63871:0:0:0:0:
329,192,63571,1,0,0:0:0:0:
109,192,63721,1,2,0:0:0:0:
182,192,63871,1,8,0:0:0:0:
475,192,63871,1,2,0:0:0:0:
402,192,63871,1,0,0:0:0:0:
256,192,64021,1,2,0:0:0:0:
109,192,64171,1,2,0:0:0:0:
475,192,64171,1,0,0:0:0:0:
329,192,64171,1,0,0:0:0:0:
182,192,64321,1,2,0:0:0:0:
256,192,64471,1,8,0:0:0:0:
475,192,64471,1,2,0:0:0:0:
402,192,64471,1,0,0:0:0:0:
329,192,64621,1,2,0:0:0:0:
182,192,64771,1,2,0:0:0:0:
36,192,64771,1,4,0:0:0:0:
475,192,64771,1,0,0:0:0:0:
402,192,64921,1,2,0:0:0:0:
109,192,65071,1,8,0:0:0:0:
36,192,65071,1,2,0:0:0:0:
329,192,65071,1,0,0:0:0:0:
256,192,65221,1,2,0:0:0:0:
36,192,65371,1,2,0:0:0:0:
182,192,65371,1,0,0:0:0:0:
402,192,65371,1,0,0:0:0:0:
329,192,65521,1,2,0:0:0:0:
36,192,65671,1,8,0:0:0:0:
109,192,65671,1,2,0:0:0:0:
256,192,65671,1,0,0:0:0:0:
182,192,65821,1,2,0:0:0:0:
36,192,65971,1,4,0:0:0:0:
329,192,65971,1,2,0:0:0:0:
475,192,65971,1,0,0:0:0:0:
109,192,66046,1,2,0:0:0:0:
182,192,66121,1,2,0:0:0:0:
256,192,66196,1,2,0:0:0:0:
109,192,66271,1,10,0:0:0:0:
182,192,66346,1,2,0:0:0:0:
256,192,66421,1,2,0:0:0:0:
329,192,66496,1,2,0:0:0:0:
182,192,66571,1,2,0:0:0:0:
36,192,66571,1,4,0:0:0:0:
475,192,66571,1,0,0:0:0:0:
402,192,66646,1,2,0:0:0:0:
329,192,66721,1,2,0:0:0:0:
256,192,66796,1,2,0:0:0:0:
402,192,66871,1,10,0:0:0:0:
329,192,66946,1,2,0:0:0:0:
256,192,67021,1,2,0:0:0:0:
182,192,67096,1,2,0:0:0:0:
475,192,67171,128,2,68071:0:0:0:0:
36,192,67171,128,4,68071:0:0:0:0:
109,192,67171,1,0,0:0:0:0:
402,192,67171,1,0,0:0:0:0:
329,192,67396,128,0,67471:0:0:0:0:
182,192,67471,1,0,0:0:0:0:
329,192,67696,128,0,67771:0:0:0:0:
182,192,67771,1,0,0:0:0:0:
182,192,67996,128,0,68071:0:0:0:0:
329,192,68071,1,0,0:0:0:0:
256,192,68221,1,0,0:0:0:0:
36,192,68371,1,2,0:0:0:0:
475,192,68371,128,4,69571:0:0:0:0:
182,192,68371,1,0,0:0:0:0:
329,192,68521,1,0,0:0:0:0:
182,192,68671,1,0,0:0:0:0:
329,192,68821,1,0,0:0:0:0:
109,192,68971,1,0,0:0:0:0:
256,192,69121,128,0,69271:0:0:0:0:
36,192,69271,1,0,0:0:0:0:
182,192,69421,1,0,0:0:0:0:
36,192,69571,128,0,70771:0:0:0:0:
402,192,69571,1,0,0:0:0:0:
329,192,69721,1,0,0:0:0:0:
256,192,69871,1,0,0:0:0:0:
182,192,70021,1,0,0:0:0:0:
475,192,70171,128,0,70471:0:0:0:0:
329,192,70471,1,0,0:0:0:0:
256,192,70621,1,0,0:0:0:0:
402,192,70771,128,0,71971:0:0:0:0:
182,192,70771,1,0,0:0:0:0:
475,192,70771,1,0,0:0:0:0:
36,192,70921,1,0,0:0:0:0:
109,192,71071,1,0,0:0:0:0:
182,192,71221,1,0,0:0:0:0:
256,192,71371,1,0,0:0:0:0:
36,192,71521,128,0,71671:0:0:0:0:
182,192,71671,1,0,0:0:0:0:
256,192,71821,1,0,0:0:0:0:
109,192,71971,128,0,73171:0:0:0:0:
329,192,71971,1,0,0:0:0:0:
36,192,71971,1,0,0:0:0:0:
402,192,72121,1,0,0:0:0:0:
256,192,72271,1,0,0:0:0:0:
329,192,72421,1,0,0:0:0:0:
402,192,72571,128,0,72871:0:0:0:0:
475,192,72871,1,0,0:0:0:0:
402,192,73021,1,0,0:0:0:0:
329,192,73171,128,0,74371:0:0:0:0:
182,192,73171,1,0,0:0:0:0:
182,192,73621,1,0,0:0:0:0:
182,192,73771,1,0,0:0:0:0:
109,192,73921,1,0,0:0:0:0:
36,192,74071,1,0,0:0:0:0:
475,192,74221,1,0,0:0:0:0:
182,192,74371,128,0,75571:0:0:0:0:
402,192,74371,1,0,0:0:0:0:
329,192,74521,1,0,0:0:0:0:
256,192,74671,1,0,0:0:0:0:
329,192,74821,1,0,0:0:0:0:
402,192,74971,128,0,75271:0:0:0:0:
329,192,75271,1,0,0:0:0:0:
402,192,75421,1,0,0:0:0:0:
256,192,75571,1,0,0:0:0:0:
475,192,75571,128,0,77896:0:0:0:0:
36,192,75721,1,0,0:0:0:0:
329,192,75871,1,0,0:0:0:0:
109,192,76021,1,0,0:0:0:0:
402,192,76171,1,0,0:0:0:0:
182,192,76321,128,0,76471:0:0:0:0:
329,192,76471,1,0,0:0:0:0:
182,192,76621,1,0,0:0:0:0:
36,192,76771,128,0,77896:0:0:0:0:
402,192,76921,1,0,0:0:0:0:
256,192,77071,1,0,0:0:0:0:
109,192,77221,1,0,0:0:0:0:
182,192,77371,1,0,0:0:0:0:
256,192,77521,1,0,0:0:0:0:
329,192,77671,1,8,0:0:0:0:
402,192,77821,1,0,0:0:0:0:
36,192,77971,1,2,0:0:0:0:
475,192,77971,1,4,0:0:0:0:
109,192,78196,1,0,0:0:0:0:
182,192,78421,1,0,0:0:0:0:
475,192,78571,1,0,0:0:0:0:
402,192,78721,1,0,0:0:0:0:
329,192,78871,1,0,0:0:0:0:
256,192,79021,1,0,0:0:0:0:
182,192,79171,1,0,0:0:0:0:
36,192,79171,1,2,0:0:0:0:
256,192,79396,1,0,0:0:0:0:
329,192,79621,1,0,0:0:0:0:
475,192,79921,1,0,0:0:0:0:
402,192,80071,1,0,0:0:0:0:
329,192,80221,1,0,0:0:0:0:
36,192,80371,1,2,0:0:0:0:
256,192,80371,1,0,0:0:0:0:
329,192,80596,1,0,0:0:0:0:
402,192,80821,1,0,0:0:0:0:
256,192,80971,1,0,0:0:0:0:
182,192,81121,1,0,0:0:0:0:
109,192,81271,1,0,0:0:0:0:
36,192,81421,1,0,0:0:0:0:
475,192,81571,1,0,0:0:0:0:
256,192,81571,1,2,0:0:0:0:
402,192,81796,1,0,0:0:0:0:
329,192,82021,1,0,0:0:0:0:
256,192,82246,1,0,0:0:0:0:
182,192,82471,1,0,0:0:0:0:
109,192,82621,1,0,0:0:0:0:
36,192,82771,1,4,0:0:0:0:
475,192,82771,1,2,0:0:0:0:
256,192,82771,1,0,0:0:0:0:
402,192,82921,1,2,0:0:0:0:
36,192,82996,1,0,0:0:0:0:
475,192,83071,1,2,0:0:0:0:
36,192,83221,1,0,0:0:0:0:
402,192,83221,1,2,0:0:0:0:
475,192,83371,1,2,0:0:0:0:
402,192,83521,1,2,0:0:0:0:
36,192,83521,1,0,0:0:0:0:
475,192,83671,1,2,0:0:0:0:
109,192,83671,1,0,0:0:0:0:
402,192,83821,1,2,0:0:0:0:
182,192,83821,1,0,0:0:0:0:
256,192,83971,1,4,0:0:0:0:
36,192,83971,1,2,0:0:0:0:
475,192,83971,1,0,0:0:0:0:
109,192,84121,1,2,0:0:0:0:
402,192,84196,1,0,0:0:0:0:
36,192,84271,1,2,0:0:0:0:
109,192,84421,1,2,0:0:0:0:
329,192,84421,1,0,0:0:0:0:
36,192,84571,1,2,0:0:0:0:
475,192,84571,1,0,0:0:0:0:
109,192,84721,1,2,0:0:0:0:
402,192,84796,1,0,0:0:0:0:
36,192,84871,1,2,0:0:0:0:
109,192,85021,1,2,0:0:0:0:
329,192,85021,1,0,0:0:0:0:
256,192,85171,1,2,0:0:0:0:
475,192,85171,1,4,0:0:0:0:
36,192,85171,1,0,0:0:0:0:
402,192,85246,1,2,0:0:0:0:
329,192,85321,1,2,0:0:0:0:
256,192,85396,1,2,0:0:0:0:
402,192,85471,1,2,0:0:0:0:
329,192,85546,1,2,0:0:0:0:
256,192,85621,1,2,0:0:0:0:
182,192,85696,1,2,0:0:0:0:
36,192,85771,1,2,0:0:0:0:
329,192,85771,1,0,0:0:0:0:
475,192,85771,1,4,0:0:0:0:
109,192,85846,1,2,0:0:0:0:
182,192,85921,1,2,0:0:0:0:
256,192,85996,1,2,0:0:0:0:
109,192,86071,1,2,0:0:0:0:
182,192,86146,1,2,0:0:0:0:
256,192,86221,1,2,0:0:0:0:
329,192,86296,1,2,0:0:0:0:
36,192,86371,128,4,87271:0:0:0:0:
475,192,86371,128,2,87271:0:0:0:0:
402,192,86371,128,0,86521:0:0:0:0:
109,192,86521,128,0,86671:0:0:0:0:
402,192,86671,128,0,86821:0:0:0:0:
109,192,86821,128,0,87271:0:0:0:0:
402,192,86971,128,0,87271:0:0:0:0:
256,192,87271,1,2,3:0:0:0:
36,192,87571,1,4,0:0:0:0:
329,192,87571,1,2,0:0:0:0:
475,192,87571,1,0,0:0:0:0:
109,192,87796,1,0,0:0:0:0:
329,192,87871,1,2,0:0:0:0:
475,192,87871,1,0,0:0:0:0:
182,192,88021,1,0,0:0:0:0:
36,192,88171,1,2,0:0:0:0:
475,192,88171,1,0,0:0:0:0:
402,192,88321,1,0,0:0:0:0:
329,192,88471,1,2,0:0:0:0:
36,192,88471,1,0,0:0:0:0:
256,192,88621,1,0,0:0:0:0:
182,192,88771,1,2,0:0:0:0:
36,192,88771,1,0,0:0:0:0:
256,192,88996,1,0,0:0:0:0:
109,192,89071,1,2,0:0:0:0:
402,192,89071,1,0,0:0:0:0:
329,192,89221,1,0,0:0:0:0:
256,192,89371,1,2,0:0:0:0:
36,192,89371,1,0,0:0:0:0:
475,192,89521,1,0,0:0:0:0:
402,192,89671,1,2,0:0:0:0:
109,192,89671,1,0,0:0:0:0:
329,192,89821,1,0,0:0:0:0:
256,192,89971,1,2,0:0:0:0:
36,192,89971,1,0,0:0:0:0:
329,192,90196,1,0,0:0:0:0:
109,192,90271,1,2,0:0:0:0:
36,192,90271,1,0,0:0:0:0:
402,192,90421,1,0,0:0:0:0:
256,192,90571,1,2,0:0:0:0:
36,192,90571,1,0,0:0:0:0:
182,192,90721,1,0,0:0:0:0:
109,192,90871,1,2,0:0:0:0:
329,192,90871,1,0,0:0:0:0:
475,192,90871,1,0,0:0:0:0:
36,192,91021,1,0,0:0:0:0:
256,192,91171,1,2,0:0:0:0:
475,192,91171,1,0,0:0:0:0:
402,192,91396,1,0,0:0:0:0:
182,192,91471,1,2,0:0:0:0:
36,192,91471,1,0,0:0:0:0:
329,192,91621,1,0,0:0:0:0:
36,192,91771,1,2,0:0:0:0:
475,192,91771,1,0,0:0:0:0:
256,192,91846,1,0,0:0:0:0:
182,192,92071,1,2,0:0:0:0:
475,192,92071,1,0,0:0:0:0:
109,192,92221,1,0,0:0:0:0:
402,192,92221,1,0,0:0:0:0:
36,192,92371,1,2,0:0:0:0:
329,192,92371,1,0,0:0:0:0:
36,192,92596,1,0,0:0:0:0:
329,192,92596,1,0,0:0:0:0:
36,192,92821,1,0,0:0:0:0:
329,192,92821,1,0,0:0:0:0:
475,192,92971,1,2,0:0:0:0:
182,192,92971,1,0,0:0:0:0:
256,192,93121,1,0,0:0:0:0:
329,192,93271,1,2,0:0:0:0:
109,192,93271,1,0,0:0:0:0:
402,192,93421,1,0,0:0:0:0:
475,192,93571,1,2,0:0:0:0:
36,192,93571,1,0,0:0:0:0:
329,192,93796,1,0,0:0:0:0:
475,192,93871,1,2,0:0:0:0:
36,192,93871,1,0,0:0:0:0:
182,192,94021,1,0,0:0:0:0:
402,192,94171,1,2,0:0:0:0:
36,192,94171,1,0,0:0:0:0:
256,192,94396,1,0,0:0:0:0:
475,192,94471,1,2,0:0:0:0:
36,192,94471,1,0,0:0:0:0:
109,192,94621,1,0,0:0:0:0:
329,192,94771,1,2,0:0:0:0:
182,192,94771,1,0,0:0:0:0:
182,192,94996,1,0,0:0:0:0:
329,192,95071,1,2,0:0:0:0:
475,192,95071,1,0,0:0:0:0:
36,192,95221,1,0,0:0:0:0:
109,192,95371,1,2,0:0:0:0:
329,192,95371,1,0,0:0:0:0:
182,192,95521,1,0,0:0:0:0:
475,192,95671,1,2,0:0:0:0:
256,192,95671,1,0,0:0:0:0:
402,192,95821,1,0,0:0:0:0:
329,192,95971,1,2,0:0:0:0:
182,192,95971,1,0,0:0:0:0:
36,192,95971,1,0,0:0:0:0:
402,192,96196,1,0,0:0:0:0:
109,192,96271,1,2,0:0:0:0:
256,192,96271,1,0,0:0:0:0:
475,192,96421,1,0,0:0:0:0:
36,192,96571,1,2,0:0:0:0:
329,192,96571,1,0,0:0:0:0:
182,192,96571,1,0,0:0:0:0:
109,192,96796,1,0,0:0:0:0:
256,192,96871,1,2,0:0:0:0:
402,192,96871,1,0,0:0:0:0:
182,192,97021,1,0,0:0:0:0:
329,192,97171,1,2,0:0:0:0:
475,192,97171,1,4,0:0:0:0:
36,192,97171,1,0,0:0:0:0:
256,192,97396,1,0,0:0:0:0:
36,192,97471,1,2,0:0:0:0:
475,192,97471,1,0,0:0:0:0:
182,192,97621,1,0,0:0:0:0:
36,192,97771,1,2,0:0:0:0:
475,192,97771,1,0,0:0:0:0:
256,192,97921,1,0,0:0:0:0:
329,192,98071,1,2,0:0:0:0:
36,192,98071,1,0,0:0:0:0:
402,192,98221,1,0,0:0:0:0:
256,192,98371,1,2,0:0:0:0:
36,192,98371,1,0,0:0:0:0:
182,192,98596,1,0,0:0:0:0:
329,192,98671,1,2,0:0:0:0:
475,192,98671,1,0,0:0:0:0:
109,192,98821,1,0,0:0:0:0:
475,192,98971,1,2,0:0:0:0:
329,192,98971,1,0,0:0:0:0:
182,192,99121,1,0,0:0:0:0:
256,192,99271,1,2,0:0:0:0:
36,192,99271,1,0,0:0:0:0:
329,192,99421,1,0,0:0:0:0:
475,192,99571,1,2,0:0:0:0:
182,192,99571,1,0,0:0:0:0:
109,192,99796,1,0,0:0:0:0:
329,192,99871,1,2,0:0:0:0:
475,192,99871,1,0,0:0:0:0:
36,192,100021,1,0,0:0:0:0:
182,192,100171,1,2,0:0:0:0:
475,192,100171,1,0,0:0:0:0:
329,192,100321,1,0,0:0:0:0:
475,192,100471,1,2,0:0:0:0:
182,192,100471,1,0,0:0:0:0:
402,192,100621,1,0,0:0:0:0:
109,192,100621,1,0,0:0:0:0:
329,192,100771,1,2,0:0:0:0:
36,192,100771,1,0,0:0:0:0:
182,192,100996,1,0,0:0:0:0:
329,192,101071,1,2,0:0:0:0:
475,192,101071,1,0,0:0:0:0:
36,192,101221,1,0,0:0:0:0:
329,192,101371,1,2,0:0:0:0:
109,192,101446,1,0,0:0:0:0:
182,192,101671,1,2,0:0:0:0:
329,192,101671,1,0,0:0:0:0:
109,192,101821,1,0,0:0:0:0:
402,192,101821,1,0,0:0:0:0:
36,192,101971,1,2,0:0:0:0:
475,192,101971,1,4,0:0:0:0:
256,192,101971,1,0,0:0:0:0:
475,192,102196,1,0,0:0:0:0:
36,192,102271,1,2,0:0:0:0:
329,192,102271,1,0,0:0:0:0:
182,192,102421,1,2,0:0:0:0:
329,192,102571,1,2,0:0:0:0:
475,192,102571,1,0,0:0:0:0:
109,192,102721,1,2,0:0:0:0:
182,192,102871,1,2,0:0:0:0:
402,192,102871,1,0,0:0:0:0:
256,192,103021,1,2,0:0:0:0:
329,192,103171,1,2,0:0:0:0:
36,192,103171,1,4,0:0:0:0:
475,192,103171,1,0,0:0:0:0:
256,192,103396,1,0,0:0:0:0:
36,192,103471,1,2,0:0:0:0:
402,192,103471,1,0,0:0:0:0:
182,192,103621,1,2,0:0:0:0:
475,192,103771,1,2,0:0:0:0:
36,192,103771,1,0,0:0:0:0:
402,192,103996,1,0,0:0:0:0:
182,192,104071,1,2,0:0:0:0:
36,192,104071,1,0,0:0:0:0:
329,192,104221,1,2,0:0:0:0:
36,192,104371,1,2,0:0:0:0:
475,192,104371,1,4,0:0:0:0:
329,192,104371,1,0,0:0:0:0:
109,192,104596,1,2,0:0:0:0:
329,192,104671,1,2,0:0:0:0:
475,192,104671,1,0,0:0:0:0:
182,192,104821,1,2,0:0:0:0:
36,192,104971,1,4,0:0:0:0:
475,192,104971,1,2,0:0:0:0:
256,192,104971,1,0,0:0:0:0:
329,192,105121,1,2,0:0:0:0:
475,192,105271,1,2,0:0:0:0:
36,192,105271,1,0,0:0:0:0:
402,192,105421,1,2,0:0:0:0:
109,192,105421,1,0,0:0:0:0:
329,192,105571,1,4,0:0:0:0:
182,192,105571,1,2,0:0:0:0:
256,192,105721,1,4,0:0:0:0:
475,192,105721,1,2,0:0:0:0:
402,192,105871,1,4,0:0:0:0:
182,192,105871,1,2,0:0:0:0:
329,192,106021,1,4,0:0:0:0:
109,192,106021,1,2,0:0:0:0:
36,192,106171,128,2,106696:0:0:0:0:
256,192,106171,128,4,106696:0:0:0:0:
475,192,106321,1,2,3:0:0:0:
475,192,106471,128,2,106696:3:0:0:0:
256,192,106771,1,2,0:0:0:0:
36,192,106771,1,4,0:0:0:0:
475,192,106771,128,0,106921:0:0:0:0:
402,192,106996,128,0,107146:0:0:0:0:
256,192,107071,1,2,0:0:0:0:
36,192,107071,1,0,0:0:0:0:
329,192,107221,128,0,107371:0:0:0:0:
475,192,107371,1,2,0:0:0:0:
36,192,107371,1,0,0:0:0:0:
109,192,107521,1,0,0:0:0:0:
182,192,107671,1,2,0:0:0:0:
475,192,107671,1,0,0:0:0:0:
256,192,107821,1,0,0:0:0:0:
475,192,107971,1,2,0:0:0:0:
329,192,107971,128,0,108121:0:0:0:0:
256,192,108196,128,0,108346:0:0:0:0:
402,192,108271,1,2,0:0:0:0:
109,192,108271,1,0,0:0:0:0:
182,192,108421,128,0,108571:0:0:0:0:
256,192,108571,1,2,0:0:0:0:
475,192,108571,1,0,0:0:0:0:
36,192,108721,1,0,0:0:0:0:
109,192,108871,1,2,0:0:0:0:
402,192,108871,1,0,0:0:0:0:
182,192,109021,1,0,0:0:0:0:
475,192,109171,1,2,0:0:0:0:
256,192,109171,128,0,109321:0:0:0:0:
182,192,109396,128,0,109546:0:0:0:0:
402,192,109471,1,2,0:0:0:0:
475,192,109471,1,0,0:0:0:0:
109,192,109621,128,0,109771:0:0:0:0:
256,192,109771,1,2,0:0:0:0:
475,192,109771,1,0,0:0:0:0:
329,192,109921,1,0,0:0:0:0:
402,192,110071,1,2,0:0:0:0:
182,192,110071,1,0,0:0:0:0:
36,192,110071,1,0,0:0:0:0:
475,192,110221,1,0,0:0:0:0:
256,192,110371,1,2,0:0:0:0:
36,192,110371,128,0,110521:0:0:0:0:
109,192,110596,128,0,110746:0:0:0:0:
329,192,110671,1,2,0:0:0:0:
475,192,110671,1,0,0:0:0:0:
182,192,110821,128,0,110971:0:0:0:0:
475,192,110971,1,2,0:0:0:0:
36,192,110971,1,0,0:0:0:0:
256,192,111046,128,0,111196:0:0:0:0:
329,192,111271,1,2,0:0:0:0:
36,192,111271,1,0,0:0:0:0:
402,192,111421,1,0,0:0:0:0:
109,192,111421,1,0,0:0:0:0:
182,192,111571,1,0,0:0:0:0:
475,192,111571,128,0,111721:0:0:0:0:
182,192,111796,1,0,0:0:0:0:
475,192,111796,128,0,111946:0:0:0:0:
475,192,112021,128,0,112171:0:0:0:0:
182,192,112021,1,0,0:0:0:0:
36,192,112171,1,2,0:0:0:0:
329,192,112171,1,0,0:0:0:0:
256,192,112321,1,0,0:0:0:0:
182,192,112471,1,2,0:0:0:0:
402,192,112471,1,0,0:0:0:0:
109,192,112621,1,0,0:0:0:0:
475,192,112771,1,2,0:0:0:0:
36,192,112771,128,0,112921:0:0:0:0:
182,192,112996,128,0,113146:0:0:0:0:
36,192,113071,1,2,0:0:0:0:
475,192,113071,1,0,0:0:0:0:
329,192,113221,128,0,113371:0:0:0:0:
475,192,113371,1,2,0:0:0:0:
109,192,113371,128,0,113521:0:0:0:0:
256,192,113596,128,0,113746:0:0:0:0:
36,192,113671,1,2,0:0:0:0:
475,192,113671,1,0,0:0:0:0:
402,192,113821,128,0,113971:0:0:0:0:
329,192,113971,1,2,0:0:0:0:
182,192,113971,1,0,0:0:0:0:
329,192,114196,128,0,114346:0:0:0:0:
182,192,114271,1,2,0:0:0:0:
36,192,114271,1,0,0:0:0:0:
475,192,114421,1,0,0:0:0:0:
402,192,114571,1,2,0:0:0:0:
182,192,114571,1,0,0:0:0:0:
329,192,114721,1,0,0:0:0:0:
36,192,114871,1,2,0:0:0:0:
256,192,114871,1,0,0:0:0:0:
109,192,115021,1,0,0:0:0:0:
329,192,115171,1,2,0:0:0:0:
475,192,115171,1,0,0:0:0:0:
182,192,115171,128,0,115321:0:0:0:0:
109,192,115396,128,0,115546:0:0:0:0:
402,192,115471,1,2,0:0:0:0:
256,192,115471,1,0,0:0:0:0:
36,192,115621,128,0,115771:0:0:0:0:
182,192,115771,1,0,0:0:0:0:
329,192,115771,1,0,0:0:0:0:
475,192,115771,128,2,115921:0:0:0:0:
402,192,115996,128,0,116146:0:0:0:0:
256,192,116071,1,2,0:0:0:0:
109,192,116071,1,0,0:0:0:0:
329,192,116221,128,0,116371:0:0:0:0:
182,192,116371,1,2,0:0:0:0:
36,192,116371,1,4,0:0:0:0:
475,192,116371,1,0,0:0:0:0:
256,192,116596,1,0,0:0:0:0:
475,192,116671,1,2,0:0:0:0:
36,192,116671,1,0,0:0:0:0:
329,192,116821,1,0,0:0:0:0:
475,192,116971,1,2,0:0:0:0:
36,192,116971,1,0,0:0:0:0:
256,192,117121,1,0,0:0:0:0:
182,192,117271,1,2,0:0:0:0:
475,192,117271,1,0,0:0:0:0:
109,192,117421,1,0,0:0:0:0:
256,192,117571,1,2,0:0:0:0:
475,192,117571,1,0,0:0:0:0:
36,192,117571,1,0,0:0:0:0:
329,192,117796,1,0,0:0:0:0:
182,192,117871,1,2,0:0:0:0:
36,192,117871,1,0,0:0:0:0:
402,192,118021,1,0,0:0:0:0:
36,192,118171,1,2,0:0:0:0:
182,192,118171,1,0,0:0:0:0:
329,192,118321,1,0,0:0:0:0:
256,192,118471,1,2,0:0:0:0:
475,192,118471,1,0,0:0:0:0:
182,192,118621,1,0,0:0:0:0:
36,192,118771,1,2,0:0:0:0:
329,192,118771,1,0,0:0:0:0:
402,192,118996,1,0,0:0:0:0:
182,192,119071,1,2,0:0:0:0:
36,192,119071,1,0,0:0:0:0:
475,192,119221,1,0,0:0:0:0:
329,192,119371,1,2,0:0:0:0:
36,192,119371,1,0,0:0:0:0:
182,192,119521,1,0,0:0:0:0:
36,192,119671,1,2,0:0:0:0:
329,192,119671,1,0,0:0:0:0:
109,192,119821,1,0,0:0:0:0:
402,192,119821,1,0,0:0:0:0:
182,192,119971,1,2,0:0:0:0:
475,192,119971,1,0,0:0:0:0:
475,192,120196,1,0,0:0:0:0:
182,192,120271,1,2,0:0:0:0:
36,192,120271,1,0,0:0:0:0:
475,192,120421,1,0,0:0:0:0:
182,192,120571,1,2,0:0:0:0:
402,192,120646,1,0,0:0:0:0:
329,192,120871,1,2,0:0:0:0:
182,192,120871,1,0,0:0:0:0:
36,192,120871,1,0,0:0:0:0:
402,192,121021,1,0,0:0:0:0:
36,192,121171,1,4,0:0:0:0:
475,192,121171,1,2,0:0:0:0:
256,192,121171,1,0,0:0:0:0:
109,192,121321,1,2,0:0:0:0:
475,192,121396,1,0,0:0:0:0:
36,192,121471,1,2,0:0:0:0:
475,192,121621,1,0,0:0:0:0:
109,192,121621,1,2,0:0:0:0:
36,192,121771,1,2,0:0:0:0:
109,192,121921,1,2,0:0:0:0:
475,192,121921,1,0,0:0:0:0:
36,192,122071,1,2,0:0:0:0:
402,192,122071,1,0,0:0:0:0:
109,192,122221,1,2,0:0:0:0:
329,192,122221,1,0,0:0:0:0:
256,192,122371,1,4,0:0:0:0:
475,192,122371,1,2,0:0:0:0:
36,192,122371,1,0,0:0:0:0:
402,192,122521,1,2,0:0:0:0:
109,192,122596,1,0,0:0:0:0:
475,192,122671,1,2,0:0:0:0:
402,192,122821,1,2,0:0:0:0:
182,192,122821,1,0,0:0:0:0:
475,192,122971,1,2,0:0:0:0:
36,192,122971,1,0,0:0:0:0:
402,192,123121,1,2,0:0:0:0:
109,192,123196,1,0,0:0:0:0:
475,192,123271,1,2,0:0:0:0:
402,192,123421,1,2,0:0:0:0:
182,192,123421,1,0,0:0:0:0:
36,192,123571,1,4,0:0:0:0:
475,192,123571,1,2,0:0:0:0:
256,192,123571,1,0,0:0:0:0:
402,192,123646,1,2,0:0:0:0:
329,192,123721,1,2,0:0:0:0:
256,192,123796,1,2,0:0:0:0:
36,192,123871,1,2,0:0:0:0:
109,192,123946,1,2,0:0:0:0:
182,192,124021,1,2,0:0:0:0:
256,192,124096,1,2,0:0:0:0:
475,192,124171,1,4,0:0:0:0:
36,192,124171,1,2,0:0:0:0:
402,192,124246,1,2,0:0:0:0:
329,192,124321,1,2,0:0:0:0:
256,192,124396,1,2,0:0:0:0:
36,192,124471,1,2,0:0:0:0:
109,192,124546,1,2,0:0:0:0:
182,192,124621,1,2,0:0:0:0:
256,192,124696,1,2,0:0:0:0:
475,192,124771,1,2,0:0:0:0:
329,192,124771,1,4,0:0:0:0:
256,192,124921,1,4,0:0:0:0:
402,192,124921,1,2,0:0:0:0:
329,192,125071,1,4,0:0:0:0:
182,192,125071,1,2,0:0:0:0:
256,192,125221,1,4,0:0:0:0:
109,192,125221,1,2,0:0:0:0:
36,192,125371,128,4,125896:0:0:0:0:
182,192,125371,128,2,125896:0:0:0:0:
475,192,125521,1,2,3:0:0:0:
475,192,125671,128,2,125896:3:0:0:0:
475,192,125971,1,2,0:0:0:0:
36,192,125971,1,4,0:0:0:0:
182,192,125971,1,0,0:0:0:0:
329,192,125971,1,0,0:0:0:0:
