osu file format v14

[General]
AudioFilename: audio.mp3
AudioLeadIn: 0
PreviewTime: 10752
Countdown: 0
SampleSet: Soft
StackLeniency: 0.7
Mode: 3
LetterboxInBreaks: 0
SpecialStyle: 0
WidescreenStoryboard: 0

[Editor]
DistanceSpacing: 0.8
BeatDivisor: 4
GridSize: 8
TimelineZoom: 1.6

[Metadata]
Title:Nadeshiko Sensation
TitleUnicode:Nadeshiko Sensation
Artist:yuki.
ArtistUnicode:yuki.
Creator:Multiple Creators
Version:4K Insane
Source:
Tags:
BeatmapID:1243809
BeatmapSetID:587388

[Difficulty]
HPDrainRate:8
CircleSize:4
OverallDifficulty:8
ApproachRate:5
SliderMultiplier:1.4
SliderTickRate:1

[Events]
//Background and Video events
0,0,"Nadeshiko Sensation B.jpg",0,0
//Break Periods
//Storyboard Layer 0 (Background)
//Storyboard Layer 1 (Fail)
//Storyboard Layer 2 (Pass)
//Storyboard Layer 3 (Foreground)
//Storyboard Sound Samples

[TimingPoints]
1171,300,4,2,0,35,1,0
10771,-100,4,2,0,35,0,1
29971,-100,4,2,0,35,0,0
106771,-100,4,2,0,35,0,1
116296,-100,4,2,0,35,0,0
116371,-100,4,2,0,35,0,1
125971,-100,4,2,0,35,0,0

[HitObjects]
320,192,871,5,0,0:0:0:0:
192,192,1021,1,0,0:0:0:0:
448,192,1171,1,4,0:0:0:0:
64,192,1171,128,0,1471:0:0:0:0:
320,192,1171,1,0,0:0:0:0:
192,192,1321,1,0,0:0:0:0:
320,192,1471,1,0,0:0:0:0:
448,192,1621,1,0,0:0:0:0:
64,192,1621,128,0,1921:0:0:0:0:
192,192,1771,1,0,0:0:0:0:
320,192,1921,1,0,0:0:0:0:
192,192,1971,1,0,0:0:0:0:
320,192,2021,1,0,0:0:0:0:
64,192,2071,1,2,0:0:0:0:
448,192,2071,1,0,0:0:0:0:
192,192,2221,1,0,0:0:0:0:
320,192,2371,128,0,2671:0:0:0:0:
448,192,2371,1,0,0:0:0:0:
192,192,2521,1,0,0:0:0:0:
64,192,2671,1,0,0:0:0:0:
320,192,2821,128,0,3121:0:0:0:0:
448,192,2821,1,0,0:0:0:0:
192,192,2971,1,0,0:0:0:0:
192,192,3271,1,0,0:0:0:0:
320,192,3421,1,0,0:0:0:0:
192,192,3571,128,0,3871:0:0:0:0:
448,192,3571,1,0,0:0:0:0:
64,192,3721,1,0,0:0:0:0:
320,192,3871,1,0,0:0:0:0:
448,192,4021,1,0,0:0:0:0:
192,192,4021,128,0,4321:0:0:0:0:
64,192,4171,1,0,0:0:0:0:
320,192,4321,1,0,0:0:0:0:
448,192,4371,1,0,0:0:0:0:
320,192,4421,1,0,0:0:0:0:
192,192,4471,1,0,0:0:0:0:
64,192,4621,1,0,0:0:0:0:
448,192,4771,128,0,5071:0:0:0:0:
320,192,4771,1,0,0:0:0:0:
64,192,4921,1,0,0:0:0:0:
192,192,5071,1,0,0:0:0:0:
448,192,5221,128,0,5521:0:0:0:0:
320,192,5221,1,0,0:0:0:0:
64,192,5371,1,0,0:0:0:0:
192,192,5671,1,2,0:0:0:0:
448,192,5671,1,0,0:0:0:0:
320,192,5821,1,0,0:0:0:0:
64,192,5971,1,8,0:0:0:0:
192,192,5971,1,0,0:0:0:0:
448,192,5971,1,4,0:0:0:0:
64,192,6271,1,8,0:0:0:0:
192,192,6271,1,0,0:0:0:0:
64,192,6571,1,8,0:0:0:0:
192,192,6571,1,0,0:0:0:0:
64,192,6871,1,8,0:0:0:0:
192,192,6871,1,0,0:0:0:0:
64,192,7171,1,4,0:0:0:0:
320,192,7171,1,0,0:0:0:0:
448,192,7171,1,8,0:0:0:0:
320,192,7471,1,0,0:0:0:0:
448,192,7471,1,8,0:0:0:0:
320,192,7771,1,0,0:0:0:0:
448,192,7771,1,8,0:0:0:0:
320,192,8071,1,0,0:0:0:0:
448,192,8071,1,8,0:0:0:0:
64,192,8371,1,0,0:0:0:0:
192,192,8371,1,8,0:0:0:0:
448,192,8371,1,4,0:0:0:0:
320,192,8521,1,8,0:0:0:0:
448,192,8521,1,0,0:0:0:0:
64,192,8671,1,0,0:0:0:0:
192,192,8671,1,8,0:0:0:0:
320,192,8821,1,8,0:0:0:0:
448,192,8821,1,0,0:0:0:0:
64,192,8971,1,4,0:0:0:0:
448,192,8971,1,0,0:0:0:0:
320,192,8971,1,8,0:0:0:0:
192,192,9046,1,8,0:0:0:0:
320,192,9121,1,8,0:0:0:0:
192,192,9196,1,8,0:0:0:0:
448,192,9271,1,2,0:0:0:0:
64,192,9271,1,8,0:0:0:0:
320,192,9346,1,8,0:0:0:0:
192,192,9421,1,8,0:0:0:0:
320,192,9496,1,8,0:0:0:0:
448,192,9571,128,0,9721:0:0:0:0:
64,192,9571,128,8,10621:0:0:0:0:
192,192,9571,1,4,0:0:0:0:
320,192,9721,128,0,9871:0:0:0:0:
192,192,9871,128,0,10021:0:0:0:0:
320,192,10021,128,0,10171:0:0:0:0:
448,192,10171,128,0,10621:0:0:0:0:
320,192,10471,1,2,0:0:0:0:
320,192,10771,128,0,10921:0:0:0:0:
192,192,10771,1,8,0:0:0:0:
448,192,10771,1,4,0:0:0:0:
64,192,10921,128,0,11071:0:0:0:0:
320,192,11071,128,0,11221:0:0:0:0:
192,192,11071,1,8,0:0:0:0:
448,192,11221,128,0,11371:0:0:0:0:
64,192,11371,128,0,11521:0:0:0:0:
192,192,11371,1,8,0:0:0:0:
320,192,11521,1,0,0:0:0:0:
192,192,11571,1,0,0:0:0:0:
320,192,11621,1,0,0:0:0:0:
448,192,11671,1,8,0:0:0:0:
64,192,11671,128,0,11821:0:0:0:0:
192,192,11821,128,0,11971:0:0:0:0:
448,192,11971,128,0,12121:0:0:0:0:
64,192,11971,1,8,0:0:0:0:
320,192,12121,128,0,12271:0:0:0:0:
192,192,12271,128,0,12421:0:0:0:0:
448,192,12271,1,8,0:0:0:0:
64,192,12421,128,0,12571:0:0:0:0:
320,192,12571,1,8,0:0:0:0:
192,192,12571,128,0,12871:0:0:0:0:
448,192,12871,1,8,0:0:0:0:
64,192,12871,128,0,13021:0:0:0:0:
320,192,13021,128,0,13171:0:0:0:0:
448,192,13171,128,0,13321:0:0:0:0:
192,192,13171,1,8,0:0:0:0:
64,192,13321,128,0,13471:0:0:0:0:
192,192,13471,128,0,13621:0:0:0:0:
320,192,13471,1,8,0:0:0:0:
448,192,13621,128,0,13771:0:0:0:0:
64,192,13771,128,0,13921:0:0:0:0:
192,192,13771,1,8,0:0:0:0:
320,192,13921,1,0,0:0:0:0:
448,192,13971,1,0,0:0:0:0:
320,192,14021,1,0,0:0:0:0:
192,192,14071,128,0,14221:0:0:0:0:
64,192,14071,1,8,0:0:0:0:
320,192,14221,128,0,14371:0:0:0:0:
64,192,14371,128,0,14521:0:0:0:0:
448,192,14371,1,8,0:0:0:0:
192,192,14521,128,0,14671:0:0:0:0:
320,192,14671,128,0,14821:0:0:0:0:
64,192,14671,1,8,0:0:0:0:
448,192,14821,128,0,14971:0:0:0:0:
192,192,14971,1,8,0:0:0:0:
64,192,14971,128,0,15271:0:0:0:0:
320,192,15271,1,8,0:0:0:0:
192,192,15271,128,0,15421:0:0:0:0:
448,192,15421,128,0,15571:0:0:0:0:
320,192,15571,128,0,15871:0:0:0:0:
64,192,15571,1,8,0:0:0:0:
192,192,15871,1,8,0:0:0:0:
64,192,15871,1,0,0:0:0:0:
320,192,16021,128,0,16321:0:0:0:0:
64,192,16171,1,8,0:0:0:0:
192,192,16321,128,0,16471:0:0:0:0:
64,192,16471,128,0,16621:0:0:0:0:
448,192,16471,1,8,0:0:0:0:
192,192,16621,128,0,16771:0:0:0:0:
320,192,16771,128,0,16921:0:0:0:0:
64,192,16771,1,8,0:0:0:0:
448,192,16921,128,0,17071:0:0:0:0:
320,192,17071,128,0,17221:0:0:0:0:
192,192,17071,1,8,0:0:0:0:
64,192,17221,128,0,17371:0:0:0:0:
192,192,17371,128,0,17671:0:0:0:0:
448,192,17371,1,8,0:0:0:0:
64,192,17671,128,0,17821:0:0:0:0:
320,192,17671,1,8,0:0:0:0:
192,192,17821,128,0,17971:0:0:0:0:
320,192,17971,128,0,18121:0:0:0:0:
448,192,17971,1,8,0:0:0:0:
64,192,18121,128,0,18271:0:0:0:0:
320,192,18271,128,0,18421:0:0:0:0:
192,192,18271,1,8,0:0:0:0:
448,192,18421,128,0,18571:0:0:0:0:
192,192,18571,128,0,18721:0:0:0:0:
64,192,18571,1,8,0:0:0:0:
320,192,18721,1,0,0:0:0:0:
448,192,18771,1,0,0:0:0:0:
320,192,18821,1,0,0:0:0:0:
192,192,18871,128,0,19021:0:0:0:0:
64,192,18871,1,8,0:0:0:0:
320,192,19021,128,0,19171:0:0:0:0:
64,192,19171,128,0,19321:0:0:0:0:
448,192,19171,1,8,0:0:0:0:
192,192,19321,128,0,19471:0:0:0:0:
448,192,19471,128,0,19621:0:0:0:0:
64,192,19471,1,8,0:0:0:0:
320,192,19621,128,0,19771:0:0:0:0:
192,192,19771,128,0,19921:0:0:0:0:
64,192,19771,1,8,0:0:0:0:
448,192,19921,1,2,0:0:0:0:
64,192,19921,128,0,20071:0:0:0:0:
448,192,20071,1,2,0:0:0:0:
320,192,20071,128,8,20221:0:0:0:0:
192,192,20221,128,0,20371:0:0:0:0:
64,192,20371,1,8,0:0:0:0:
448,192,20371,1,0,0:0:0:0:
320,192,20371,1,4,0:0:0:0:
64,192,20521,1,0,0:0:0:0:
192,192,20521,1,0,0:0:0:0:
192,192,20671,1,0,0:0:0:0:
448,192,20671,1,8,0:0:0:0:
320,192,20821,1,0,0:0:0:0:
448,192,20821,1,0,0:0:0:0:
64,192,20971,1,8,0:0:0:0:
192,192,20971,1,0,0:0:0:0:
320,192,21121,1,0,0:0:0:0:
192,192,21171,1,0,0:0:0:0:
320,192,21221,1,0,0:0:0:0:
64,192,21271,1,0,0:0:0:0:
448,192,21271,1,8,0:0:0:0:
64,192,21421,1,0,0:0:0:0:
320,192,21421,1,0,0:0:0:0:
192,192,21571,1,8,0:0:0:0:
448,192,21571,1,0,0:0:0:0:
320,192,21721,1,0,0:0:0:0:
192,192,21721,1,0,0:0:0:0:
64,192,21871,1,0,0:0:0:0:
320,192,21871,1,8,0:0:0:0:
64,192,22021,1,0,0:0:0:0:
192,192,22021,1,0,0:0:0:0:
320,192,22171,1,0,0:0:0:0:
192,192,22171,1,8,0:0:0:0:
448,192,22321,1,0,0:0:0:0:
64,192,22471,1,0,0:0:0:0:
320,192,22471,1,8,0:0:0:0:
192,192,22621,1,0,0:0:0:0:
320,192,22621,1,0,0:0:0:0:
64,192,22771,1,8,0:0:0:0:
448,192,22771,1,0,0:0:0:0:
64,192,22921,1,0,0:0:0:0:
320,192,22921,1,0,0:0:0:0:
192,192,23071,1,0,0:0:0:0:
448,192,23071,1,8,0:0:0:0:
320,192,23221,1,0,0:0:0:0:
448,192,23221,1,0,0:0:0:0:
64,192,23371,1,8,0:0:0:0:
320,192,23371,1,0,0:0:0:0:
192,192,23521,1,0,0:0:0:0:
320,192,23571,1,0,0:0:0:0:
192,192,23621,1,0,0:0:0:0:
64,192,23671,1,0,0:0:0:0:
448,192,23671,1,8,0:0:0:0:
192,192,23821,1,0,0:0:0:0:
320,192,23821,1,0,0:0:0:0:
64,192,23971,1,0,0:0:0:0:
192,192,23971,1,8,0:0:0:0:
64,192,24121,1,0,0:0:0:0:
320,192,24121,1,0,0:0:0:0:
192,192,24271,1,8,0:0:0:0:
448,192,24271,1,0,0:0:0:0:
192,192,24421,1,0,0:0:0:0:
320,192,24421,1,0,0:0:0:0:
320,192,24571,1,8,0:0:0:0:
448,192,24571,1,0,0:0:0:0:
192,192,24721,1,0,0:0:0:0:
448,192,24871,1,8,0:0:0:0:
64,192,24871,1,0,0:0:0:0:
192,192,25021,1,0,0:0:0:0:
320,192,25021,1,0,0:0:0:0:
192,192,25171,1,4,0:0:0:0:
64,192,25171,1,0,0:0:0:0:
448,192,25171,1,8,0:0:0:0:
64,192,25321,1,8,0:0:0:0:
192,192,25321,1,0,0:0:0:0:
448,192,25471,1,8,0:0:0:0:
320,192,25471,1,0,0:0:0:0:
448,192,25621,1,0,0:0:0:0:
320,192,25621,1,8,0:0:0:0:
192,192,25771,1,8,0:0:0:0:
448,192,25771,1,0,0:0:0:0:
448,192,25921,1,8,0:0:0:0:
192,192,25921,1,0,0:0:0:0:
64,192,26071,1,0,0:0:0:0:
320,192,26071,1,8,0:0:0:0:
64,192,26221,1,8,0:0:0:0:
320,192,26221,1,0,0:0:0:0:
64,192,26371,1,0,0:0:0:0:
448,192,26371,1,8,0:0:0:0:
192,192,26371,1,4,0:0:0:0:
448,192,26521,1,8,0:0:0:0:
64,192,26521,1,0,0:0:0:0:
320,192,26671,1,0,0:0:0:0:
192,192,26671,1,8,0:0:0:0:
320,192,26821,1,0,0:0:0:0:
192,192,26821,1,8,0:0:0:0:
192,192,26971,1,8,0:0:0:0:
64,192,26971,1,0,0:0:0:0:
64,192,27121,1,0,0:0:0:0:
192,192,27121,1,8,0:0:0:0:
448,192,27271,1,0,0:0:0:0:
320,192,27271,1,8,0:0:0:0:
448,192,27421,1,0,0:0:0:0:
320,192,27421,1,8,0:0:0:0:
448,192,27571,1,8,0:0:0:0:
64,192,27571,1,0,0:0:0:0:
192,192,27571,1,4,0:0:0:0:
320,192,27646,1,8,0:0:0:0:
64,192,27721,1,8,0:0:0:0:
448,192,27721,1,0,0:0:0:0:
192,192,27796,1,8,0:0:0:0:
448,192,27871,1,0,0:0:0:0:
320,192,27871,1,8,0:0:0:0:
192,192,27946,1,8,0:0:0:0:
448,192,28021,1,0,0:0:0:0:
64,192,28021,1,8,0:0:0:0:
320,192,28096,1,8,0:0:0:0:
64,192,28171,1,0,0:0:0:0:
192,192,28171,1,4,0:0:0:0:
448,192,28171,1,8,0:0:0:0:
320,192,28246,1,8,0:0:0:0:
64,192,28321,1,8,0:0:0:0:
192,192,28321,1,0,0:0:0:0:
448,192,28396,1,8,0:0:0:0:
64,192,28471,1,8,0:0:0:0:
320,192,28471,1,0,0:0:0:0:
192,192,28546,1,8,0:0:0:0:
448,192,28621,1,0,0:0:0:0:
320,192,28621,1,8,0:0:0:0:
64,192,28696,1,8,0:0:0:0:
320,192,28771,1,0,0:0:0:0:
448,192,28771,1,8,0:0:0:0:
192,192,28771,1,4,0:0:0:0:
448,192,28921,1,0,0:0:0:0:
192,192,28921,1,4,0:0:0:0:
64,192,28921,1,8,0:0:0:0:
64,192,29071,1,0,0:0:0:0:
320,192,29071,1,4,0:0:0:0:
448,192,29071,1,8,0:0:0:0:
64,192,29221,1,8,0:0:0:0:
192,192,29221,1,4,0:0:0:0:
320,192,29221,1,0,0:0:0:0:
192,192,29371,1,4,0:0:0:0:
64,192,29371,128,8,29821:0:0:0:0:
448,192,29371,128,0,29821:0:0:0:0:
320,192,29521,1,2,0:0:0:0:
320,192,29671,1,2,0:0:0:0:
448,192,29971,1,8,0:0:0:0:
192,192,29971,1,0,0:0:0:0:
320,192,29971,1,4,0:0:0:0:
64,192,30121,1,0,0:0:0:0:
448,192,30271,1,8,0:0:0:0:
192,192,30271,1,0,0:0:0:0:
320,192,30421,1,0,0:0:0:0:
64,192,30571,1,8,0:0:0:0:
192,192,30571,1,0,0:0:0:0:
448,192,30721,1,0,0:0:0:0:
64,192,30871,1,8,0:0:0:0:
320,192,30871,1,0,0:0:0:0:
192,192,31021,1,0,0:0:0:0:
448,192,31171,1,8,0:0:0:0:
320,192,31171,1,0,0:0:0:0:
64,192,31321,1,0,0:0:0:0:
192,192,31471,1,0,0:0:0:0:
448,192,31471,1,8,0:0:0:0:
320,192,31621,1,0,0:0:0:0:
64,192,31771,1,8,0:0:0:0:
192,192,31771,1,0,0:0:0:0:
448,192,31921,1,0,0:0:0:0:
64,192,32071,1,8,0:0:0:0:
320,192,32071,1,0,0:0:0:0:
192,192,32221,1,0,0:0:0:0:
448,192,32371,1,8,0:0:0:0:
320,192,32371,1,0,0:0:0:0:
64,192,32521,1,0,0:0:0:0:
448,192,32671,1,8,0:0:0:0:
192,192,32671,1,0,0:0:0:0:
320,192,32821,1,0,0:0:0:0:
64,192,32971,1,8,0:0:0:0:
192,192,32971,1,0,0:0:0:0:
448,192,33121,1,0,0:0:0:0:
64,192,33271,1,8,0:0:0:0:
320,192,33271,1,0,0:0:0:0:
192,192,33421,1,0,0:0:0:0:
448,192,33571,1,8,0:0:0:0:
320,192,33571,1,0,0:0:0:0:
64,192,33721,1,0,0:0:0:0:
448,192,33871,1,0,0:0:0:0:
192,192,33871,1,8,0:0:0:0:
320,192,34021,1,0,0:0:0:0:
64,192,34171,1,8,0:0:0:0:
448,192,34171,1,0,0:0:0:0:
320,192,34321,1,0,0:0:0:0:
192,192,34371,1,0,0:0:0:0:
320,192,34421,1,0,0:0:0:0:
448,192,34471,1,8,0:0:0:0:
64,192,34471,1,0,0:0:0:0:
192,192,34621,1,0,0:0:0:0:
448,192,34771,1,8,0:0:0:0:
320,192,34771,1,0,0:0:0:0:
192,192,34921,1,0,0:0:0:0:
448,192,35071,1,8,0:0:0:0:
64,192,35071,1,0,0:0:0:0:
320,192,35221,1,0,0:0:0:0:
64,192,35371,1,8,0:0:0:0:
192,192,35371,1,0,0:0:0:0:
320,192,35521,1,0,0:0:0:0:
64,192,35671,1,8,0:0:0:0:
448,192,35671,1,0,0:0:0:0:
192,192,35821,1,0,0:0:0:0:
448,192,35971,1,8,0:0:0:0:
320,192,35971,1,0,0:0:0:0:
192,192,36121,1,0,0:0:0:0:
448,192,36271,1,8,0:0:0:0:
64,192,36271,1,0,0:0:0:0:
320,192,36421,1,0,0:0:0:0:
64,192,36571,1,8,0:0:0:0:
192,192,36571,1,0,0:0:0:0:
320,192,36721,1,0,0:0:0:0:
64,192,36871,1,8,0:0:0:0:
448,192,36871,1,0,0:0:0:0:
192,192,37021,1,0,0:0:0:0:
448,192,37171,1,8,0:0:0:0:
320,192,37171,1,0,0:0:0:0:
192,192,37321,1,0,0:0:0:0:
448,192,37471,1,8,0:0:0:0:
64,192,37471,1,0,0:0:0:0:
320,192,37621,1,0,0:0:0:0:
64,192,37771,1,8,0:0:0:0:
192,192,37771,1,0,0:0:0:0:
320,192,37921,1,0,0:0:0:0:
64,192,38071,1,8,0:0:0:0:
448,192,38071,1,0,0:0:0:0:
192,192,38221,1,0,0:0:0:0:
448,192,38371,1,8,0:0:0:0:
320,192,38371,1,0,0:0:0:0:
192,192,38521,1,0,0:0:0:0:
64,192,38521,1,2,0:0:0:0:
320,192,38671,1,8,0:0:0:0:
64,192,38671,1,2,0:0:0:0:
448,192,38821,1,0,0:0:0:0:
64,192,38821,1,2,0:0:0:0:
320,192,38971,1,8,0:0:0:0:
64,192,38971,1,2,0:0:0:0:
320,192,39121,1,0,0:0:0:0:
64,192,39121,1,2,0:0:0:0:
448,192,39171,1,0,0:0:0:0:
320,192,39221,1,0,0:0:0:0:
192,192,39271,1,8,0:0:0:0:
64,192,39271,1,2,0:0:0:0:
64,192,39421,1,2,0:0:0:0:
320,192,39421,1,0,0:0:0:0:
64,192,39571,128,0,40771:0:0:0:0:
192,192,39571,1,4,0:0:0:0:
448,192,39571,1,8,0:0:0:0:
448,192,39721,1,0,0:0:0:0:
192,192,39871,1,0,0:0:0:0:
320,192,39871,1,8,0:0:0:0:
320,192,40021,1,0,0:0:0:0:
448,192,40171,1,0,0:0:0:0:
192,192,40171,1,8,0:0:0:0:
192,192,40321,1,0,0:0:0:0:
320,192,40471,1,8,0:0:0:0:
448,192,40471,1,0,0:0:0:0:
320,192,40621,1,0,0:0:0:0:
192,192,40771,1,8,0:0:0:0:
448,192,40771,128,0,41821:0:0:0:0:
320,192,40921,1,0,0:0:0:0:
64,192,41071,1,8,0:0:0:0:
192,192,41071,1,0,0:0:0:0:
64,192,41221,1,0,0:0:0:0:
192,192,41371,1,8,0:0:0:0:
320,192,41371,1,0,0:0:0:0:
192,192,41521,1,0,0:0:0:0:
320,192,41671,1,8,0:0:0:0:
64,192,41671,1,0,0:0:0:0:
320,192,41821,1,0,0:0:0:0:
192,192,41971,1,8,0:0:0:0:
64,192,41971,128,0,42421:0:0:0:0:
320,192,42121,1,0,0:0:0:0:
192,192,42271,1,8,0:0:0:0:
448,192,42271,1,0,0:0:0:0:
448,192,42421,1,0,0:0:0:0:
192,192,42571,128,0,43171:0:0:0:0:
320,192,42571,1,8,0:0:0:0:
448,192,42721,1,0,0:0:0:0:
64,192,42871,1,0,0:0:0:0:
320,192,42871,1,8,0:0:0:0:
64,192,43021,1,0,0:0:0:0:
448,192,43171,128,0,43471:0:0:0:0:
320,192,43171,1,8,0:0:0:0:
192,192,43321,1,0,0:0:0:0:
320,192,43471,1,8,0:0:0:0:
64,192,43471,1,0,0:0:0:0:
448,192,43571,1,0,0:0:0:0:
320,192,43671,1,0,0:0:0:0:
192,192,43771,128,0,44071:0:0:0:0:
64,192,43771,1,8,0:0:0:0:
448,192,43921,1,0,0:0:0:0:
64,192,44071,128,0,44371:0:0:0:0:
320,192,44071,1,8,0:0:0:0:
448,192,44221,1,0,0:0:0:0:
448,192,44371,1,4,0:0:0:0:
320,192,44371,1,8,0:0:0:0:
192,192,44371,128,0,45421:0:0:0:0:
448,192,44521,1,8,0:0:0:0:
64,192,44521,1,0,0:0:0:0:
64,192,44671,1,0,0:0:0:0:
320,192,44671,1,8,0:0:0:0:
448,192,44821,1,0,0:0:0:0:
64,192,44821,1,8,0:0:0:0:
320,192,44971,1,8,0:0:0:0:
448,192,44971,1,0,0:0:0:0:
448,192,45121,1,8,0:0:0:0:
64,192,45121,1,0,0:0:0:0:
64,192,45271,1,0,0:0:0:0:
320,192,45271,1,8,0:0:0:0:
448,192,45421,1,0,0:0:0:0:
64,192,45421,1,8,0:0:0:0:
448,192,45571,1,4,0:0:0:0:
320,192,45571,128,0,46771:0:0:0:0:
192,192,45571,1,8,0:0:0:0:
64,192,45721,1,0,0:0:0:0:
448,192,45721,1,8,0:0:0:0:
64,192,45871,1,0,0:0:0:0:
192,192,45871,1,8,0:0:0:0:
448,192,46021,1,0,0:0:0:0:
64,192,46021,1,8,0:0:0:0:
448,192,46171,1,0,0:0:0:0:
192,192,46171,1,8,0:0:0:0:
64,192,46321,1,0,0:0:0:0:
448,192,46321,1,8,0:0:0:0:
64,192,46471,1,0,0:0:0:0:
192,192,46471,1,8,0:0:0:0:
448,192,46621,1,0,0:0:0:0:
64,192,46621,1,8,0:0:0:0:
64,192,46771,1,4,0:0:0:0:
192,192,46771,1,8,0:0:0:0:
448,192,46771,128,0,49171:0:0:0:0:
320,192,46846,1,8,0:0:0:0:
192,192,46921,1,8,0:0:0:0:
64,192,46996,1,8,0:0:0:0:
320,192,47071,1,8,0:0:0:0:
64,192,47146,1,8,0:0:0:0:
192,192,47221,1,8,0:0:0:0:
320,192,47296,1,8,0:0:0:0:
64,192,47371,1,8,0:0:0:0:
192,192,47371,1,4,0:0:0:0:
320,192,47446,1,8,0:0:0:0:
192,192,47521,1,8,0:0:0:0:
64,192,47596,1,8,0:0:0:0:
320,192,47671,1,8,0:0:0:0:
64,192,47746,1,8,0:0:0:0:
192,192,47821,1,8,0:0:0:0:
320,192,47896,1,8,0:0:0:0:
192,192,47971,1,4,0:0:0:0:
64,192,47971,128,8,49171:0:0:0:0:
320,192,48121,1,2,0:0:0:0:
320,192,48271,1,2,0:0:0:0:
320,192,48421,1,2,0:0:0:0:
320,192,48571,1,2,0:0:0:0:
320,192,48721,1,2,0:0:0:0:
320,192,48871,1,2,0:0:0:0:
320,192,49021,1,2,0:0:0:0:
192,192,49171,128,4,49471:0:0:0:0:
320,192,49171,128,8,49471:0:0:0:0:
64,192,49396,1,0,0:0:0:0:
448,192,49471,1,0,0:0:0:0:
64,192,49696,1,0,0:0:0:0:
192,192,49771,1,2,0:0:0:0:
320,192,49771,1,0,0:0:0:0:
448,192,49771,1,0,0:0:0:0:
448,192,49996,1,0,0:0:0:0:
320,192,50033,1,0,0:0:0:0:
192,192,50071,1,0,0:0:0:0:
192,192,50296,1,0,0:0:0:0:
320,192,50371,1,0,0:0:0:0:
64,192,50596,1,0,0:0:0:0:
192,192,50671,1,8,0:0:0:0:
448,192,50671,1,0,0:0:0:0:
320,192,50896,1,0,0:0:0:0:
192,192,50971,1,0,0:0:0:0:
64,192,50971,1,0,0:0:0:0:
448,192,50971,1,2,0:0:0:0:
192,192,51571,128,0,51871:0:0:0:0:
320,192,51571,128,0,51871:0:0:0:0:
64,192,51571,1,8,0:0:0:0:
448,192,51871,128,0,51946:0:0:0:0:
320,192,52096,1,0,0:0:0:0:
448,192,52171,128,0,52321:0:0:0:0:
64,192,52171,1,0,0:0:0:0:
192,192,52171,1,2,0:0:0:0:
192,192,52471,1,8,0:0:0:0:
64,192,52471,128,0,52621:0:0:0:0:
448,192,52771,128,0,52921:0:0:0:0:
320,192,52771,1,8,0:0:0:0:
192,192,52996,1,8,0:0:0:0:
320,192,52996,1,0,0:0:0:0:
64,192,53071,128,0,53221:0:0:0:0:
320,192,53221,1,8,0:0:0:0:
448,192,53221,1,0,0:0:0:0:
192,192,53296,1,0,0:0:0:0:
448,192,53371,128,0,53521:0:0:0:0:
64,192,53371,1,2,0:0:0:0:
320,192,53371,1,0,0:0:0:0:
320,192,53596,1,0,0:0:0:0:
192,192,53671,128,0,53821:0:0:0:0:
64,192,53671,1,8,0:0:0:0:
192,192,53971,128,0,54271:0:0:0:0:
320,192,53971,128,0,54271:0:0:0:0:
448,192,53971,1,8,0:0:0:0:
64,192,54196,1,0,0:0:0:0:
448,192,54271,1,0,0:0:0:0:
448,192,54496,1,0,0:0:0:0:
320,192,54571,1,0,0:0:0:0:
64,192,54571,1,2,0:0:0:0:
192,192,54571,1,0,0:0:0:0:
448,192,54796,1,0,0:0:0:0:
320,192,54833,1,0,0:0:0:0:
192,192,54871,1,0,0:0:0:0:
64,192,55096,1,0,0:0:0:0:
192,192,55171,1,0,0:0:0:0:
192,192,55396,1,0,0:0:0:0:
320,192,55471,1,8,0:0:0:0:
448,192,55471,1,0,0:0:0:0:
320,192,55696,1,0,0:0:0:0:
448,192,55771,1,2,0:0:0:0:
64,192,55771,1,0,0:0:0:0:
192,192,55771,1,0,0:0:0:0:
192,192,56371,128,0,56671:0:0:0:0:
320,192,56371,128,0,56671:0:0:0:0:
64,192,56371,1,8,0:0:0:0:
448,192,56671,128,0,56746:0:0:0:0:
320,192,56896,1,0,0:0:0:0:
192,192,56971,1,0,0:0:0:0:
64,192,56971,128,0,57121:0:0:0:0:
320,192,57271,1,0,0:0:0:0:
448,192,57271,128,0,57421:0:0:0:0:
64,192,57571,128,0,57721:0:0:0:0:
448,192,57571,1,0,0:0:0:0:
192,192,57796,1,8,0:0:0:0:
320,192,57796,1,0,0:0:0:0:
448,192,57871,128,0,58021:0:0:0:0:
192,192,58021,1,8,0:0:0:0:
64,192,58021,1,0,0:0:0:0:
320,192,58096,1,0,0:0:0:0:
448,192,58171,128,0,58321:0:0:0:0:
64,192,58171,1,2,0:0:0:0:
192,192,58171,1,0,0:0:0:0:
320,192,58396,1,0,0:0:0:0:
192,192,58471,128,0,58621:0:0:0:0:
64,192,58471,1,8,0:0:0:0:
64,192,58771,1,4,0:0:0:0:
192,192,58771,128,0,59071:0:0:0:0:
320,192,58771,128,0,59071:0:0:0:0:
448,192,58771,1,8,0:0:0:0:
64,192,58996,1,0,0:0:0:0:
448,192,59071,1,2,0:0:0:0:
320,192,59296,1,0,0:0:0:0:
192,192,59371,1,0,0:0:0:0:
64,192,59371,1,8,0:0:0:0:
320,192,59596,1,0,0:0:0:0:
192,192,59633,1,0,0:0:0:0:
64,192,59671,1,0,0:0:0:0:
448,192,59671,1,2,0:0:0:0:
64,192,59896,1,0,0:0:0:0:
192,192,59971,1,8,0:0:0:0:
448,192,59971,1,0,0:0:0:0:
320,192,60196,1,0,0:0:0:0:
192,192,60271,1,0,0:0:0:0:
64,192,60271,1,2,0:0:0:0:
448,192,60271,1,0,0:0:0:0:
192,192,60496,1,0,0:0:0:0:
64,192,60571,1,0,0:0:0:0:
320,192,60571,1,8,0:0:0:0:
64,192,60871,1,0,0:0:0:0:
448,192,60871,1,0,0:0:0:0:
192,192,60871,1,2,0:0:0:0:
192,192,61171,128,0,61471:0:0:0:0:
320,192,61171,128,0,61471:0:0:0:0:
64,192,61171,1,8,0:0:0:0:
448,192,61471,128,0,61546:0:0:0:0:
64,192,61471,1,2,0:0:0:0:
192,192,61696,1,0,0:0:0:0:
448,192,61771,128,0,61921:0:0:0:0:
320,192,61771,1,8,0:0:0:0:
320,192,62071,1,0,0:0:0:0:
192,192,62071,1,2,0:0:0:0:
64,192,62071,128,0,62221:0:0:0:0:
448,192,62371,128,0,62521:0:0:0:0:
320,192,62371,1,8,0:0:0:0:
192,192,62596,1,0,0:0:0:0:
64,192,62671,128,0,62821:0:0:0:0:
448,192,62671,1,2,0:0:0:0:
320,192,62671,1,0,0:0:0:0:
320,192,62896,1,0,0:0:0:0:
448,192,62971,128,0,63121:0:0:0:0:
192,192,62971,1,8,0:0:0:0:
64,192,63196,1,0,0:0:0:0:
192,192,63271,128,0,63421:0:0:0:0:
448,192,63271,1,0,0:0:0:0:
320,192,63271,1,2,0:0:0:0:
64,192,63571,1,0,0:0:0:0:
192,192,63571,1,4,0:0:0:0:
448,192,63571,1,0,0:0:0:0:
320,192,63571,1,8,0:0:0:0:
64,192,63721,1,0,0:0:0:0:
192,192,63721,1,8,0:0:0:0:
448,192,63871,1,0,0:0:0:0:
320,192,63871,1,2,0:0:0:0:
64,192,63871,1,0,0:0:0:0:
448,192,64021,1,0,0:0:0:0:
192,192,64021,1,8,0:0:0:0:
64,192,64171,1,0,0:0:0:0:
320,192,64171,1,8,0:0:0:0:
448,192,64321,1,0,0:0:0:0:
192,192,64321,1,8,0:0:0:0:
64,192,64471,1,0,0:0:0:0:
320,192,64471,1,2,0:0:0:0:
448,192,64471,1,0,0:0:0:0:
192,192,64621,1,8,0:0:0:0:
320,192,64621,1,0,0:0:0:0:
64,192,64771,1,0,0:0:0:0:
320,192,64771,1,4,0:0:0:0:
448,192,64771,1,0,0:0:0:0:
192,192,64771,1,8,0:0:0:0:
320,192,64921,1,8,0:0:0:0:
448,192,64921,1,0,0:0:0:0:
64,192,65071,1,0,0:0:0:0:
448,192,65071,1,0,0:0:0:0:
192,192,65071,1,2,0:0:0:0:
64,192,65221,1,0,0:0:0:0:
320,192,65221,1,8,0:0:0:0:
192,192,65371,1,8,0:0:0:0:
448,192,65371,1,0,0:0:0:0:
64,192,65521,1,0,0:0:0:0:
320,192,65521,1,8,0:0:0:0:
64,192,65671,1,0,0:0:0:0:
448,192,65671,1,0,0:0:0:0:
192,192,65671,1,2,0:0:0:0:
192,192,65821,1,0,0:0:0:0:
320,192,65821,1,8,0:0:0:0:
64,192,65971,1,8,0:0:0:0:
448,192,65971,1,0,0:0:0:0:
192,192,65971,1,4,0:0:0:0:
320,192,66046,1,8,0:0:0:0:
192,192,66121,1,8,0:0:0:0:
320,192,66196,1,8,0:0:0:0:
64,192,66271,1,0,0:0:0:0:
448,192,66271,1,8,0:0:0:0:
192,192,66346,1,8,0:0:0:0:
320,192,66421,1,8,0:0:0:0:
64,192,66496,1,0,0:0:0:0:
192,192,66496,1,8,0:0:0:0:
320,192,66571,1,8,0:0:0:0:
448,192,66571,1,0,0:0:0:0:
64,192,66646,1,8,0:0:0:0:
448,192,66721,1,8,0:0:0:0:
320,192,66758,1,8,0:0:0:0:
64,192,66796,1,8,0:0:0:0:
192,192,66833,1,8,0:0:0:0:
320,192,66871,1,8,0:0:0:0:
448,192,66871,1,0,0:0:0:0:
64,192,66946,1,8,0:0:0:0:
192,192,67021,1,8,0:0:0:0:
320,192,67096,1,8,0:0:0:0:
192,192,67171,1,8,0:0:0:0:
448,192,67171,128,0,68371:0:0:0:0:
64,192,67171,1,4,0:0:0:0:
64,192,67396,1,0,0:0:0:0:
192,192,67471,128,0,67621:0:0:0:0:
64,192,67696,1,0,0:0:0:0:
192,192,67771,128,0,67921:0:0:0:0:
320,192,67996,1,0,0:0:0:0:
64,192,68071,1,0,0:0:0:0:
192,192,68221,1,0,0:0:0:0:
192,192,68371,1,8,0:0:0:0:
320,192,68371,128,0,69571:0:0:0:0:
64,192,68371,1,4,0:0:0:0:
64,192,68521,1,0,0:0:0:0:
192,192,68671,1,0,0:0:0:0:
448,192,68821,1,0,0:0:0:0:
64,192,68971,1,0,0:0:0:0:
192,192,69121,1,0,0:0:0:0:
64,192,69171,1,0,0:0:0:0:
192,192,69221,1,0,0:0:0:0:
448,192,69271,1,0,0:0:0:0:
192,192,69421,1,0,0:0:0:0:
64,192,69571,128,0,70771:0:0:0:0:
448,192,69571,1,0,0:0:0:0:
320,192,69721,1,0,0:0:0:0:
192,192,69871,1,0,0:0:0:0:
320,192,70021,1,0,0:0:0:0:
192,192,70171,1,0,0:0:0:0:
192,192,70471,1,0,0:0:0:0:
320,192,70621,1,0,0:0:0:0:
192,192,70771,128,0,71971:0:0:0:0:
448,192,70771,1,0,0:0:0:0:
64,192,70921,1,0,0:0:0:0:
320,192,71071,1,0,0:0:0:0:
448,192,71221,1,0,0:0:0:0:
64,192,71371,1,0,0:0:0:0:
320,192,71521,1,0,0:0:0:0:
448,192,71571,1,0,0:0:0:0:
320,192,71621,1,0,0:0:0:0:
64,192,71671,1,0,0:0:0:0:
320,192,71821,1,0,0:0:0:0:
448,192,71971,128,0,73171:0:0:0:0:
64,192,71971,1,0,0:0:0:0:
320,192,72121,1,0,0:0:0:0:
192,192,72271,1,0,0:0:0:0:
64,192,72421,1,0,0:0:0:0:
320,192,72571,1,0,0:0:0:0:
320,192,72871,1,0,0:0:0:0:
64,192,73021,1,0,0:0:0:0:
320,192,73171,128,0,74371:0:0:0:0:
192,192,73171,1,0,0:0:0:0:
192,192,73621,1,0,0:0:0:0:
192,192,73771,1,0,0:0:0:0:
64,192,73921,1,0,0:0:0:0:
192,192,74071,1,0,0:0:0:0:
448,192,74221,1,0,0:0:0:0:
64,192,74371,128,0,75571:0:0:0:0:
192,192,74371,1,0,0:0:0:0:
448,192,74521,1,0,0:0:0:0:
320,192,74671,1,0,0:0:0:0:
192,192,74821,1,0,0:0:0:0:
448,192,74971,1,0,0:0:0:0:
192,192,75271,1,0,0:0:0:0:
320,192,75421,1,0,0:0:0:0:
192,192,75571,128,0,76771:0:0:0:0:
448,192,75571,1,0,0:0:0:0:
64,192,75721,1,0,0:0:0:0:
320,192,75871,1,0,0:0:0:0:
448,192,76021,1,0,0:0:0:0:
64,192,76171,1,0,0:0:0:0:
320,192,76321,1,0,0:0:0:0:
448,192,76396,1,0,0:0:0:0:
320,192,76421,1,0,0:0:0:0:
64,192,76471,1,0,0:0:0:0:
320,192,76621,1,0,0:0:0:0:
448,192,76771,128,0,77971:0:0:0:0:
64,192,76771,1,0,0:0:0:0:
192,192,76921,1,0,0:0:0:0:
320,192,77071,1,0,0:0:0:0:
192,192,77221,1,0,0:0:0:0:
64,192,77371,1,0,0:0:0:0:
192,192,77521,1,0,0:0:0:0:
64,192,77671,1,0,0:0:0:0:
320,192,77671,1,2,0:0:0:0:
192,192,77821,1,0,0:0:0:0:
64,192,77971,1,8,0:0:0:0:
192,192,77971,1,4,0:0:0:0:
320,192,77971,1,0,0:0:0:0:
448,192,78121,1,0,0:0:0:0:
320,192,78196,1,0,0:0:0:0:
64,192,78271,1,8,0:0:0:0:
192,192,78271,1,0,0:0:0:0:
320,192,78346,1,0,0:0:0:0:
448,192,78421,1,0,0:0:0:0:
64,192,78571,1,8,0:0:0:0:
192,192,78571,1,0,0:0:0:0:
320,192,78721,1,0,0:0:0:0:
448,192,78796,1,0,0:0:0:0:
64,192,78871,1,8,0:0:0:0:
192,192,78871,1,0,0:0:0:0:
320,192,78946,1,0,0:0:0:0:
192,192,79021,1,0,0:0:0:0:
64,192,79096,1,0,0:0:0:0:
448,192,79171,1,8,0:0:0:0:
320,192,79171,1,0,0:0:0:0:
64,192,79321,1,0,0:0:0:0:
192,192,79396,1,0,0:0:0:0:
320,192,79471,1,0,0:0:0:0:
448,192,79471,1,8,0:0:0:0:
192,192,79546,1,0,0:0:0:0:
64,192,79621,1,0,0:0:0:0:
320,192,79771,1,0,0:0:0:0:
448,192,79771,1,8,0:0:0:0:
192,192,79921,1,0,0:0:0:0:
64,192,79996,1,0,0:0:0:0:
320,192,80071,1,0,0:0:0:0:
448,192,80071,1,8,0:0:0:0:
192,192,80146,1,0,0:0:0:0:
320,192,80221,1,0,0:0:0:0:
448,192,80296,1,0,0:0:0:0:
64,192,80371,1,8,0:0:0:0:
192,192,80371,1,0,0:0:0:0:
448,192,80521,1,0,0:0:0:0:
320,192,80596,1,0,0:0:0:0:
64,192,80671,1,8,0:0:0:0:
192,192,80671,1,0,0:0:0:0:
320,192,80746,1,0,0:0:0:0:
448,192,80821,1,0,0:0:0:0:
64,192,80971,1,8,0:0:0:0:
192,192,80971,1,0,0:0:0:0:
448,192,81121,1,0,0:0:0:0:
320,192,81171,1,0,0:0:0:0:
192,192,81221,1,0,0:0:0:0:
64,192,81271,1,8,0:0:0:0:
448,192,81271,1,0,0:0:0:0:
320,192,81346,1,0,0:0:0:0:
192,192,81421,1,0,0:0:0:0:
64,192,81496,1,0,0:0:0:0:
320,192,81571,1,0,0:0:0:0:
448,192,81571,1,8,0:0:0:0:
64,192,81721,1,0,0:0:0:0:
192,192,81796,1,0,0:0:0:0:
320,192,81871,1,0,0:0:0:0:
448,192,81871,1,8,0:0:0:0:
64,192,81946,1,0,0:0:0:0:
192,192,82021,1,0,0:0:0:0:
320,192,82171,1,0,0:0:0:0:
448,192,82171,1,8,0:0:0:0:
192,192,82246,1,0,0:0:0:0:
64,192,82396,1,0,0:0:0:0:
320,192,82471,1,0,0:0:0:0:
448,192,82471,1,8,0:0:0:0:
192,192,82621,1,0,0:0:0:0:
64,192,82771,128,0,85171:0:0:0:0:
320,192,82771,1,8,0:0:0:0:
448,192,82771,1,0,0:0:0:0:
192,192,82921,1,8,0:0:0:0:
320,192,83071,1,8,0:0:0:0:
192,192,83221,1,8,0:0:0:0:
320,192,83371,1,8,0:0:0:0:
192,192,83521,1,8,0:0:0:0:
320,192,83671,1,8,0:0:0:0:
192,192,83821,1,8,0:0:0:0:
448,192,83971,128,0,85171:0:0:0:0:
320,192,83971,1,8,0:0:0:0:
192,192,84121,1,8,0:0:0:0:
320,192,84271,1,8,0:0:0:0:
192,192,84421,1,8,0:0:0:0:
320,192,84571,1,8,0:0:0:0:
192,192,84721,1,8,0:0:0:0:
320,192,84871,1,8,0:0:0:0:
192,192,85021,1,8,0:0:0:0:
320,192,85171,1,12,0:0:0:0:
192,192,85246,1,8,0:0:0:0:
448,192,85321,1,8,0:0:0:0:
64,192,85396,1,8,0:0:0:0:
320,192,85471,1,8,0:0:0:0:
192,192,85546,1,8,0:0:0:0:
448,192,85621,1,8,0:0:0:0:
64,192,85696,1,8,0:0:0:0:
448,192,85771,1,4,0:0:0:0:
192,192,85771,1,8,0:0:0:0:
320,192,85846,1,8,0:0:0:0:
64,192,85921,1,8,0:0:0:0:
320,192,85996,1,8,0:0:0:0:
192,192,86071,1,8,0:0:0:0:
448,192,86146,1,8,0:0:0:0:
64,192,86221,1,8,0:0:0:0:
320,192,86296,1,8,0:0:0:0:
64,192,86371,128,0,87421:0:0:0:0:
448,192,86371,128,8,86521:0:0:0:0:
192,192,86371,1,4,0:0:0:0:
320,192,86521,128,0,86671:0:0:0:0:
192,192,86671,128,0,86821:0:0:0:0:
320,192,86821,128,0,86971:0:0:0:0:
448,192,86971,128,0,87421:0:0:0:0:
320,192,87271,1,2,0:0:0:0:
192,192,87571,1,4,0:0:0:0:
64,192,87571,1,0,0:0:0:0:
448,192,87571,1,8,0:0:0:0:
320,192,87721,1,0,0:0:0:0:
192,192,87796,1,0,0:0:0:0:
64,192,87871,1,0,0:0:0:0:
448,192,87871,1,8,0:0:0:0:
320,192,88021,1,0,0:0:0:0:
64,192,88171,1,8,0:0:0:0:
192,192,88171,1,0,0:0:0:0:
448,192,88321,1,0,0:0:0:0:
320,192,88321,1,0,0:0:0:0:
192,192,88396,1,0,0:0:0:0:
64,192,88396,1,0,0:0:0:0:
448,192,88471,1,8,0:0:0:0:
320,192,88471,1,0,0:0:0:0:
192,192,88621,1,0,0:0:0:0:
320,192,88771,1,0,0:0:0:0:
64,192,88771,1,8,0:0:0:0:
448,192,88771,1,0,0:0:0:0:
192,192,88921,1,0,0:0:0:0:
320,192,88996,1,0,0:0:0:0:
64,192,89071,1,8,0:0:0:0:
448,192,89071,1,0,0:0:0:0:
192,192,89221,1,0,0:0:0:0:
320,192,89371,1,0,0:0:0:0:
448,192,89371,1,8,0:0:0:0:
192,192,89521,1,0,0:0:0:0:
64,192,89521,1,0,0:0:0:0:
320,192,89596,1,0,0:0:0:0:
448,192,89596,1,0,0:0:0:0:
64,192,89671,1,8,0:0:0:0:
192,192,89671,1,0,0:0:0:0:
320,192,89821,1,0,0:0:0:0:
448,192,89971,1,0,0:0:0:0:
192,192,89971,1,0,0:0:0:0:
64,192,89971,1,8,0:0:0:0:
320,192,90121,1,0,0:0:0:0:
192,192,90196,1,0,0:0:0:0:
448,192,90271,1,0,0:0:0:0:
64,192,90271,1,8,0:0:0:0:
320,192,90421,1,0,0:0:0:0:
448,192,90571,1,0,0:0:0:0:
192,192,90571,1,8,0:0:0:0:
320,192,90721,1,0,0:0:0:0:
448,192,90771,1,0,0:0:0:0:
320,192,90821,1,0,0:0:0:0:
64,192,90871,1,8,0:0:0:0:
192,192,90871,1,0,0:0:0:0:
320,192,91021,1,0,0:0:0:0:
64,192,91171,1,8,0:0:0:0:
448,192,91171,1,0,0:0:0:0:
192,192,91171,1,0,0:0:0:0:
320,192,91321,1,0,0:0:0:0:
192,192,91396,1,0,0:0:0:0:
448,192,91471,1,0,0:0:0:0:
64,192,91471,1,8,0:0:0:0:
192,192,91621,1,0,0:0:0:0:
64,192,91771,1,8,0:0:0:0:
448,192,91771,1,0,0:0:0:0:
320,192,91846,1,0,0:0:0:0:
192,192,91921,1,0,0:0:0:0:
64,192,92071,1,8,0:0:0:0:
320,192,92071,1,0,0:0:0:0:
192,192,92221,1,0,0:0:0:0:
64,192,92371,1,8,0:0:0:0:
448,192,92371,1,0,0:0:0:0:
320,192,92371,1,0,0:0:0:0:
448,192,92521,1,0,0:0:0:0:
320,192,92596,1,0,0:0:0:0:
64,192,92671,1,8,0:0:0:0:
192,192,92671,1,0,0:0:0:0:
320,192,92821,1,0,0:0:0:0:
64,192,92971,1,8,0:0:0:0:
448,192,92971,1,0,0:0:0:0:
192,192,93121,1,0,0:0:0:0:
320,192,93121,1,0,0:0:0:0:
64,192,93196,1,0,0:0:0:0:
448,192,93196,1,0,0:0:0:0:
192,192,93271,1,8,0:0:0:0:
320,192,93271,1,0,0:0:0:0:
448,192,93421,1,0,0:0:0:0:
64,192,93571,1,8,0:0:0:0:
192,192,93571,1,0,0:0:0:0:
320,192,93571,1,0,0:0:0:0:
320,192,93721,1,0,0:0:0:0:
448,192,93796,1,0,0:0:0:0:
64,192,93871,1,8,0:0:0:0:
192,192,93871,1,0,0:0:0:0:
448,192,94021,1,0,0:0:0:0:
64,192,94171,1,8,0:0:0:0:
320,192,94171,1,0,0:0:0:0:
192,192,94321,1,0,0:0:0:0:
320,192,94396,1,0,0:0:0:0:
64,192,94471,1,8,0:0:0:0:
448,192,94471,1,0,0:0:0:0:
320,192,94621,1,0,0:0:0:0:
192,192,94771,1,0,0:0:0:0:
448,192,94771,1,0,0:0:0:0:
64,192,94771,1,8,0:0:0:0:
64,192,94921,1,0,0:0:0:0:
192,192,94996,1,0,0:0:0:0:
320,192,95071,1,0,0:0:0:0:
448,192,95071,1,8,0:0:0:0:
192,192,95221,1,0,0:0:0:0:
64,192,95371,1,8,0:0:0:0:
448,192,95371,1,0,0:0:0:0:
320,192,95521,1,0,0:0:0:0:
192,192,95571,1,0,0:0:0:0:
320,192,95621,1,0,0:0:0:0:
64,192,95671,1,8,0:0:0:0:
448,192,95671,1,0,0:0:0:0:
192,192,95821,1,0,0:0:0:0:
64,192,95971,1,8,0:0:0:0:
320,192,95971,1,0,0:0:0:0:
448,192,95971,1,0,0:0:0:0:
192,192,96121,1,0,0:0:0:0:
320,192,96196,1,0,0:0:0:0:
64,192,96271,1,8,0:0:0:0:
448,192,96271,1,0,0:0:0:0:
320,192,96421,1,0,0:0:0:0:
192,192,96571,1,0,0:0:0:0:
448,192,96571,1,8,0:0:0:0:
64,192,96721,1,2,0:0:0:0:
320,192,96871,1,8,0:0:0:0:
64,192,96871,1,2,0:0:0:0:
192,192,97021,1,0,0:0:0:0:
320,192,97171,1,4,0:0:0:0:
64,192,97171,1,8,0:0:0:0:
448,192,97171,1,0,0:0:0:0:
320,192,97321,1,0,0:0:0:0:
192,192,97396,1,0,0:0:0:0:
64,192,97471,1,8,0:0:0:0:
448,192,97471,1,0,0:0:0:0:
320,192,97621,1,0,0:0:0:0:
64,192,97771,1,8,0:0:0:0:
192,192,97771,1,0,0:0:0:0:
320,192,97921,1,0,0:0:0:0:
448,192,97921,1,0,0:0:0:0:
64,192,97996,1,0,0:0:0:0:
192,192,97996,1,0,0:0:0:0:
320,192,98071,1,0,0:0:0:0:
448,192,98071,1,8,0:0:0:0:
192,192,98221,1,0,0:0:0:0:
320,192,98371,1,0,0:0:0:0:
64,192,98371,1,8,0:0:0:0:
448,192,98371,1,0,0:0:0:0:
192,192,98521,1,0,0:0:0:0:
320,192,98596,1,0,0:0:0:0:
64,192,98671,1,8,0:0:0:0:
448,192,98671,1,0,0:0:0:0:
192,192,98821,1,0,0:0:0:0:
320,192,98971,1,0,0:0:0:0:
448,192,98971,1,8,0:0:0:0:
192,192,99121,1,0,0:0:0:0:
64,192,99121,1,0,0:0:0:0:
320,192,99196,1,0,0:0:0:0:
448,192,99196,1,0,0:0:0:0:
64,192,99271,1,8,0:0:0:0:
192,192,99271,1,0,0:0:0:0:
320,192,99421,1,0,0:0:0:0:
448,192,99571,1,0,0:0:0:0:
192,192,99571,1,0,0:0:0:0:
64,192,99571,1,8,0:0:0:0:
320,192,99721,1,0,0:0:0:0:
192,192,99796,1,0,0:0:0:0:
448,192,99871,1,0,0:0:0:0:
320,192,99871,1,8,0:0:0:0:
192,192,100021,1,0,0:0:0:0:
64,192,100171,1,8,0:0:0:0:
448,192,100171,1,0,0:0:0:0:
320,192,100321,1,0,0:0:0:0:
448,192,100371,1,0,0:0:0:0:
320,192,100421,1,0,0:0:0:0:
64,192,100471,1,8,0:0:0:0:
192,192,100471,1,0,0:0:0:0:
320,192,100621,1,0,0:0:0:0:
64,192,100771,1,8,0:0:0:0:
448,192,100771,1,0,0:0:0:0:
192,192,100771,1,0,0:0:0:0:
320,192,100921,1,0,0:0:0:0:
192,192,100996,1,0,0:0:0:0:
448,192,101071,1,0,0:0:0:0:
64,192,101071,1,8,0:0:0:0:
192,192,101221,1,0,0:0:0:0:
64,192,101371,1,8,0:0:0:0:
448,192,101371,1,0,0:0:0:0:
320,192,101446,1,0,0:0:0:0:
192,192,101521,1,0,0:0:0:0:
64,192,101671,1,8,0:0:0:0:
320,192,101671,1,0,0:0:0:0:
192,192,101821,1,0,0:0:0:0:
64,192,101971,1,8,0:0:0:0:
448,192,101971,1,0,0:0:0:0:
320,192,101971,1,4,0:0:0:0:
64,192,102121,1,8,0:0:0:0:
192,192,102121,1,0,0:0:0:0:
320,192,102196,1,0,0:0:0:0:
64,192,102271,1,8,0:0:0:0:
448,192,102271,1,0,0:0:0:0:
64,192,102421,1,8,0:0:0:0:
320,192,102421,1,0,0:0:0:0:
64,192,102571,1,8,0:0:0:0:
192,192,102571,1,0,0:0:0:0:
64,192,102721,1,8,0:0:0:0:
448,192,102721,1,0,0:0:0:0:
320,192,102796,1,0,0:0:0:0:
64,192,102871,1,8,0:0:0:0:
192,192,102871,1,0,0:0:0:0:
64,192,103021,1,8,0:0:0:0:
320,192,103021,1,0,0:0:0:0:
448,192,103171,1,8,0:0:0:0:
64,192,103171,1,0,0:0:0:0:
192,192,103171,1,4,0:0:0:0:
448,192,103321,1,8,0:0:0:0:
320,192,103321,1,0,0:0:0:0:
192,192,103396,1,0,0:0:0:0:
448,192,103471,1,8,0:0:0:0:
64,192,103471,1,0,0:0:0:0:
448,192,103621,1,8,0:0:0:0:
192,192,103621,1,0,0:0:0:0:
448,192,103771,1,8,0:0:0:0:
320,192,103771,1,0,0:0:0:0:
64,192,103921,1,0,0:0:0:0:
448,192,103921,1,8,0:0:0:0:
192,192,103996,1,0,0:0:0:0:
320,192,104071,1,0,0:0:0:0:
448,192,104071,1,8,0:0:0:0:
448,192,104221,1,8,0:0:0:0:
192,192,104221,1,0,0:0:0:0:
448,192,104371,1,4,0:0:0:0:
64,192,104371,1,0,0:0:0:0:
320,192,104371,1,8,0:0:0:0:
192,192,104446,1,8,0:0:0:0:
320,192,104521,1,8,0:0:0:0:
64,192,104596,1,0,0:0:0:0:
448,192,104596,1,8,0:0:0:0:
320,192,104671,1,8,0:0:0:0:
192,192,104746,1,8,0:0:0:0:
64,192,104821,1,8,0:0:0:0:
448,192,104821,1,0,0:0:0:0:
320,192,104896,1,8,0:0:0:0:
64,192,104971,1,8,0:0:0:0:
192,192,104971,1,4,0:0:0:0:
448,192,104971,1,0,0:0:0:0:
320,192,105046,1,8,0:0:0:0:
64,192,105121,1,8,0:0:0:0:
448,192,105121,1,0,0:0:0:0:
192,192,105171,1,8,0:0:0:0:
320,192,105221,1,8,0:0:0:0:
448,192,105271,1,8,0:0:0:0:
64,192,105271,1,0,0:0:0:0:
192,192,105346,1,8,0:0:0:0:
64,192,105421,1,8,0:0:0:0:
448,192,105421,1,0,0:0:0:0:
320,192,105496,1,8,0:0:0:0:
64,192,105571,1,8,0:0:0:0:
192,192,105571,1,4,0:0:0:0:
448,192,105571,1,0,0:0:0:0:
192,192,105721,1,8,0:0:0:0:
320,192,105721,1,0,0:0:0:0:
448,192,105721,1,4,0:0:0:0:
64,192,105871,1,0,0:0:0:0:
192,192,105871,1,4,0:0:0:0:
320,192,105871,1,8,0:0:0:0:
64,192,106021,1,4,0:0:0:0:
448,192,106021,1,8,0:0:0:0:
192,192,106021,1,0,0:0:0:0:
64,192,106171,128,4,106621:0:0:0:0:
448,192,106171,128,0,106621:0:0:0:0:
320,192,106171,1,8,0:0:0:0:
192,192,106321,1,2,0:0:0:0:
192,192,106471,1,2,0:0:0:0:
448,192,106771,128,0,106921:0:0:0:0:
64,192,106771,1,4,0:0:0:0:
320,192,106771,1,8,0:0:0:0:
192,192,106921,1,0,0:0:0:0:
64,192,106996,128,0,107146:0:0:0:0:
320,192,107071,1,8,0:0:0:0:
448,192,107071,1,0,0:0:0:0:
448,192,107221,128,0,107371:0:0:0:0:
192,192,107221,1,0,0:0:0:0:
64,192,107371,1,0,0:0:0:0:
320,192,107371,1,8,0:0:0:0:
192,192,107521,1,0,0:0:0:0:
64,192,107521,1,0,0:0:0:0:
320,192,107596,1,0,0:0:0:0:
448,192,107596,1,0,0:0:0:0:
64,192,107671,1,8,0:0:0:0:
192,192,107671,1,0,0:0:0:0:
320,192,107821,1,0,0:0:0:0:
64,192,107971,128,0,108121:0:0:0:0:
448,192,107971,1,8,0:0:0:0:
320,192,108121,1,0,0:0:0:0:
448,192,108196,128,0,108346:0:0:0:0:
192,192,108271,1,0,0:0:0:0:
64,192,108271,1,8,0:0:0:0:
64,192,108421,128,0,108571:0:0:0:0:
320,192,108421,1,0,0:0:0:0:
448,192,108571,1,8,0:0:0:0:
192,192,108571,1,0,0:0:0:0:
320,192,108721,1,0,0:0:0:0:
448,192,108721,1,0,0:0:0:0:
192,192,108796,1,0,0:0:0:0:
64,192,108796,1,0,0:0:0:0:
448,192,108871,1,8,0:0:0:0:
320,192,108871,1,0,0:0:0:0:
192,192,109021,1,0,0:0:0:0:
448,192,109171,128,0,109321:0:0:0:0:
64,192,109171,1,8,0:0:0:0:
192,192,109321,1,0,0:0:0:0:
64,192,109396,128,0,109546:0:0:0:0:
320,192,109471,1,0,0:0:0:0:
448,192,109471,1,8,0:0:0:0:
448,192,109621,128,0,109771:0:0:0:0:
192,192,109621,1,0,0:0:0:0:
64,192,109771,128,0,109921:0:0:0:0:
320,192,109771,1,8,0:0:0:0:
320,192,109921,1,0,0:0:0:0:
192,192,109971,1,0,0:0:0:0:
320,192,110021,1,0,0:0:0:0:
448,192,110071,128,0,110221:0:0:0:0:
64,192,110071,1,8,0:0:0:0:
192,192,110221,1,0,0:0:0:0:
64,192,110371,128,0,110521:0:0:0:0:
320,192,110371,1,8,0:0:0:0:
448,192,110521,1,0,0:0:0:0:
192,192,110596,128,0,110746:0:0:0:0:
320,192,110671,1,8,0:0:0:0:
448,192,110671,1,0,0:0:0:0:
320,192,110821,128,0,110971:0:0:0:0:
64,192,110821,1,0,0:0:0:0:
64,192,110971,1,8,0:0:0:0:
192,192,110971,1,0,0:0:0:0:
448,192,111046,128,0,111196:0:0:0:0:
192,192,111121,1,0,0:0:0:0:
64,192,111271,1,0,0:0:0:0:
320,192,111271,1,8,0:0:0:0:
448,192,111421,1,0,0:0:0:0:
64,192,111571,128,0,111721:0:0:0:0:
320,192,111571,1,8,0:0:0:0:
192,192,111721,1,0,0:0:0:0:
64,192,111796,128,0,111946:0:0:0:0:
448,192,111871,1,8,0:0:0:0:
320,192,111871,1,0,0:0:0:0:
64,192,112021,128,0,112171:0:0:0:0:
192,192,112021,1,0,0:0:0:0:
320,192,112171,1,8,0:0:0:0:
448,192,112171,1,0,0:0:0:0:
448,192,112321,1,0,0:0:0:0:
64,192,112321,1,0,0:0:0:0:
320,192,112396,1,0,0:0:0:0:
192,192,112396,1,0,0:0:0:0:
64,192,112471,1,8,0:0:0:0:
448,192,112471,1,0,0:0:0:0:
320,192,112621,1,0,0:0:0:0:
192,192,112771,128,0,112921:0:0:0:0:
64,192,112771,1,8,0:0:0:0:
320,192,112921,1,0,0:0:0:0:
448,192,112996,128,0,113146:0:0:0:0:
64,192,113071,1,0,0:0:0:0:
192,192,113071,1,8,0:0:0:0:
320,192,113221,128,0,113371:0:0:0:0:
448,192,113221,1,0,0:0:0:0:
64,192,113371,128,0,113521:0:0:0:0:
192,192,113371,1,8,0:0:0:0:
448,192,113521,1,0,0:0:0:0:
320,192,113596,128,0,113746:0:0:0:0:
64,192,113671,1,8,0:0:0:0:
192,192,113671,1,0,0:0:0:0:
192,192,113821,128,0,113971:0:0:0:0:
448,192,113821,1,0,0:0:0:0:
448,192,113971,128,0,114121:0:0:0:0:
64,192,113971,1,8,0:0:0:0:
192,192,114121,1,0,0:0:0:0:
64,192,114196,128,0,114346:0:0:0:0:
448,192,114271,1,8,0:0:0:0:
320,192,114271,1,0,0:0:0:0:
320,192,114421,128,0,114571:0:0:0:0:
64,192,114421,1,0,0:0:0:0:
192,192,114571,128,0,114721:0:0:0:0:
448,192,114571,1,8,0:0:0:0:
320,192,114721,1,0,0:0:0:0:
448,192,114771,1,0,0:0:0:0:
320,192,114821,1,0,0:0:0:0:
64,192,114871,1,8,0:0:0:0:
192,192,114871,1,0,0:0:0:0:
320,192,115021,1,0,0:0:0:0:
448,192,115171,128,0,115321:0:0:0:0:
64,192,115171,1,8,0:0:0:0:
192,192,115321,1,0,0:0:0:0:
64,192,115396,128,0,115546:0:0:0:0:
320,192,115471,1,0,0:0:0:0:
448,192,115471,1,8,0:0:0:0:
192,192,115621,128,0,115771:0:0:0:0:
64,192,115621,1,0,0:0:0:0:
320,192,115771,128,0,115921:0:0:0:0:
448,192,115771,1,8,0:0:0:0:
64,192,115921,1,2,0:0:0:0:
448,192,116071,1,8,0:0:0:0:
64,192,116071,1,2,0:0:0:0:
192,192,116221,1,0,0:0:0:0:
448,192,116371,128,0,116521:0:0:0:0:
64,192,116371,1,4,0:0:0:0:
320,192,116371,1,8,0:0:0:0:
192,192,116521,1,0,0:0:0:0:
64,192,116596,128,0,116746:0:0:0:0:
320,192,116671,1,8,0:0:0:0:
448,192,116671,1,0,0:0:0:0:
448,192,116821,128,0,116971:0:0:0:0:
192,192,116821,1,0,0:0:0:0:
64,192,116971,1,0,0:0:0:0:
320,192,116971,1,8,0:0:0:0:
320,192,117121,1,0,0:0:0:0:
448,192,117121,1,0,0:0:0:0:
64,192,117196,1,0,0:0:0:0:
192,192,117196,1,0,0:0:0:0:
448,192,117271,1,0,0:0:0:0:
320,192,117271,1,8,0:0:0:0:
192,192,117421,1,0,0:0:0:0:
64,192,117571,128,0,117721:0:0:0:0:
448,192,117571,1,0,0:0:0:0:
192,192,117571,1,8,0:0:0:0:
320,192,117721,1,0,0:0:0:0:
448,192,117796,128,0,117946:0:0:0:0:
64,192,117871,1,0,0:0:0:0:
192,192,117871,1,8,0:0:0:0:
64,192,118021,128,0,118171:0:0:0:0:
320,192,118021,1,0,0:0:0:0:
192,192,118171,1,8,0:0:0:0:
448,192,118171,1,0,0:0:0:0:
64,192,118321,1,0,0:0:0:0:
192,192,118321,1,0,0:0:0:0:
320,192,118396,1,0,0:0:0:0:
448,192,118396,1,0,0:0:0:0:
64,192,118471,1,0,0:0:0:0:
192,192,118471,1,8,0:0:0:0:
320,192,118621,1,0,0:0:0:0:
448,192,118771,128,0,118921:0:0:0:0:
64,192,118771,1,0,0:0:0:0:
192,192,118771,1,8,0:0:0:0:
320,192,118921,1,0,0:0:0:0:
64,192,118996,128,0,119146:0:0:0:0:
448,192,119071,1,0,0:0:0:0:
320,192,119071,1,8,0:0:0:0:
448,192,119221,128,0,119371:0:0:0:0:
192,192,119221,1,0,0:0:0:0:
64,192,119371,128,0,119521:0:0:0:0:
192,192,119371,1,8,0:0:0:0:
320,192,119371,1,0,0:0:0:0:
320,192,119521,1,0,0:0:0:0:
192,192,119571,1,0,0:0:0:0:
320,192,119621,1,0,0:0:0:0:
448,192,119671,128,0,119821:0:0:0:0:
64,192,119671,1,8,0:0:0:0:
320,192,119821,1,0,0:0:0:0:
64,192,119971,128,0,120121:0:0:0:0:
448,192,119971,1,8,0:0:0:0:
192,192,119971,1,0,0:0:0:0:
320,192,120121,1,0,0:0:0:0:
192,192,120196,128,0,120346:0:0:0:0:
448,192,120271,1,0,0:0:0:0:
320,192,120271,1,8,0:0:0:0:
320,192,120421,128,0,120571:0:0:0:0:
64,192,120421,1,0,0:0:0:0:
64,192,120571,1,8,0:0:0:0:
192,192,120571,1,0,0:0:0:0:
448,192,120646,128,0,120796:0:0:0:0:
320,192,120721,1,0,0:0:0:0:
64,192,120871,1,0,0:0:0:0:
320,192,120871,1,0,0:0:0:0:
192,192,120871,1,8,0:0:0:0:
448,192,121021,1,0,0:0:0:0:
192,192,121021,1,0,0:0:0:0:
64,192,121171,1,8,0:0:0:0:
320,192,121171,1,4,0:0:0:0:
448,192,121171,1,0,0:0:0:0:
64,192,121321,1,8,0:0:0:0:
192,192,121321,1,0,0:0:0:0:
320,192,121396,1,0,0:0:0:0:
64,192,121471,1,8,0:0:0:0:
448,192,121471,1,0,0:0:0:0:
64,192,121621,1,8,0:0:0:0:
192,192,121621,1,0,0:0:0:0:
64,192,121771,1,8,0:0:0:0:
320,192,121771,1,0,0:0:0:0:
64,192,121921,1,8,0:0:0:0:
448,192,121921,1,0,0:0:0:0:
320,192,121996,1,0,0:0:0:0:
64,192,122071,1,8,0:0:0:0:
192,192,122071,1,0,0:0:0:0:
64,192,122221,1,8,0:0:0:0:
320,192,122221,1,0,0:0:0:0:
448,192,122371,1,8,0:0:0:0:
192,192,122371,1,4,0:0:0:0:
64,192,122371,1,0,0:0:0:0:
448,192,122521,1,8,0:0:0:0:
320,192,122521,1,0,0:0:0:0:
192,192,122596,1,0,0:0:0:0:
448,192,122671,1,8,0:0:0:0:
64,192,122671,1,0,0:0:0:0:
448,192,122821,1,8,0:0:0:0:
192,192,122821,1,0,0:0:0:0:
448,192,122971,1,8,0:0:0:0:
320,192,122971,1,0,0:0:0:0:
448,192,123121,1,8,0:0:0:0:
64,192,123121,1,0,0:0:0:0:
192,192,123196,1,0,0:0:0:0:
448,192,123271,1,8,0:0:0:0:
320,192,123271,1,0,0:0:0:0:
448,192,123421,1,8,0:0:0:0:
192,192,123421,1,0,0:0:0:0:
320,192,123571,1,8,0:0:0:0:
448,192,123571,1,4,0:0:0:0:
64,192,123571,1,0,0:0:0:0:
192,192,123646,1,8,0:0:0:0:
320,192,123721,1,8,0:0:0:0:
64,192,123796,1,0,0:0:0:0:
192,192,123796,1,8,0:0:0:0:
448,192,123796,1,0,0:0:0:0:
320,192,123871,1,8,0:0:0:0:
192,192,123946,1,8,0:0:0:0:
448,192,124021,1,0,0:0:0:0:
64,192,124021,1,0,0:0:0:0:
320,192,124021,1,8,0:0:0:0:
192,192,124096,1,8,0:0:0:0:
320,192,124171,1,8,0:0:0:0:
448,192,124171,1,4,0:0:0:0:
64,192,124246,1,0,0:0:0:0:
192,192,124246,1,8,0:0:0:0:
320,192,124321,1,8,0:0:0:0:
448,192,124321,1,0,0:0:0:0:
64,192,124396,1,0,0:0:0:0:
192,192,124396,1,8,0:0:0:0:
320,192,124471,1,8,0:0:0:0:
448,192,124471,1,0,0:0:0:0:
64,192,124546,1,0,0:0:0:0:
192,192,124546,1,8,0:0:0:0:
320,192,124621,1,8,0:0:0:0:
448,192,124621,1,0,0:0:0:0:
192,192,124696,1,8,0:0:0:0:
64,192,124696,1,0,0:0:0:0:
64,192,124771,1,4,0:0:0:0:
320,192,124771,1,0,0:0:0:0:
448,192,124771,1,8,0:0:0:0:
64,192,124921,1,4,0:0:0:0:
192,192,124921,1,0,0:0:0:0:
448,192,124921,1,8,0:0:0:0:
192,192,125071,1,4,0:0:0:0:
320,192,125071,1,0,0:0:0:0:
448,192,125071,1,8,0:0:0:0:
64,192,125221,1,8,0:0:0:0:
192,192,125221,1,0,0:0:0:0:
320,192,125221,1,4,0:0:0:0:
320,192,125371,1,4,0:0:0:0:
64,192,125371,128,8,125821:0:0:0:0:
448,192,125371,128,0,125821:0:0:0:0:
192,192,125521,1,2,0:0:0:0:
192,192,125671,1,2,0:0:0:0:
192,192,125971,1,4,0:0:0:0:
320,192,125971,1,2,0:0:0:0:
64,192,125971,1,8,0:0:0:0:
448,192,125971,1,0,0:0:0:0:
