osu file format v14

[General]
AudioFilename: audio.mp3
AudioLeadIn: 0
PreviewTime: 10699
Countdown: 0
SampleSet: Soft
StackLeniency: 0.7
Mode: 3
LetterboxInBreaks: 0
SpecialStyle: 0
WidescreenStoryboard: 1

[Editor]
Bookmarks: 1174,10774,20374,29974,39574,49174,58774,68374,77974,87574,97174,106774,116374,125974
DistanceSpacing: 0.8
BeatDivisor: 4
GridSize: 8
TimelineZoom: 2.999999

[Metadata]
Title:Nadeshiko Sensation
TitleUnicode:Nadeshiko Sensation
Artist:yuki.
ArtistUnicode:yuki.
Creator:LordRaika
Version:9K Extra
Source:
Tags:
BeatmapID:1177371
BeatmapSetID:556303

[Difficulty]
HPDrainRate:8.3
CircleSize:9
OverallDifficulty:8.1
ApproachRate:5
SliderMultiplier:1.4
SliderTickRate:1

[Events]
//Background and Video events
0,0,"Nadeshiko Sensation B.jpg",0,0
//Break Periods
//Storyboard Layer 0 (Background)
//Storyboard Layer 1 (Fail)
//Storyboard Layer 2 (Pass)
//Storyboard Layer 3 (Foreground)
//Storyboard Sound Samples

[TimingPoints]
1174,300,4,2,0,5,1,0
1174,-100,4,2,0,5,0,0
1192,-45.4545454545455,4,2,0,5,0,0
1211,-250,4,2,0,5,0,0
1249,-62.5,4,2,0,5,0,0
1286,-250,4,2,0,5,0,0
1324,-62.5,4,2,0,5,0,0
1361,-250,4,2,0,5,0,0
1399,-62.5,4,2,0,5,0,0
1436,-250,4,2,0,5,0,0
1474,-100,4,2,0,5,0,0
1624,-62.5,4,2,0,5,0,0
1661,-250,4,2,0,5,0,0
1699,-62.5,4,2,0,5,0,0
1736,-250,4,2,0,5,0,0
1774,-62.5,4,2,0,5,0,0
1811,-250,4,2,0,5,0,0
1849,-62.5,4,2,0,5,0,0
1886,-250,4,2,0,5,0,0
1924,-100,4,2,0,5,0,0
2074,-222.222222222222,4,2,0,5,0,0
2149,-64.5161290322581,4,2,0,5,0,0
2224,-100,4,2,0,5,0,0
2374,-62.5,4,2,0,5,0,0
2411,-250,4,2,0,5,0,0
2449,-62.5,4,2,0,5,0,0
2486,-250,4,2,0,5,0,0
2524,-62.5,4,2,0,5,0,0
2561,-250,4,2,0,5,0,0
2599,-62.5,4,2,0,5,0,0
2636,-250,4,2,0,5,0,0
2674,-100,4,2,0,5,0,0
2824,-62.5,4,2,0,5,0,0
2861,-250,4,2,0,5,0,0
2899,-62.5,4,2,0,5,0,0
2936,-250,4,2,0,5,0,0
2974,-62.5,4,2,0,5,0,0
3011,-250,4,2,0,5,0,0
3049,-62.5,4,2,0,5,0,0
3086,-250,4,2,0,5,0,0
3124,-100,4,2,0,5,0,0
3574,-62.5,4,2,0,5,0,0
3611,-250,4,2,0,5,0,0
3649,-62.5,4,2,0,5,0,0
3686,-250,4,2,0,5,0,0
3724,-62.5,4,2,0,5,0,0
3761,-250,4,2,0,5,0,0
3799,-62.5,4,2,0,5,0,0
3836,-250,4,2,0,5,0,0
3874,-100,4,2,0,5,0,0
4024,-62.5,4,2,0,5,0,0
4061,-250,4,2,0,5,0,0
4099,-62.5,4,2,0,5,0,0
4136,-250,4,2,0,5,0,0
4174,-62.5,4,2,0,5,0,0
4211,-250,4,2,0,5,0,0
4249,-62.5,4,2,0,5,0,0
4286,-250,4,2,0,5,0,0
4324,-100,4,2,0,5,0,0
4774,-62.5,4,2,0,5,0,0
4811,-250,4,2,0,5,0,0
4849,-62.5,4,2,0,5,0,0
4886,-250,4,2,0,5,0,0
4924,-62.5,4,2,0,5,0,0
4961,-250,4,2,0,5,0,0
4999,-62.5,4,2,0,5,0,0
5036,-250,4,2,0,5,0,0
5074,-100,4,2,0,5,0,0
5224,-62.5,4,2,0,5,0,0
5261,-250,4,2,0,5,0,0
5299,-62.5,4,2,0,5,0,0
5336,-250,4,2,0,5,0,0
5374,-62.5,4,2,0,5,0,0
5411,-250,4,2,0,5,0,0
5449,-62.5,4,2,0,5,0,0
5486,-250,4,2,0,5,0,0
5524,-100,4,2,0,5,0,0
5674,-222.222222222222,4,2,0,5,0,0
5749,-64.5161290322581,4,2,0,5,0,0
5824,-100,4,2,0,5,0,0
5974,-62.5,4,2,0,5,0,0
6049,-250,4,2,0,5,0,0
6124,-100,4,2,0,5,0,0
6274,-74.0740740740741,4,2,0,5,0,0
6311,-153.846153846154,4,2,0,5,0,0
6349,-100,4,2,0,5,0,0
6574,-74.0740740740741,4,2,0,5,0,0
6611,-153.846153846154,4,2,0,5,0,0
6649,-100,4,2,0,5,0,0
6874,-74.0740740740741,4,2,0,5,0,0
6911,-153.846153846154,4,2,0,5,0,0
6949,-100,4,2,0,5,0,0
7174,-62.5,4,2,0,5,0,0
7249,-250,4,2,0,5,0,0
7324,-100,4,2,0,5,0,0
7474,-74.0740740740741,4,2,0,5,0,0
7511,-153.846153846154,4,2,0,5,0,0
7549,-100,4,2,0,5,0,0
7774,-74.0740740740741,4,2,0,5,0,0
7811,-153.846153846154,4,2,0,5,0,0
7849,-100,4,2,0,5,0,0
8074,-74.0740740740741,4,2,0,5,0,0
8111,-153.846153846154,4,2,0,5,0,0
8149,-100,4,2,0,5,0,0
8374,-62.5,4,2,0,5,0,0
8449,-250,4,2,0,5,0,0
8524,-74.0740740740741,4,2,0,5,0,0
8561,-153.846153846154,4,2,0,5,0,0
8599,-100,4,2,0,5,0,0
8674,-74.0740740740741,4,2,0,5,0,0
8711,-153.846153846154,4,2,0,5,0,0
8749,-100,4,2,0,5,0,0
8824,-74.0740740740741,4,2,0,5,0,0
8861,-153.846153846154,4,2,0,5,0,0
8899,-100,4,2,0,5,0,0
8974,-58.8235294117647,4,2,0,5,0,0
9011,-333.333333333333,4,2,0,5,0,0
9049,-74.0740740740741,4,2,0,5,0,0
9086,-153.846153846154,4,2,0,5,0,0
9124,-74.0740740740741,4,2,0,5,0,0
9149,-153.846153846154,4,2,0,5,0,0
9174,-100,4,2,0,5,0,0
9224,-74.0740740740741,4,2,0,5,0,0
9249,-153.846153846154,4,2,0,5,0,0
9274,-74.0740740740741,4,2,0,5,0,0
9311,-153.846153846154,4,2,0,5,0,0
9349,-74.0740740740741,4,2,0,5,0,0
9386,-153.846153846154,4,2,0,5,0,0
9424,-74.0740740740741,4,2,0,5,0,0
9461,-153.846153846154,4,2,0,5,0,0
9499,-74.0740740740741,4,2,0,5,0,0
9536,-153.846153846154,4,2,0,5,0,0
9574,-41.6666666666667,4,2,0,5,0,0
9592,-100,4,2,0,5,0,0
10474,-222.222222222222,4,2,0,5,0,0
10549,-64.5161290322581,4,2,0,5,0,0
10624,-100,4,2,0,5,0,0
10774,-62.5,4,2,0,5,0,1
10849,-250,4,2,0,5,0,1
10924,-100,4,2,0,5,0,1
11974,-74.0740740740741,4,2,0,5,0,1
12011,-153.846153846154,4,2,0,5,0,1
12049,-100,4,2,0,5,0,1
13174,-74.0740740740741,4,2,0,5,0,1
13211,-153.846153846154,4,2,0,5,0,1
13249,-100,4,2,0,5,0,1
14374,-74.0740740740741,4,2,0,5,0,1
14411,-153.846153846154,4,2,0,5,0,1
14449,-100,4,2,0,5,0,1
15574,-74.0740740740741,4,2,0,5,0,1
15611,-153.846153846154,4,2,0,5,0,1
15649,-100,4,2,0,5,0,1
16774,-74.0740740740741,4,2,0,5,0,1
16811,-153.846153846154,4,2,0,5,0,1
16849,-100,4,2,0,5,0,1
17974,-74.0740740740741,4,2,0,5,0,1
18011,-153.846153846154,4,2,0,5,0,1
18049,-100,4,2,0,5,0,1
19174,-74.0740740740741,4,2,0,5,0,1
19211,-153.846153846154,4,2,0,5,0,1
19249,-100,4,2,0,5,0,1
19924,-222.222222222222,4,2,0,5,0,1
19961,-64.5161290322581,4,2,0,5,0,1
19999,-100,4,2,0,5,0,1
20074,-222.222222222222,4,2,0,5,0,1
20111,-64.5161290322581,4,2,0,5,0,1
20149,-100,4,2,0,5,0,1
20374,-62.5,4,2,0,5,0,1
20411,-250,4,2,0,5,0,1
20449,-100,4,2,0,5,0,1
21574,-74.0740740740741,4,2,0,5,0,1
21611,-153.846153846154,4,2,0,5,0,1
21649,-100,4,2,0,5,0,1
22774,-74.0740740740741,4,2,0,5,0,1
22811,-153.846153846154,4,2,0,5,0,1
22849,-100,4,2,0,5,0,1
23974,-74.0740740740741,4,2,0,5,0,1
24011,-153.846153846154,4,2,0,5,0,1
24049,-100,4,2,0,5,0,1
25174,-62.5,4,2,0,5,0,1
25211,-250,4,2,0,5,0,1
25249,-100,4,2,0,5,0,1
25324,-83.3333333333333,4,2,0,5,0,1
25361,-125,4,2,0,5,0,1
25399,-100,4,2,0,5,0,1
25474,-83.3333333333333,4,2,0,5,0,1
25511,-125,4,2,0,5,0,1
25549,-100,4,2,0,5,0,1
25624,-83.3333333333333,4,2,0,5,0,1
25661,-125,4,2,0,5,0,1
25699,-100,4,2,0,5,0,1
25774,-83.3333333333333,4,2,0,5,0,1
25811,-125,4,2,0,5,0,1
25849,-100,4,2,0,5,0,1
25924,-83.3333333333333,4,2,0,5,0,1
25961,-125,4,2,0,5,0,1
25999,-100,4,2,0,5,0,1
26074,-153.846153846154,4,2,0,5,0,1
26111,-74.0740740740741,4,2,0,5,0,1
26149,-100,4,2,0,5,0,1
26224,-83.3333333333333,4,2,0,5,0,1
26261,-125,4,2,0,5,0,1
26299,-100,4,2,0,5,0,1
26374,-62.5,4,2,0,5,0,1
26411,-250,4,2,0,5,0,1
26449,-100,4,2,0,5,0,1
26524,-83.3333333333333,4,2,0,5,0,1
26561,-125,4,2,0,5,0,1
26599,-100,4,2,0,5,0,1
26674,-83.3333333333333,4,2,0,5,0,1
26711,-125,4,2,0,5,0,1
26749,-100,4,2,0,5,0,1
26824,-83.3333333333333,4,2,0,5,0,1
26861,-125,4,2,0,5,0,1
26899,-100,4,2,0,5,0,1
26974,-83.3333333333333,4,2,0,5,0,1
27011,-125,4,2,0,5,0,1
27049,-100,4,2,0,5,0,1
27124,-83.3333333333333,4,2,0,5,0,1
27161,-125,4,2,0,5,0,1
27199,-100,4,2,0,5,0,1
27274,-153.846153846154,4,2,0,5,0,1
27311,-74.0740740740741,4,2,0,5,0,1
27349,-100,4,2,0,5,0,1
27424,-83.3333333333333,4,2,0,5,0,1
27461,-125,4,2,0,5,0,1
27499,-100,4,2,0,5,0,1
27574,-62.5,4,2,0,5,0,1
27611,-250,4,2,0,5,0,1
27649,-100,4,2,0,5,0,1
27724,-74.0740740740741,4,2,0,5,0,1
27761,-153.846153846154,4,2,0,5,0,1
27799,-100,4,2,0,5,0,1
27874,-74.0740740740741,4,2,0,5,0,1
27911,-153.846153846154,4,2,0,5,0,1
27949,-100,4,2,0,5,0,1
28024,-153.846153846154,4,2,0,5,0,1
28061,-74.0740740740741,4,2,0,5,0,1
28099,-100,4,2,0,5,0,1
28174,-62.5,4,2,0,5,0,1
28211,-250,4,2,0,5,0,1
28249,-100,4,2,0,5,0,1
28324,-74.0740740740741,4,2,0,5,0,1
28361,-153.846153846154,4,2,0,5,0,1
28399,-100,4,2,0,5,0,1
28474,-74.0740740740741,4,2,0,5,0,1
28511,-153.846153846154,4,2,0,5,0,1
28549,-100,4,2,0,5,0,1
28624,-153.846153846154,4,2,0,5,0,1
28661,-74.0740740740741,4,2,0,5,0,1
28699,-100,4,2,0,5,0,1
28774,-58.8235294117647,4,2,0,5,0,1
28811,-333.333333333333,4,2,0,5,0,1
28849,-74.0740740740741,4,2,0,5,0,1
28886,-153.846153846154,4,2,0,5,0,1
28924,-74.0740740740741,4,2,0,5,0,1
28961,-153.846153846154,4,2,0,5,0,1
28999,-74.0740740740741,4,2,0,5,0,1
29036,-153.846153846154,4,2,0,5,0,1
29074,-58.8235294117647,4,2,0,5,0,1
29111,-333.333333333333,4,2,0,5,0,1
29149,-74.0740740740741,4,2,0,5,0,1
29186,-153.846153846154,4,2,0,5,0,1
29224,-74.0740740740741,4,2,0,5,0,1
29261,-153.846153846154,4,2,0,5,0,1
29299,-74.0740740740741,4,2,0,5,0,1
29336,-153.846153846154,4,2,0,5,0,1
29374,-41.6666666666667,4,2,0,5,0,1
29392,-100,4,2,0,5,0,1
29524,-222.222222222222,4,2,0,5,0,1
29599,-64.5161290322581,4,2,0,5,0,1
29674,-222.222222222222,4,2,0,5,0,1
29749,-64.5161290322581,4,2,0,5,0,1
29824,-100,4,2,0,5,0,1
29974,-62.5,4,2,0,5,0,0
30049,-250,4,2,0,5,0,0
30124,-100,4,2,0,5,0,0
30874,-74.0740740740741,4,2,0,5,0,0
30911,-153.846153846154,4,2,0,5,0,0
30949,-100,4,2,0,5,0,0
32074,-74.0740740740741,4,2,0,5,0,0
32111,-153.846153846154,4,2,0,5,0,0
32149,-100,4,2,0,5,0,0
33274,-74.0740740740741,4,2,0,5,0,0
33311,-153.846153846154,4,2,0,5,0,0
33349,-100,4,2,0,5,0,0
34474,-74.0740740740741,4,2,0,5,0,0
34511,-153.846153846154,4,2,0,5,0,0
34549,-100,4,2,0,5,0,0
35674,-74.0740740740741,4,2,0,5,0,0
35711,-153.846153846154,4,2,0,5,0,0
35749,-100,4,2,0,5,0,0
36874,-74.0740740740741,4,2,0,5,0,0
36911,-153.846153846154,4,2,0,5,0,0
36949,-100,4,2,0,5,0,0
38074,-74.0740740740741,4,2,0,5,0,0
38111,-153.846153846154,4,2,0,5,0,0
38149,-100,4,2,0,5,0,0
39274,-74.0740740740741,4,2,0,5,0,0
39311,-153.846153846154,4,2,0,5,0,0
39349,-100,4,2,0,5,0,0
39574,-62.5,4,2,0,5,0,0
39611,-250,4,2,0,5,0,0
39649,-100,4,2,0,5,0,0
40474,-74.0740740740741,4,2,0,5,0,0
40511,-153.846153846154,4,2,0,5,0,0
40549,-100,4,2,0,5,0,0
41674,-74.0740740740741,4,2,0,5,0,0
41711,-153.846153846154,4,2,0,5,0,0
41749,-100,4,2,0,5,0,0
42874,-74.0740740740741,4,2,0,5,0,0
42911,-153.846153846154,4,2,0,5,0,0
42949,-100,4,2,0,5,0,0
44074,-74.0740740740741,4,2,0,5,0,0
44111,-153.846153846154,4,2,0,5,0,0
44149,-100,4,2,0,5,0,0
44374,-62.5,4,2,0,5,0,0
44411,-250,4,2,0,5,0,0
44449,-100,4,2,0,5,0,0
44524,-83.3333333333333,4,2,0,5,0,0
44561,-125,4,2,0,5,0,0
44599,-100,4,2,0,5,0,0
44674,-83.3333333333333,4,2,0,5,0,0
44711,-125,4,2,0,5,0,0
44749,-100,4,2,0,5,0,0
44824,-83.3333333333333,4,2,0,5,0,0
44861,-125,4,2,0,5,0,0
44899,-100,4,2,0,5,0,0
44974,-83.3333333333333,4,2,0,5,0,0
45011,-125,4,2,0,5,0,0
45049,-100,4,2,0,5,0,0
45124,-83.3333333333333,4,2,0,5,0,0
45161,-125,4,2,0,5,0,0
45199,-100,4,2,0,5,0,0
45274,-153.846153846154,4,2,0,5,0,0
45311,-74.0740740740741,4,2,0,5,0,0
45349,-100,4,2,0,5,0,0
45424,-83.3333333333333,4,2,0,5,0,0
45461,-125,4,2,0,5,0,0
45499,-100,4,2,0,5,0,0
45574,-62.5,4,2,0,5,0,0
45611,-250,4,2,0,5,0,0
45649,-100,4,2,0,5,0,0
45724,-83.3333333333333,4,2,0,5,0,0
45761,-125,4,2,0,5,0,0
45799,-100,4,2,0,5,0,0
45874,-83.3333333333333,4,2,0,5,0,0
45911,-125,4,2,0,5,0,0
45949,-100,4,2,0,5,0,0
46024,-83.3333333333333,4,2,0,5,0,0
46061,-125,4,2,0,5,0,0
46099,-100,4,2,0,5,0,0
46174,-83.3333333333333,4,2,0,5,0,0
46211,-125,4,2,0,5,0,0
46249,-100,4,2,0,5,0,0
46324,-83.3333333333333,4,2,0,5,0,0
46361,-125,4,2,0,5,0,0
46399,-100,4,2,0,5,0,0
46474,-153.846153846154,4,2,0,5,0,0
46511,-74.0740740740741,4,2,0,5,0,0
46549,-100,4,2,0,5,0,0
46624,-83.3333333333333,4,2,0,5,0,0
46661,-125,4,2,0,5,0,0
46699,-100,4,2,0,5,0,0
46774,-58.8235294117647,4,2,0,5,0,0
46811,-333.333333333333,4,2,0,5,0,0
46849,-66.6666666666667,4,2,0,5,0,0
46886,-200,4,2,0,5,0,0
46924,-68.9655172413793,4,2,0,5,0,0
46961,-181.818181818182,4,2,0,5,0,0
46999,-71.4285714285714,4,2,0,5,0,0
47036,-166.666666666667,4,2,0,5,0,0
47074,-74.0740740740741,4,2,0,5,0,0
47111,-153.846153846154,4,2,0,5,0,0
47149,-76.9230769230769,4,2,0,5,0,0
47186,-142.857142857143,4,2,0,5,0,0
47224,-80,4,2,0,5,0,0
47261,-133.333333333333,4,2,0,5,0,0
47299,-83.3333333333333,4,2,0,5,0,0
47336,-125,4,2,0,5,0,0
47374,-58.8235294117647,4,2,0,5,0,0
47411,-333.333333333333,4,2,0,5,0,0
47449,-66.6666666666667,4,2,0,5,0,0
47486,-200,4,2,0,5,0,0
47524,-68.9655172413793,4,2,0,5,0,0
47561,-181.818181818182,4,2,0,5,0,0
47599,-71.4285714285714,4,2,0,5,0,0
47636,-166.666666666667,4,2,0,5,0,0
47674,-74.0740740740741,4,2,0,5,0,0
47711,-153.846153846154,4,2,0,5,0,0
47749,-76.9230769230769,4,2,0,5,0,0
47786,-142.857142857143,4,2,0,5,0,0
47824,-80,4,2,0,5,0,0
47861,-133.333333333333,4,2,0,5,0,0
47899,-83.3333333333333,4,2,0,5,0,0
47936,-125,4,2,0,5,0,0
47974,-66.6666666666667,4,2,0,5,0,0
48011,-200,4,2,0,5,0,0
48049,-100,4,2,0,5,0,0
48161,-74.0740740740741,4,2,0,5,0,0
48199,-153.846153846154,4,2,0,5,0,0
48236,-100,4,2,0,5,0,0
48311,-74.0740740740741,4,2,0,5,0,0
48349,-153.846153846154,4,2,0,5,0,0
48386,-100,4,2,0,5,0,0
48461,-74.0740740740741,4,2,0,5,0,0
48499,-153.846153846154,4,2,0,5,0,0
48536,-100,4,2,0,5,0,0
48611,-74.0740740740741,4,2,0,5,0,0
48649,-153.846153846154,4,2,0,5,0,0
48686,-100,4,2,0,5,0,0
48761,-74.0740740740741,4,2,0,5,0,0
48799,-153.846153846154,4,2,0,5,0,0
48836,-100,4,2,0,5,0,0
48911,-74.0740740740741,4,2,0,5,0,0
48949,-153.846153846154,4,2,0,5,0,0
48986,-100,4,2,0,5,0,0
49061,-74.0740740740741,4,2,0,5,0,0
49099,-153.846153846154,4,2,0,5,0,0
49136,-100,4,2,0,5,0,0
49174,-50.251256281407,4,2,0,5,0,1
49211,-10000,4,2,0,5,0,1
49249,-62.5,4,2,0,5,0,0
49286,-250,4,2,0,5,0,0
49324,-62.5,4,2,0,5,0,0
49361,-250,4,2,0,5,0,0
49399,-62.5,4,2,0,5,0,0
49436,-250,4,2,0,5,0,0
49474,-100,4,2,0,5,0,0
51574,-50.251256281407,4,2,0,5,0,0
51611,-10000,4,2,0,5,0,0
51649,-62.5,4,2,0,5,0,0
51686,-250,4,2,0,5,0,0
51724,-62.5,4,2,0,5,0,0
51761,-250,4,2,0,5,0,0
51799,-62.5,4,2,0,5,0,0
51836,-250,4,2,0,5,0,0
51874,-66.6666666666667,4,2,0,5,0,0
51911,-200,4,2,0,5,0,0
51949,-100,4,2,0,5,0,0
52099,-66.6666666666667,4,2,0,5,0,0
52136,-200,4,2,0,5,0,0
52174,-66.6666666666667,4,2,0,5,0,0
52211,-200,4,2,0,5,0,0
52249,-100,4,2,0,5,0,0
52474,-66.6666666666667,4,2,0,5,0,0
52511,-200,4,2,0,5,0,0
52549,-100,4,2,0,5,0,0
52774,-66.6666666666667,4,2,0,5,0,0
52811,-200,4,2,0,5,0,0
52849,-100,4,2,0,5,0,0
52999,-66.6666666666667,4,2,0,5,0,0
53036,-200,4,2,0,5,0,0
53074,-66.6666666666667,4,2,0,5,0,0
53111,-200,4,2,0,5,0,0
53149,-100,4,2,0,5,0,0
53299,-66.6666666666667,4,2,0,5,0,0
53336,-200,4,2,0,5,0,0
53374,-66.6666666666667,4,2,0,5,0,0
53411,-200,4,2,0,5,0,0
53449,-100,4,2,0,5,0,0
53674,-153.846153846154,4,2,0,5,0,0
53749,-74.0740740740741,4,2,0,5,0,0
53824,-100,4,2,0,5,0,0
53974,-50.251256281407,4,2,0,5,0,0
54011,-10000,4,2,0,5,0,0
54049,-62.5,4,2,0,5,0,0
54086,-250,4,2,0,5,0,0
54124,-62.5,4,2,0,5,0,0
54161,-250,4,2,0,5,0,0
54199,-62.5,4,2,0,5,0,0
54236,-250,4,2,0,5,0,0
54274,-100,4,2,0,5,0,0
56374,-50.251256281407,4,2,0,5,0,0
56411,-10000,4,2,0,5,0,0
56449,-62.5,4,2,0,5,0,0
56486,-250,4,2,0,5,0,0
56524,-62.5,4,2,0,5,0,0
56561,-250,4,2,0,5,0,0
56599,-62.5,4,2,0,5,0,0
56636,-250,4,2,0,5,0,0
56674,-66.6666666666667,4,2,0,5,0,0
56711,-200,4,2,0,5,0,0
56749,-100,4,2,0,5,0,0
56899,-66.6666666666667,4,2,0,5,0,0
56936,-200,4,2,0,5,0,0
56974,-66.6666666666667,4,2,0,5,0,0
57011,-200,4,2,0,5,0,0
57049,-100,4,2,0,5,0,0
57274,-66.6666666666667,4,2,0,5,0,0
57311,-200,4,2,0,5,0,0
57349,-100,4,2,0,5,0,0
57574,-66.6666666666667,4,2,0,5,0,0
57611,-200,4,2,0,5,0,0
57649,-100,4,2,0,5,0,0
57799,-66.6666666666667,4,2,0,5,0,0
57836,-200,4,2,0,5,0,0
57874,-66.6666666666667,4,2,0,5,0,0
57911,-200,4,2,0,5,0,0
57949,-100,4,2,0,5,0,0
58099,-66.6666666666667,4,2,0,5,0,0
58136,-200,4,2,0,5,0,0
58174,-66.6666666666667,4,2,0,5,0,0
58211,-200,4,2,0,5,0,0
58249,-100,4,2,0,5,0,0
58474,-153.846153846154,4,2,0,5,0,0
58549,-74.0740740740741,4,2,0,5,0,0
58624,-100,4,2,0,5,0,0
58774,-68.9655172413793,4,2,0,5,0,0
58811,-181.818181818182,4,2,0,5,0,0
58849,-68.9655172413793,4,2,0,5,0,0
58886,-181.818181818182,4,2,0,5,0,0
58924,-68.9655172413793,4,2,0,5,0,0
58961,-181.818181818182,4,2,0,5,0,0
58999,-68.9655172413793,4,2,0,5,0,0
59036,-181.818181818182,4,2,0,5,0,0
59074,-100,4,2,0,5,0,0
61174,-68.9655172413793,4,2,0,5,0,0
61211,-181.818181818182,4,2,0,5,0,0
61249,-68.9655172413793,4,2,0,5,0,0
61286,-181.818181818182,4,2,0,5,0,0
61324,-68.9655172413793,4,2,0,5,0,0
61361,-181.818181818182,4,2,0,5,0,0
61399,-68.9655172413793,4,2,0,5,0,0
61436,-181.818181818182,4,2,0,5,0,0
61474,-66.6666666666667,4,2,0,5,0,0
61511,-200,4,2,0,5,0,0
61549,-100,4,2,0,5,0,0
61699,-66.6666666666667,4,2,0,5,0,0
61736,-200,4,2,0,5,0,0
61774,-66.6666666666667,4,2,0,5,0,0
61811,-200,4,2,0,5,0,0
61849,-100,4,2,0,5,0,0
62074,-66.6666666666667,4,2,0,5,0,0
62111,-200,4,2,0,5,0,0
62149,-100,4,2,0,5,0,0
62374,-66.6666666666667,4,2,0,5,0,0
62411,-200,4,2,0,5,0,0
62449,-100,4,2,0,5,0,0
62599,-66.6666666666667,4,2,0,5,0,0
62636,-200,4,2,0,5,0,0
62674,-66.6666666666667,4,2,0,5,0,0
62711,-200,4,2,0,5,0,0
62749,-100,4,2,0,5,0,0
62899,-66.6666666666667,4,2,0,5,0,0
62936,-200,4,2,0,5,0,0
62974,-66.6666666666667,4,2,0,5,0,0
63011,-200,4,2,0,5,0,0
63049,-100,4,2,0,5,0,0
63274,-153.846153846154,4,2,0,5,0,0
63349,-74.0740740740741,4,2,0,5,0,0
63424,-100,4,2,0,5,0,0
63574,-62.5,4,2,0,5,0,0
63611,-250,4,2,0,5,0,0
63649,-100,4,2,0,5,0,0
63724,-83.3333333333333,4,2,0,5,0,0
63761,-125,4,2,0,5,0,0
63799,-100,4,2,0,5,0,0
63874,-71.4285714285714,4,2,0,5,0,0
63911,-166.666666666667,4,2,0,5,0,0
63949,-100,4,2,0,5,0,0
64024,-83.3333333333333,4,2,0,5,0,0
64061,-125,4,2,0,5,0,0
64099,-100,4,2,0,5,0,0
64174,-71.4285714285714,4,2,0,5,0,0
64211,-166.666666666667,4,2,0,5,0,0
64249,-100,4,2,0,5,0,0
64324,-83.3333333333333,4,2,0,5,0,0
64361,-125,4,2,0,5,0,0
64399,-100,4,2,0,5,0,0
64474,-71.4285714285714,4,2,0,5,0,0
64511,-166.666666666667,4,2,0,5,0,0
64549,-100,4,2,0,5,0,0
64624,-83.3333333333333,4,2,0,5,0,0
64661,-125,4,2,0,5,0,0
64699,-100,4,2,0,5,0,0
64774,-62.5,4,2,0,5,0,0
64811,-250,4,2,0,5,0,0
64849,-100,4,2,0,5,0,0
64924,-83.3333333333333,4,2,0,5,0,0
64961,-125,4,2,0,5,0,0
64999,-100,4,2,0,5,0,0
65074,-71.4285714285714,4,2,0,5,0,0
65111,-166.666666666667,4,2,0,5,0,0
65149,-100,4,2,0,5,0,0
65224,-83.3333333333333,4,2,0,5,0,0
65261,-125,4,2,0,5,0,0
65299,-100,4,2,0,5,0,0
65374,-71.4285714285714,4,2,0,5,0,0
65411,-166.666666666667,4,2,0,5,0,0
65449,-100,4,2,0,5,0,0
65524,-83.3333333333333,4,2,0,5,0,0
65561,-125,4,2,0,5,0,0
65599,-100,4,2,0,5,0,0
65674,-71.4285714285714,4,2,0,5,0,0
65711,-166.666666666667,4,2,0,5,0,0
65749,-100,4,2,0,5,0,0
65824,-83.3333333333333,4,2,0,5,0,0
65861,-125,4,2,0,5,0,0
65899,-100,4,2,0,5,0,0
65974,-62.5,4,2,0,5,0,0
66011,-250,4,2,0,5,0,0
66049,-83.3333333333333,4,2,0,5,0,0
66086,-125,4,2,0,5,0,0
66124,-71.4285714285714,4,2,0,5,0,0
66161,-166.666666666667,4,2,0,5,0,0
66199,-83.3333333333333,4,2,0,5,0,0
66236,-125,4,2,0,5,0,0
66274,-71.4285714285714,4,2,0,5,0,0
66311,-166.666666666667,4,2,0,5,0,0
66349,-83.3333333333333,4,2,0,5,0,0
66386,-125,4,2,0,5,0,0
66424,-71.4285714285714,4,2,0,5,0,0
66461,-166.666666666667,4,2,0,5,0,0
66499,-83.3333333333333,4,2,0,5,0,0
66536,-125,4,2,0,5,0,0
66574,-62.5,4,2,0,5,0,0
66611,-250,4,2,0,5,0,0
66649,-83.3333333333333,4,2,0,5,0,0
66686,-125,4,2,0,5,0,0
66724,-76.9230769230769,4,2,0,5,0,0
66742,-142.857142857143,4,2,0,5,0,0
66761,-76.9230769230769,4,2,0,5,0,0
66780,-142.857142857143,4,2,0,5,0,0
66799,-76.9230769230769,4,2,0,5,0,0
66817,-142.857142857143,4,2,0,5,0,0
66836,-76.9230769230769,4,2,0,5,0,0
66855,-142.857142857143,4,2,0,5,0,0
66874,-71.4285714285714,4,2,0,5,0,0
66911,-166.666666666667,4,2,0,5,0,0
66949,-83.3333333333333,4,2,0,5,0,0
66986,-125,4,2,0,5,0,0
67024,-71.4285714285714,4,2,0,5,0,0
67061,-166.666666666667,4,2,0,5,0,0
67099,-83.3333333333333,4,2,0,5,0,0
67136,-125,4,2,0,5,0,0
67174,-62.5,4,2,0,5,0,0
67211,-250,4,2,0,5,0,0
67249,-100,4,2,0,5,0,0
67399,-66.6666666666667,4,2,0,5,0,0
67436,-200,4,2,0,5,0,0
67474,-66.6666666666667,4,2,0,5,0,0
67511,-200,4,2,0,5,0,0
67549,-100,4,2,0,5,0,0
67699,-66.6666666666667,4,2,0,5,0,0
67736,-200,4,2,0,5,0,0
67774,-66.6666666666667,4,2,0,5,0,0
67811,-200,4,2,0,5,0,0
67849,-100,4,2,0,5,0,0
68074,-153.846153846154,4,2,0,5,0,0
68149,-74.0740740740741,4,2,0,5,0,0
68224,-100,4,2,0,5,0,0
68374,-116.279069767442,4,2,0,5,0,0
68544,300,4,2,0,5,1,0
68544,-116.279069767442,4,2,0,5,0,0
69594,300,4,2,0,5,1,0
69594,-113.636363636364,4,2,0,5,0,0
70794,-111.111111111111,4,2,0,5,0,0
71994,-108.695652173913,4,2,0,5,0,0
73194,-106.382978723404,4,2,0,5,0,0
74394,-104.166666666667,4,2,0,5,0,0
75594,-102.040816326531,4,2,0,5,0,0
76794,-100,4,2,0,5,0,0
77694,-21.9298245614035,4,2,0,5,0,0
77712,-100,4,2,0,5,0,0
77974,300,4,2,0,5,1,0
77974,-62.5,4,2,0,5,0,0
78011,-250,4,2,0,5,0,0
78049,-100,4,2,0,5,0,0
79174,-74.0740740740741,4,2,0,5,0,0
79211,-153.846153846154,4,2,0,5,0,0
79249,-100,4,2,0,5,0,0
80374,-74.0740740740741,4,2,0,5,0,0
80411,-153.846153846154,4,2,0,5,0,0
80449,-100,4,2,0,5,0,0
81574,-74.0740740740741,4,2,0,5,0,0
81611,-153.846153846154,4,2,0,5,0,0
81649,-100,4,2,0,5,0,0
82774,-58.8235294117647,4,2,0,5,0,0
82811,-333.333333333333,4,2,0,5,0,0
82849,-100,4,2,0,5,0,0
82924,-76.9230769230769,4,2,0,5,0,0
82961,-142.857142857143,4,2,0,5,0,0
82999,-100,4,2,0,5,0,0
83074,-76.9230769230769,4,2,0,5,0,0
83111,-142.857142857143,4,2,0,5,0,0
83149,-100,4,2,0,5,0,0
83224,-76.9230769230769,4,2,0,5,0,0
83261,-142.857142857143,4,2,0,5,0,0
83299,-100,4,2,0,5,0,0
83374,-76.9230769230769,4,2,0,5,0,0
83411,-142.857142857143,4,2,0,5,0,0
83449,-100,4,2,0,5,0,0
83524,-76.9230769230769,4,2,0,5,0,0
83561,-142.857142857143,4,2,0,5,0,0
83599,-100,4,2,0,5,0,0
83674,-68.9655172413793,4,2,0,5,0,0
83711,-181.818181818182,4,2,0,5,0,0
83749,-100,4,2,0,5,0,0
83824,-68.9655172413793,4,2,0,5,0,0
83861,-181.818181818182,4,2,0,5,0,0
83899,-100,4,2,0,5,0,0
83974,-58.8235294117647,4,2,0,5,0,0
84011,-333.333333333333,4,2,0,5,0,0
84049,-100,4,2,0,5,0,0
84124,-76.9230769230769,4,2,0,5,0,0
84161,-142.857142857143,4,2,0,5,0,0
84199,-100,4,2,0,5,0,0
84274,-76.9230769230769,4,2,0,5,0,0
84311,-142.857142857143,4,2,0,5,0,0
84349,-100,4,2,0,5,0,0
84424,-76.9230769230769,4,2,0,5,0,0
84461,-142.857142857143,4,2,0,5,0,0
84499,-100,4,2,0,5,0,0
84574,-76.9230769230769,4,2,0,5,0,0
84611,-142.857142857143,4,2,0,5,0,0
84649,-100,4,2,0,5,0,0
84724,-76.9230769230769,4,2,0,5,0,0
84761,-142.857142857143,4,2,0,5,0,0
84799,-100,4,2,0,5,0,0
84874,-68.9655172413793,4,2,0,5,0,0
84911,-181.818181818182,4,2,0,5,0,0
84949,-100,4,2,0,5,0,0
85024,-68.9655172413793,4,2,0,5,0,0
85061,-181.818181818182,4,2,0,5,0,0
85099,-100,4,2,0,5,0,0
85174,-55.5555555555556,4,2,0,5,0,0
85211,-500,4,2,0,5,0,0
85249,-71.4285714285714,4,2,0,5,0,0
85286,-166.666666666667,4,2,0,5,0,0
85324,-71.4285714285714,4,2,0,5,0,0
85361,-166.666666666667,4,2,0,5,0,0
85399,-71.4285714285714,4,2,0,5,0,0
85436,-166.666666666667,4,2,0,5,0,0
85474,-83.3333333333333,4,2,0,5,0,0
85511,-125,4,2,0,5,0,0
85549,-83.3333333333333,4,2,0,5,0,0
85586,-125,4,2,0,5,0,0
85624,-83.3333333333333,4,2,0,5,0,0
85661,-125,4,2,0,5,0,0
85699,-83.3333333333333,4,2,0,5,0,0
85736,-125,4,2,0,5,0,0
85774,-55.5555555555556,4,2,0,5,0,0
85811,-500,4,2,0,5,0,0
85849,-71.4285714285714,4,2,0,5,0,0
85886,-166.666666666667,4,2,0,5,0,0
85924,-71.4285714285714,4,2,0,5,0,0
85949,-166.666666666667,4,2,0,5,0,0
85974,-100,4,2,0,5,0,0
86024,-71.4285714285714,4,2,0,5,0,0
86049,-166.666666666667,4,2,0,5,0,0
86074,-83.3333333333333,4,2,0,5,0,0
86111,-125,4,2,0,5,0,0
86149,-83.3333333333333,4,2,0,5,0,0
86186,-125,4,2,0,5,0,0
86224,-83.3333333333333,4,2,0,5,0,0
86261,-125,4,2,0,5,0,0
86299,-83.3333333333333,4,2,0,5,0,0
86336,-125,4,2,0,5,0,0
86374,-55.5555555555556,4,2,0,5,0,0
86411,-500,4,2,0,5,0,0
86449,-100,4,2,0,5,0,0
87274,-153.846153846154,4,2,0,5,0,0
87349,-74.0740740740741,4,2,0,5,0,0
87424,-100,4,2,0,5,0,0
87574,-62.5,4,2,0,5,0,1
87649,-250,4,2,0,5,0,1
87724,-100,4,2,0,5,0,1
88774,-74.0740740740741,4,2,0,5,0,1
88811,-153.846153846154,4,2,0,5,0,1
88849,-100,4,2,0,5,0,1
89974,-74.0740740740741,4,2,0,5,0,1
90011,-153.846153846154,4,2,0,5,0,1
90049,-100,4,2,0,5,0,1
91174,-74.0740740740741,4,2,0,5,0,1
91211,-153.846153846154,4,2,0,5,0,1
91249,-100,4,2,0,5,0,1
92374,-74.0740740740741,4,2,0,5,0,1
92411,-153.846153846154,4,2,0,5,0,1
92449,-100,4,2,0,5,0,1
93574,-74.0740740740741,4,2,0,5,0,1
93611,-153.846153846154,4,2,0,5,0,1
93649,-100,4,2,0,5,0,1
94774,-74.0740740740741,4,2,0,5,0,1
94811,-153.846153846154,4,2,0,5,0,1
94849,-100,4,2,0,5,0,1
95974,-74.0740740740741,4,2,0,5,0,1
96011,-153.846153846154,4,2,0,5,0,1
96049,-100,4,2,0,5,0,1
96724,-153.846153846154,4,2,0,5,0,1
96761,-74.0740740740741,4,2,0,5,0,1
96799,-100,4,2,0,5,0,1
96874,-153.846153846154,4,2,0,5,0,1
96911,-74.0740740740741,4,2,0,5,0,1
96949,-100,4,2,0,5,0,1
97174,-62.5,4,2,0,5,0,0
97211,-250,4,2,0,5,0,0
97249,-100,4,2,0,5,0,0
98374,-74.0740740740741,4,2,0,5,0,0
98411,-153.846153846154,4,2,0,5,0,0
98449,-100,4,2,0,5,0,0
99574,-74.0740740740741,4,2,0,5,0,0
99611,-153.846153846154,4,2,0,5,0,0
99649,-100,4,2,0,5,0,0
100774,-74.0740740740741,4,2,0,5,0,0
100811,-153.846153846154,4,2,0,5,0,0
100849,-100,4,2,0,5,0,0
101974,-62.5,4,2,0,5,0,0
102011,-250,4,2,0,5,0,0
102049,-100,4,2,0,5,0,0
102124,-83.3333333333333,4,2,0,5,0,0
102161,-125,4,2,0,5,0,0
102199,-100,4,2,0,5,0,0
102274,-153.846153846154,4,2,0,5,0,0
102311,-74.0740740740741,4,2,0,5,0,0
102349,-100,4,2,0,5,0,0
102424,-153.846153846154,4,2,0,5,0,0
102461,-74.0740740740741,4,2,0,5,0,0
102499,-100,4,2,0,5,0,0
102574,-153.846153846154,4,2,0,5,0,0
102611,-74.0740740740741,4,2,0,5,0,0
102649,-100,4,2,0,5,0,0
102724,-83.3333333333333,4,2,0,5,0,0
102761,-125,4,2,0,5,0,0
102799,-100,4,2,0,5,0,0
102874,-74.0740740740741,4,2,0,5,0,0
102911,-153.846153846154,4,2,0,5,0,0
102949,-100,4,2,0,5,0,0
103024,-83.3333333333333,4,2,0,5,0,0
103061,-125,4,2,0,5,0,0
103099,-100,4,2,0,5,0,0
103174,-62.5,4,2,0,5,0,0
103211,-250,4,2,0,5,0,0
103249,-100,4,2,0,5,0,0
103324,-83.3333333333333,4,2,0,5,0,0
103361,-125,4,2,0,5,0,0
103399,-100,4,2,0,5,0,0
103474,-153.846153846154,4,2,0,5,0,0
103511,-74.0740740740741,4,2,0,5,0,0
103549,-100,4,2,0,5,0,0
103624,-153.846153846154,4,2,0,5,0,0
103661,-74.0740740740741,4,2,0,5,0,0
103699,-100,4,2,0,5,0,0
103774,-153.846153846154,4,2,0,5,0,0
103811,-74.0740740740741,4,2,0,5,0,0
103849,-100,4,2,0,5,0,0
103924,-83.3333333333333,4,2,0,5,0,0
103961,-125,4,2,0,5,0,0
103999,-100,4,2,0,5,0,0
104074,-74.0740740740741,4,2,0,5,0,0
104111,-153.846153846154,4,2,0,5,0,0
104149,-100,4,2,0,5,0,0
104224,-83.3333333333333,4,2,0,5,0,0
104261,-125,4,2,0,5,0,0
104299,-100,4,2,0,5,0,0
104374,-58.8235294117647,4,2,0,5,0,0
104411,-333.333333333333,4,2,0,5,0,0
104449,-100,4,2,0,5,0,0
104524,-74.0740740740741,4,2,0,5,0,0
104561,-153.846153846154,4,2,0,5,0,0
104599,-100,4,2,0,5,0,0
104674,-181.818181818182,4,2,0,5,0,0
104711,-68.9655172413793,4,2,0,5,0,0
104749,-100,4,2,0,5,0,0
104824,-181.818181818182,4,2,0,5,0,0
104861,-68.9655172413793,4,2,0,5,0,0
104899,-100,4,2,0,5,0,0
104974,-58.8235294117647,4,2,0,5,0,0
105011,-333.333333333333,4,2,0,5,0,0
105049,-100,4,2,0,5,0,0
105124,-74.0740740740741,4,2,0,5,0,0
105149,-153.846153846154,4,2,0,5,0,0
105174,-100,4,2,0,5,0,0
105274,-181.818181818182,4,2,0,5,0,0
105311,-68.9655172413793,4,2,0,5,0,0
105349,-100,4,2,0,5,0,0
105424,-181.818181818182,4,2,0,5,0,0
105461,-68.9655172413793,4,2,0,5,0,0
105499,-100,4,2,0,5,0,0
105574,-58.8235294117647,4,2,0,5,0,0
105611,-333.333333333333,4,2,0,5,0,0
105649,-74.0740740740741,4,2,0,5,0,0
105686,-153.846153846154,4,2,0,5,0,0
105724,-74.0740740740741,4,2,0,5,0,0
105761,-153.846153846154,4,2,0,5,0,0
105799,-74.0740740740741,4,2,0,5,0,0
105836,-153.846153846154,4,2,0,5,0,0
105874,-58.8235294117647,4,2,0,5,0,0
105911,-333.333333333333,4,2,0,5,0,0
105949,-74.0740740740741,4,2,0,5,0,0
105986,-153.846153846154,4,2,0,5,0,0
106024,-74.0740740740741,4,2,0,5,0,0
106061,-153.846153846154,4,2,0,5,0,0
106099,-74.0740740740741,4,2,0,5,0,0
106136,-153.846153846154,4,2,0,5,0,0
106174,-58.8235294117647,4,2,0,5,0,0
106211,-333.333333333333,4,2,0,5,0,0
106249,-100,4,2,0,5,0,0
106324,-153.846153846154,4,2,0,5,0,0
106361,-74.0740740740741,4,2,0,5,0,0
106399,-100,4,2,0,5,0,0
106474,-153.846153846154,4,2,0,5,0,0
106511,-74.0740740740741,4,2,0,5,0,0
106549,-100,4,2,0,5,0,0
106774,-62.5,4,2,0,5,0,1
106849,-250,4,2,0,5,0,1
106924,-100,4,2,0,5,0,1
107374,-153.846153846154,4,2,0,5,0,1
107411,-74.0740740740741,4,2,0,5,0,1
107449,-100,4,2,0,5,0,1
107974,-74.0740740740741,4,2,0,5,0,1
108011,-153.846153846154,4,2,0,5,0,1
108049,-100,4,2,0,5,0,1
108574,-153.846153846154,4,2,0,5,0,1
108611,-74.0740740740741,4,2,0,5,0,1
108649,-100,4,2,0,5,0,1
109174,-74.0740740740741,4,2,0,5,0,1
109211,-153.846153846154,4,2,0,5,0,1
109249,-100,4,2,0,5,0,1
109774,-153.846153846154,4,2,0,5,0,1
109811,-74.0740740740741,4,2,0,5,0,1
109849,-100,4,2,0,5,0,1
110374,-74.0740740740741,4,2,0,5,0,1
110411,-153.846153846154,4,2,0,5,0,1
110449,-100,4,2,0,5,0,1
110974,-153.846153846154,4,2,0,5,0,1
111011,-74.0740740740741,4,2,0,5,0,1
111049,-100,4,2,0,5,0,1
111574,-74.0740740740741,4,2,0,5,0,1
111611,-153.846153846154,4,2,0,5,0,1
111649,-100,4,2,0,5,0,1
112174,-153.846153846154,4,2,0,5,0,1
112211,-74.0740740740741,4,2,0,5,0,1
112249,-100,4,2,0,5,0,1
112774,-74.0740740740741,4,2,0,5,0,1
112811,-153.846153846154,4,2,0,5,0,1
112849,-100,4,2,0,5,0,1
113374,-153.846153846154,4,2,0,5,0,1
113411,-74.0740740740741,4,2,0,5,0,1
113449,-100,4,2,0,5,0,1
113974,-74.0740740740741,4,2,0,5,0,1
114011,-153.846153846154,4,2,0,5,0,1
114049,-100,4,2,0,5,0,1
114574,-153.846153846154,4,2,0,5,0,1
114611,-74.0740740740741,4,2,0,5,0,1
114649,-100,4,2,0,5,0,1
115174,-74.0740740740741,4,2,0,5,0,1
115211,-153.846153846154,4,2,0,5,0,1
115249,-100,4,2,0,5,0,1
115774,-153.846153846154,4,2,0,5,0,1
115811,-74.0740740740741,4,2,0,5,0,1
115849,-100,4,2,0,5,0,1
115924,-200,4,2,0,5,0,1
115961,-66.6666666666667,4,2,0,5,0,1
115999,-100,4,2,0,5,0,1
116074,-200,4,2,0,5,0,1
116111,-66.6666666666667,4,2,0,5,0,1
116149,-100,4,2,0,5,0,1
116374,-58.8235294117647,4,2,0,5,0,0
116411,-333.333333333333,4,2,0,5,0,0
116449,-100,4,2,0,5,0,0
116974,-166.666666666667,4,2,0,5,0,0
117011,-71.4285714285714,4,2,0,5,0,0
117049,-100,4,2,0,5,0,0
117274,-166.666666666667,4,2,0,5,0,0
117311,-71.4285714285714,4,2,0,5,0,0
117349,-100,4,2,0,5,0,0
117574,-71.4285714285714,4,2,0,5,0,0
117611,-166.666666666667,4,2,0,5,0,0
117649,-100,4,2,0,5,0,0
118174,-166.666666666667,4,2,0,5,0,0
118211,-71.4285714285714,4,2,0,5,0,0
118249,-100,4,2,0,5,0,0
118474,-166.666666666667,4,2,0,5,0,0
118511,-71.4285714285714,4,2,0,5,0,0
118549,-100,4,2,0,5,0,0
118774,-71.4285714285714,4,2,0,5,0,0
118811,-166.666666666667,4,2,0,5,0,0
118849,-100,4,2,0,5,0,0
119374,-166.666666666667,4,2,0,5,0,0
119411,-71.4285714285714,4,2,0,5,0,0
119449,-100,4,2,0,5,0,0
119674,-166.666666666667,4,2,0,5,0,0
119711,-71.4285714285714,4,2,0,5,0,0
119749,-100,4,2,0,5,0,0
119974,-71.4285714285714,4,2,0,5,0,0
120011,-166.666666666667,4,2,0,5,0,0
120049,-100,4,2,0,5,0,0
120574,-166.666666666667,4,2,0,5,0,0
120611,-71.4285714285714,4,2,0,5,0,0
120649,-100,4,2,0,5,0,0
120874,-166.666666666667,4,2,0,5,0,0
120911,-71.4285714285714,4,2,0,5,0,0
120949,-100,4,2,0,5,0,0
121174,-58.8235294117647,4,2,0,5,0,0
121211,-333.333333333333,4,2,0,5,0,0
121249,-100,4,2,0,5,0,0
121324,-166.666666666667,4,2,0,5,0,0
121361,-71.4285714285714,4,2,0,5,0,0
121399,-100,4,2,0,5,0,0
121474,-83.3333333333333,4,2,0,5,0,0
121511,-125,4,2,0,5,0,0
121549,-100,4,2,0,5,0,0
121624,-166.666666666667,4,2,0,5,0,0
121661,-71.4285714285714,4,2,0,5,0,0
121699,-100,4,2,0,5,0,0
121774,-83.3333333333333,4,2,0,5,0,0
121811,-125,4,2,0,5,0,0
121849,-100,4,2,0,5,0,0
121924,-166.666666666667,4,2,0,5,0,0
121961,-71.4285714285714,4,2,0,5,0,0
121999,-100,4,2,0,5,0,0
122074,-71.4285714285714,4,2,0,5,0,0
122111,-166.666666666667,4,2,0,5,0,0
122149,-100,4,2,0,5,0,0
122224,-83.3333333333333,4,2,0,5,0,0
122261,-125,4,2,0,5,0,0
122299,-100,4,2,0,5,0,0
122374,-58.8235294117647,4,2,0,5,0,0
122411,-333.333333333333,4,2,0,5,0,0
122449,-100,4,2,0,5,0,0
122524,-166.666666666667,4,2,0,5,0,0
122561,-71.4285714285714,4,2,0,5,0,0
122599,-100,4,2,0,5,0,0
122674,-83.3333333333333,4,2,0,5,0,0
122711,-125,4,2,0,5,0,0
122749,-100,4,2,0,5,0,0
122824,-166.666666666667,4,2,0,5,0,0
122861,-71.4285714285714,4,2,0,5,0,0
122899,-100,4,2,0,5,0,0
122974,-83.3333333333333,4,2,0,5,0,0
123011,-125,4,2,0,5,0,0
123049,-100,4,2,0,5,0,0
123124,-166.666666666667,4,2,0,5,0,0
123161,-71.4285714285714,4,2,0,5,0,0
123199,-100,4,2,0,5,0,0
123274,-71.4285714285714,4,2,0,5,0,0
123311,-166.666666666667,4,2,0,5,0,0
123349,-100,4,2,0,5,0,0
123424,-83.3333333333333,4,2,0,5,0,0
123461,-125,4,2,0,5,0,0
123499,-100,4,2,0,5,0,0
123574,-58.8235294117647,4,2,0,5,0,0
123611,-333.333333333333,4,2,0,5,0,0
123649,-100,4,2,0,5,0,0
123724,-62.5,4,2,0,5,0,0
123761,-250,4,2,0,5,0,0
123799,-100,4,2,0,5,0,0
123874,-62.5,4,2,0,5,0,0
123911,-250,4,2,0,5,0,0
123949,-100,4,2,0,5,0,0
124024,-250,4,2,0,5,0,0
124061,-62.5,4,2,0,5,0,0
124099,-100,4,2,0,5,0,0
124174,-58.8235294117647,4,2,0,5,0,0
124211,-333.333333333333,4,2,0,5,0,0
124249,-100,4,2,0,5,0,0
124324,-62.5,4,2,0,5,0,0
124349,-250,4,2,0,5,0,0
124374,-100,4,2,0,5,0,0
124474,-62.5,4,2,0,5,0,0
124511,-250,4,2,0,5,0,0
124549,-100,4,2,0,5,0,0
124624,-250,4,2,0,5,0,0
124661,-62.5,4,2,0,5,0,0
124699,-100,4,2,0,5,0,0
124774,-57.1428571428571,4,2,0,5,0,0
124811,-400,4,2,0,5,0,0
124849,-60.6060606060606,4,2,0,5,0,0
124886,-285.714285714286,4,2,0,5,0,0
124924,-64.5161290322581,4,2,0,5,0,0
124961,-222.222222222222,4,2,0,5,0,0
124999,-68.9655172413793,4,2,0,5,0,0
125036,-181.818181818182,4,2,0,5,0,0
125074,-60.6060606060606,4,2,0,5,0,0
125111,-285.714285714286,4,2,0,5,0,0
125149,-64.5161290322581,4,2,0,5,0,0
125186,-222.222222222222,4,2,0,5,0,0
125224,-74.0740740740741,4,2,0,5,0,0
125261,-153.846153846154,4,2,0,5,0,0
125299,-80,4,2,0,5,0,0
125336,-133.333333333333,4,2,0,5,0,0
125374,-55.5555555555556,4,2,0,5,0,0
125411,-500,4,2,0,5,0,0
125449,-100,4,2,0,5,0,0
125524,-153.846153846154,4,2,0,5,0,0
125561,-74.0740740740741,4,2,0,5,0,0
125599,-100,4,2,0,5,0,0
125674,-153.846153846154,4,2,0,5,0,0
125711,-74.0740740740741,4,2,0,5,0,0
125749,-100,4,2,0,5,0,0

[HitObjects]
329,192,874,5,0,0:0:0:0:
369,192,1024,1,0,0:0:0:0:
426,192,1174,5,8,3:0:0:30:
32,192,1174,5,4,1:0:0:56:
96,192,1174,128,2,1474:0:0:0:44:
256,192,1174,1,0,1:0:0:34:
369,192,1324,1,0,0:0:0:0:
426,192,1474,1,0,0:0:0:0:
483,192,1624,1,0,0:0:0:0:
96,192,1624,128,2,1924:0:0:0:44:
256,192,1774,1,0,0:0:0:0:
369,192,1924,1,0,0:0:0:0:
329,192,1974,1,0,0:0:0:0:
369,192,2024,1,0,0:0:0:0:
426,192,2074,1,0,0:0:0:0:
32,192,2074,1,0,0:0:0:0:
224,192,2074,1,2,3:0:0:90:
256,192,2224,1,0,0:0:0:0:
182,192,2374,1,0,0:0:0:0:
483,192,2374,128,2,2674:0:0:0:44:
96,192,2524,1,0,0:0:0:0:
142,192,2674,1,0,0:0:0:0:
96,192,2824,1,0,0:0:0:0:
483,192,2824,128,2,3124:0:0:0:44:
199,192,2974,1,0,0:0:0:0:
199,192,3274,1,0,0:0:0:0:
256,192,3424,1,0,0:0:0:0:
312,192,3574,1,0,0:0:0:0:
160,192,3574,128,2,3874:0:0:0:44:
369,192,3724,1,0,0:0:0:0:
312,192,3874,1,0,0:0:0:0:
483,192,4024,1,0,0:0:0:0:
160,192,4024,128,2,4324:0:0:0:44:
369,192,4174,1,0,0:0:0:0:
256,192,4324,1,0,0:0:0:0:
224,192,4374,1,0,0:0:0:0:
256,192,4424,1,0,0:0:0:0:
329,192,4474,1,0,0:0:0:0:
369,192,4624,1,0,0:0:0:0:
224,192,4774,1,0,0:0:0:0:
426,192,4774,128,2,5074:0:0:0:44:
96,192,4924,1,0,0:0:0:0:
160,192,5074,1,0,0:0:0:0:
224,192,5224,1,0,0:0:0:0:
426,192,5224,128,2,5524:0:0:0:44:
288,192,5374,1,0,0:0:0:0:
483,192,5674,1,0,0:0:0:0:
32,192,5674,1,2,3:0:0:90:
256,192,5674,1,0,0:0:0:0:
312,192,5824,1,0,0:0:0:0:
483,192,5974,5,4,1:0:0:56:
426,192,5974,5,8,3:0:0:30:
369,192,5974,1,0,1:0:0:34:
96,192,5974,1,0,0:0:0:0:
142,192,5974,1,0,0:0:0:0:
160,192,6274,1,8,1:0:0:40:
109,192,6274,1,0,0:0:0:0:
312,192,6274,1,0,0:0:0:0:
256,192,6424,1,0,0:0:0:0:
426,192,6574,1,0,0:0:0:0:
109,192,6574,1,8,1:0:0:40:
142,192,6574,1,0,0:0:0:0:
256,192,6574,1,0,0:0:0:0:
312,192,6724,1,0,0:0:0:0:
369,192,6874,1,0,0:0:0:0:
96,192,6874,1,8,1:0:0:40:
142,192,6874,1,0,0:0:0:0:
256,192,6874,1,0,0:0:0:0:
426,192,7024,1,0,0:0:0:0:
369,192,7099,1,0,0:0:0:0:
36,192,7174,5,4,1:0:0:56:
329,192,7174,5,8,3:0:0:30:
256,192,7174,1,0,1:0:0:34:
109,192,7174,1,0,0:0:0:0:
224,192,7174,1,0,0:0:0:0:
416,192,7324,1,0,0:0:0:0:
109,192,7474,1,0,0:0:0:0:
369,192,7474,1,8,1:0:0:40:
288,192,7474,1,0,0:0:0:0:
160,192,7474,1,0,0:0:0:0:
256,192,7624,1,0,0:0:0:0:
182,192,7774,1,0,0:0:0:0:
426,192,7774,1,8,1:0:0:40:
369,192,7774,1,0,0:0:0:0:
142,192,7774,1,0,0:0:0:0:
483,192,8074,1,0,0:0:0:0:
426,192,8074,1,8,1:0:0:40:
256,192,8074,1,0,0:0:0:0:
199,192,8074,1,0,0:0:0:0:
312,192,8224,1,0,0:0:0:0:
142,192,8224,1,0,0:0:0:0:
369,192,8299,1,0,0:0:0:0:
36,192,8374,5,4,1:0:0:56:
426,192,8374,5,8,3:0:0:30:
256,192,8374,1,0,1:0:0:34:
109,192,8374,1,0,0:0:0:0:
483,192,8374,1,0,0:0:0:0:
369,192,8524,1,0,0:0:0:0:
182,192,8524,1,8,1:0:0:40:
329,192,8524,1,0,0:0:0:0:
142,192,8524,1,0,0:0:0:0:
329,192,8674,1,0,0:0:0:0:
182,192,8674,1,8,1:0:0:40:
369,192,8674,1,0,0:0:0:0:
142,192,8674,1,0,0:0:0:0:
182,192,8824,1,0,0:0:0:0:
329,192,8824,1,8,1:0:0:40:
369,192,8824,1,0,0:0:0:0:
142,192,8824,1,0,0:0:0:0:
483,192,8974,5,8,3:0:0:30:
109,192,8974,5,4,1:0:0:56:
329,192,8974,1,0,1:0:0:34:
36,192,8974,1,0,0:0:0:0:
256,192,9049,1,8,1:0:0:18:
224,192,9124,1,0,1:0:0:24:
426,192,9124,1,8,1:0:0:26:
369,192,9174,1,0,0:0:0:0:
160,192,9199,1,8,1:0:0:18:
329,192,9224,1,0,0:0:0:0:
96,192,9274,1,8,1:0:0:26:
256,192,9274,1,2,3:0:0:100:
483,192,9274,1,0,0:0:0:0:
224,192,9349,1,8,1:0:0:18:
426,192,9349,1,0,0:0:0:0:
369,192,9424,1,8,1:0:0:26:
160,192,9424,1,0,0:0:0:0:
96,192,9499,1,8,1:0:0:18:
312,192,9499,1,0,0:0:0:0:
224,192,9574,5,8,3:0:0:30:
36,192,9574,5,4,1:0:0:56:
256,192,9574,1,0,1:0:0:34:
483,192,9574,1,0,0:0:0:0:
426,192,9574,1,0,0:0:0:0:
160,192,9724,1,0,0:0:0:0:
352,192,9874,1,0,0:0:0:0:
224,192,10024,1,0,0:0:0:0:
416,192,10174,1,0,0:0:0:0:
256,192,10474,1,0,0:0:0:0:
36,192,10474,1,0,0:0:0:0:
480,192,10474,1,2,3:0:0:90:
369,192,10774,5,4,3:0:0:60:
160,192,10774,5,4,1:0:0:56:
224,192,10774,1,0,1:0:0:34:
256,192,10774,1,8,1:0:0:60:
329,192,10774,1,0,0:0:0:0:
224,192,10924,1,0,0:0:0:0:
369,192,10924,1,0,0:0:0:0:
256,192,11074,1,0,1:0:0:80:
160,192,11074,1,0,0:0:0:0:
329,192,11224,1,0,0:0:0:0:
224,192,11224,1,0,0:0:0:0:
160,192,11374,1,4,3:0:0:90:
369,192,11374,1,0,0:0:0:0:
256,192,11374,1,0,0:0:0:0:
329,192,11524,1,0,0:0:0:0:
256,192,11599,1,0,0:0:0:0:
369,192,11674,1,0,1:0:0:80:
224,192,11674,1,0,0:0:0:0:
329,192,11824,1,0,0:0:0:0:
160,192,11824,1,0,0:0:0:0:
96,192,11974,1,4,2:0:0:70:
369,192,11974,1,4,3:0:0:90:
256,192,11974,1,8,1:0:0:60:
224,192,11974,1,0,0:0:0:0:
426,192,11974,1,0,0:0:0:0:
224,192,12124,1,0,0:0:0:0:
369,192,12124,1,0,0:0:0:0:
426,192,12274,1,0,1:0:0:80:
96,192,12274,1,0,0:0:0:0:
256,192,12424,1,0,0:0:0:0:
224,192,12424,1,0,0:0:0:0:
426,192,12574,1,4,3:0:0:90:
96,192,12574,1,0,0:0:0:0:
369,192,12574,1,0,0:0:0:0:
256,192,12724,1,0,0:0:0:0:
96,192,12874,1,0,1:0:0:80:
224,192,12874,1,0,0:0:0:0:
369,192,13024,1,0,0:0:0:0:
426,192,13024,1,0,0:0:0:0:
256,192,13174,1,4,2:0:0:70:
109,192,13174,1,4,3:0:0:90:
182,192,13174,1,8,1:0:0:60:
312,192,13174,1,0,0:0:0:0:
142,192,13174,1,0,0:0:0:0:
256,192,13324,1,0,0:0:0:0:
224,192,13324,1,0,0:0:0:0:
329,192,13474,1,0,1:0:0:80:
160,192,13474,1,0,0:0:0:0:
224,192,13624,1,0,0:0:0:0:
96,192,13624,1,0,0:0:0:0:
329,192,13774,1,4,3:0:0:90:
256,192,13774,1,0,0:0:0:0:
160,192,13774,1,0,0:0:0:0:
96,192,13924,1,0,0:0:0:0:
160,192,13974,1,0,0:0:0:0:
224,192,14024,1,0,0:0:0:0:
329,192,14074,1,0,1:0:0:80:
256,192,14074,1,0,0:0:0:0:
160,192,14224,1,0,0:0:0:0:
96,192,14224,1,0,0:0:0:0:
256,192,14374,1,8,1:0:0:60:
369,192,14374,1,4,3:0:0:90:
224,192,14374,1,4,2:0:0:70:
329,192,14374,1,0,0:0:0:0:
426,192,14374,1,0,0:0:0:0:
329,192,14524,1,0,0:0:0:0:
426,192,14524,1,0,0:0:0:0:
369,192,14674,1,0,1:0:0:80:
224,192,14674,1,0,0:0:0:0:
329,192,14824,1,0,0:0:0:0:
256,192,14824,1,0,0:0:0:0:
426,192,14974,1,4,3:0:0:90:
369,192,14974,1,0,0:0:0:0:
224,192,14974,1,0,0:0:0:0:
329,192,15124,1,0,0:0:0:0:
256,192,15274,1,0,1:0:0:80:
224,192,15274,1,0,0:0:0:0:
329,192,15424,1,0,0:0:0:0:
369,192,15424,1,0,0:0:0:0:
160,192,15574,1,4,2:0:0:70:
483,192,15574,1,4,3:0:0:90:
256,192,15574,1,8,1:0:0:60:
224,192,15574,1,0,0:0:0:0:
96,192,15574,1,0,0:0:0:0:
256,192,15724,1,0,0:0:0:0:
483,192,15874,1,0,1:0:0:80:
224,192,15874,1,0,0:0:0:0:
256,192,16024,1,0,0:0:0:0:
160,192,16024,1,0,0:0:0:0:
483,192,16174,1,4,3:0:0:90:
96,192,16174,1,0,0:0:0:0:
224,192,16174,1,0,0:0:0:0:
256,192,16324,1,0,0:0:0:0:
160,192,16324,1,0,0:0:0:0:
483,192,16474,1,0,1:0:0:80:
96,192,16474,1,0,0:0:0:0:
224,192,16624,1,0,0:0:0:0:
160,192,16624,1,0,0:0:0:0:
256,192,16774,1,8,1:0:0:60:
369,192,16774,1,4,3:0:0:90:
28,192,16774,1,4,2:0:0:70:
329,192,16774,1,0,0:0:0:0:
426,192,16774,1,0,0:0:0:0:
329,192,16924,1,0,0:0:0:0:
256,192,16924,1,0,0:0:0:0:
369,192,17074,1,0,1:0:0:80:
28,192,17074,1,0,0:0:0:0:
256,192,17224,1,0,0:0:0:0:
426,192,17224,1,0,0:0:0:0:
369,192,17374,1,4,3:0:0:90:
28,192,17374,1,0,0:0:0:0:
329,192,17374,1,0,0:0:0:0:
426,192,17524,1,0,0:0:0:0:
288,192,17674,1,0,1:0:0:80:
28,192,17674,1,0,0:0:0:0:
369,192,17824,1,0,0:0:0:0:
426,192,17824,1,0,0:0:0:0:
160,192,17974,1,4,2:0:0:70:
312,192,17974,1,4,3:0:0:90:
256,192,17974,1,8,1:0:0:60:
224,192,17974,1,0,0:0:0:0:
96,192,17974,1,0,0:0:0:0:
160,192,18124,1,0,0:0:0:0:
224,192,18124,1,0,0:0:0:0:
312,192,18274,1,0,1:0:0:80:
96,192,18274,1,0,0:0:0:0:
224,192,18424,1,0,0:0:0:0:
256,192,18424,1,0,0:0:0:0:
312,192,18574,1,4,3:0:0:90:
160,192,18574,1,0,0:0:0:0:
96,192,18574,1,0,0:0:0:0:
256,192,18724,1,0,0:0:0:0:
224,192,18774,1,0,0:0:0:0:
160,192,18824,1,0,0:0:0:0:
312,192,18874,5,0,1:0:0:80:
96,192,18874,1,0,0:0:0:0:
256,192,19024,1,0,0:0:0:0:
224,192,19024,1,0,0:0:0:0:
329,192,19174,1,8,1:0:0:60:
369,192,19174,1,4,3:0:0:90:
160,192,19174,1,0,0:0:0:0:
426,192,19174,1,0,0:0:0:0:
96,192,19174,1,4,2:0:0:70:
160,192,19324,1,0,0:0:0:0:
329,192,19324,1,0,0:0:0:0:
426,192,19474,1,0,1:0:0:80:
96,192,19474,1,0,0:0:0:0:
329,192,19624,1,0,0:0:0:0:
369,192,19624,1,0,0:0:0:0:
426,192,19774,1,4,3:0:0:90:
160,192,19774,1,0,0:0:0:0:
96,192,19774,1,0,0:0:0:0:
256,192,19924,5,2,3:0:0:90:
483,192,19924,1,0,0:0:0:0:
32,192,19924,1,0,0:0:0:0:
483,192,20074,1,2,3:0:0:90:
256,192,20074,1,0,1:0:0:80:
32,192,20074,1,0,0:0:0:0:
96,192,20224,1,0,0:0:0:0:
426,192,20224,1,0,0:0:0:0:
369,192,20374,5,8,3:0:0:30:
160,192,20374,5,4,1:0:0:56:
256,192,20374,1,0,1:0:0:34:
329,192,20374,1,8,1:0:0:100:
224,192,20374,1,0,0:0:0:0:
256,192,20524,1,0,0:0:0:0:
199,192,20524,1,0,0:0:0:0:
312,192,20674,1,0,1:0:0:80:
369,192,20674,1,0,0:0:0:0:
142,192,20824,1,0,0:0:0:0:
199,192,20824,1,0,0:0:0:0:
369,192,20974,1,8,2:0:0:100:
256,192,20974,1,4,3:0:0:90:
329,192,20974,1,0,0:0:0:0:
224,192,20974,1,0,0:0:0:0:
142,192,21124,1,0,0:0:0:0:
199,192,21199,1,0,0:0:0:0:
256,192,21274,1,0,1:0:0:80:
312,192,21274,1,0,0:0:0:0:
142,192,21424,1,0,0:0:0:0:
369,192,21424,1,0,0:0:0:0:
199,192,21574,1,4,3:0:0:90:
256,192,21574,1,8,1:0:0:80:
312,192,21574,1,4,2:0:0:70:
28,192,21574,1,0,0:0:0:0:
483,192,21574,1,0,0:0:0:0:
199,192,21724,1,0,0:0:0:0:
256,192,21724,1,0,0:0:0:0:
312,192,21874,1,0,1:0:0:80:
28,192,21874,1,0,0:0:0:0:
256,192,22024,1,0,0:0:0:0:
199,192,22024,1,0,0:0:0:0:
199,192,22174,1,4,3:0:0:90:
312,192,22174,1,8,2:0:0:100:
28,192,22174,1,0,0:0:0:0:
483,192,22174,1,0,0:0:0:0:
256,192,22324,1,0,0:0:0:0:
199,192,22474,1,0,1:0:0:80:
483,192,22474,1,0,0:0:0:0:
312,192,22624,1,0,0:0:0:0:
28,192,22624,1,0,0:0:0:0:
85,192,22774,1,4,3:0:0:90:
426,192,22774,1,4,2:0:0:70:
256,192,22774,1,8,1:0:0:80:
142,192,22774,1,0,0:0:0:0:
199,192,22774,1,0,0:0:0:0:
199,192,22924,1,0,0:0:0:0:
142,192,22924,1,0,0:0:0:0:
85,192,23074,1,0,1:0:0:80:
426,192,23074,1,0,0:0:0:0:
256,192,23224,1,0,0:0:0:0:
142,192,23224,1,0,0:0:0:0:
426,192,23374,1,4,3:0:0:90:
199,192,23374,1,8,2:0:0:100:
142,192,23374,1,0,0:0:0:0:
85,192,23374,1,0,0:0:0:0:
256,192,23524,1,0,0:0:0:0:
199,192,23574,1,0,0:0:0:0:
142,192,23624,1,0,0:0:0:0:
85,192,23674,1,0,1:0:0:80:
426,192,23674,1,0,0:0:0:0:
199,192,23824,1,0,0:0:0:0:
256,192,23824,1,0,0:0:0:0:
426,192,23974,1,4,2:0:0:70:
160,192,23974,1,4,3:0:0:90:
312,192,23974,1,8,1:0:0:80:
369,192,23974,1,0,0:0:0:0:
96,192,23974,1,0,0:0:0:0:
96,192,24124,1,0,0:0:0:0:
312,192,24124,1,0,0:0:0:0:
160,192,24274,1,0,1:0:0:80:
426,192,24274,1,0,0:0:0:0:
85,192,24424,1,0,0:0:0:0:
369,192,24424,1,0,0:0:0:0:
160,192,24574,1,4,3:0:0:90:
369,192,24574,1,8,2:0:0:100:
312,192,24574,1,0,0:0:0:0:
426,192,24574,1,0,0:0:0:0:
312,192,24724,1,0,0:0:0:0:
369,192,24874,1,0,1:0:0:80:
160,192,24874,1,0,0:0:0:0:
85,192,25024,1,0,0:0:0:0:
426,192,25024,1,0,0:0:0:0:
199,192,25174,1,4,3:0:0:90:
329,192,25174,1,4,2:0:0:70:
256,192,25174,1,8,1:0:0:100:
483,192,25174,1,0,0:0:0:0:
32,192,25174,1,0,0:0:0:0:
426,192,25324,1,8,2:0:0:100:
160,192,25324,1,4,3:0:0:40:
224,192,25324,1,0,1:0:0:80:
96,192,25474,1,4,3:0:0:40:
329,192,25474,1,0,0:0:0:0:
426,192,25624,1,8,2:0:0:100:
256,192,25624,1,4,3:0:0:40:
224,192,25624,1,0,1:0:0:80:
199,192,25774,1,4,3:0:0:40:
426,192,25774,1,0,0:0:0:0:
256,192,25924,1,0,1:0:0:80:
329,192,25924,1,8,2:0:0:100:
96,192,25924,1,4,3:0:0:40:
369,192,26074,1,8,1:0:0:100:
426,192,26074,1,8,3:0:0:60:
224,192,26074,1,4,3:0:0:30:
329,192,26224,1,8,3:0:0:40:
96,192,26224,1,0,0:0:0:0:
160,192,26374,1,4,3:0:0:90:
426,192,26374,1,4,2:0:0:70:
256,192,26374,1,8,1:0:0:100:
224,192,26374,1,0,0:0:0:0:
32,192,26374,1,0,0:0:0:0:
483,192,26374,1,0,0:0:0:0:
96,192,26524,1,4,3:0:0:40:
369,192,26524,1,8,2:0:0:100:
329,192,26524,1,0,1:0:0:80:
224,192,26674,1,4,3:0:0:40:
426,192,26674,1,0,0:0:0:0:
256,192,26824,1,4,3:0:0:40:
96,192,26824,1,8,2:0:0:100:
329,192,26824,1,0,1:0:0:80:
160,192,26974,1,4,3:0:0:40:
369,192,26974,1,0,0:0:0:0:
224,192,27124,1,0,1:0:0:80:
426,192,27124,1,8,2:0:0:100:
256,192,27124,1,4,3:0:0:40:
369,192,27274,1,8,1:0:0:100:
96,192,27274,1,4,3:0:0:30:
160,192,27274,1,8,3:0:0:60:
224,192,27424,1,8,3:0:0:40:
329,192,27424,1,0,0:0:0:0:
96,192,27574,1,4,2:0:0:60:
426,192,27574,1,8,1:0:0:100:
256,192,27574,1,8,3:0:0:60:
32,192,27574,1,0,0:0:0:0:
160,192,27649,1,4,3:0:0:70:
224,192,27724,1,4,3:0:0:40:
329,192,27724,1,8,1:0:0:100:
369,192,27799,1,4,3:0:0:70:
426,192,27874,1,4,2:0:0:100:
96,192,27874,1,8,1:0:0:100:
256,192,27874,1,8,3:0:0:60:
483,192,27874,1,0,0:0:0:0:
329,192,27949,1,4,3:0:0:70:
369,192,28024,1,4,3:0:0:40:
224,192,28024,1,8,2:0:0:100:
160,192,28099,1,4,3:0:0:70:
96,192,28174,1,4,2:0:0:60:
426,192,28174,1,8,1:0:0:100:
256,192,28174,1,8,3:0:0:60:
28,192,28174,1,0,0:0:0:0:
369,192,28249,1,4,3:0:0:70:
224,192,28324,1,4,3:0:0:40:
329,192,28324,1,8,1:0:0:100:
160,192,28399,1,4,3:0:0:70:
426,192,28474,1,4,2:0:0:100:
256,192,28474,1,8,1:0:0:100:
96,192,28474,1,8,3:0:0:60:
483,192,28474,1,0,0:0:0:0:
224,192,28549,1,4,3:0:0:70:
160,192,28624,1,4,3:0:0:40:
329,192,28624,1,8,2:0:0:100:
369,192,28699,1,4,3:0:0:70:
96,192,28774,1,4,2:0:0:60:
256,192,28774,1,8,2:0:0:100:
426,192,28774,1,8,1:0:0:40:
32,192,28774,1,0,0:0:0:0:
160,192,28849,1,8,1:0:0:80:
224,192,28849,1,8,3:0:0:60:
369,192,28924,1,8,1:0:0:40:
329,192,28924,1,4,3:0:0:70:
224,192,28999,1,8,1:0:0:80:
160,192,28999,1,4,3:0:0:70:
426,192,29074,1,4,2:0:0:100:
256,192,29074,1,8,2:0:0:100:
96,192,29074,1,8,1:0:0:40:
483,192,29074,1,0,0:0:0:0:
329,192,29149,1,8,1:0:0:80:
369,192,29149,1,8,3:0:0:60:
224,192,29224,1,8,1:0:0:40:
160,192,29224,1,4,3:0:0:70:
329,192,29299,1,8,1:0:0:80:
369,192,29299,1,4,3:0:0:70:
224,192,29374,1,4,1:0:0:80:
96,192,29374,1,4,2:0:0:80:
256,192,29374,1,8,2:0:0:100:
426,192,29374,1,0,1:0:0:100:
32,192,29374,1,0,0:0:0:0:
329,192,29524,5,2,3:0:0:90:
329,192,29674,1,2,3:0:0:90:
256,192,29974,1,0,0:0:0:0:
426,192,29974,128,4,30424:3:0:0:86:
224,192,29974,128,2,30124:2:0:0:100:
96,192,29974,128,4,30274:1:0:0:56:
32,192,29974,1,0,0:0:0:0:
329,192,30124,128,0,30574:0:0:0:0:
224,192,30274,128,4,30724:3:0:0:86:
96,192,30424,128,0,30724:0:0:0:0:
426,192,30574,128,12,30724:3:0:0:86:
329,192,30724,128,0,30874:0:0:0:0:
426,192,30874,5,4,3:0:0:60:
224,192,30874,1,8,1:0:0:80:
96,192,30874,1,8,0:0:0:80:
329,192,31024,1,0,0:0:0:0:
369,192,31174,128,4,31324:3:0:0:86:
426,192,31174,128,0,31624:0:0:0:0:
160,192,31174,128,2,31474:2:0:0:100:
224,192,31324,128,0,31774:0:0:0:0:
369,192,31474,128,4,31924:3:0:0:86:
160,192,31624,128,0,31924:0:0:0:0:
426,192,31774,128,12,31924:3:0:0:86:
224,192,31924,128,0,32074:0:0:0:0:
369,192,32074,5,4,3:0:0:60:
426,192,32074,1,8,1:0:0:80:
160,192,32074,1,8,0:0:0:80:
224,192,32224,1,0,0:0:0:0:
96,192,32374,128,2,33124:2:0:0:100:
160,192,32374,128,0,32524:0:0:0:0:
369,192,32374,128,4,32674:3:0:0:86:
329,192,32524,128,0,32824:0:0:0:0:
160,192,32674,128,4,32974:3:0:0:86:
369,192,32824,128,0,33124:0:0:0:0:
329,192,32974,128,12,33124:3:0:0:86:
160,192,33124,128,0,33274:0:0:0:0:
329,192,33274,5,4,3:0:0:60:
96,192,33274,1,8,1:0:0:80:
369,192,33274,1,8,0:0:0:80:
160,192,33424,1,0,0:0:0:0:
96,192,33574,128,0,33724:0:0:0:0:
426,192,33574,128,2,34024:2:0:0:100:
329,192,33574,128,4,33874:3:0:0:86:
224,192,33724,128,0,34224:0:0:0:0:
96,192,33874,128,4,34174:3:0:0:86:
329,192,34024,128,0,34274:0:0:0:0:
426,192,34174,128,12,34324:3:0:0:86:
96,192,34324,1,0,0:0:0:0:
224,192,34374,1,0,0:0:0:0:
329,192,34424,1,0,0:0:0:0:
426,192,34474,5,4,3:0:0:60:
96,192,34474,1,8,1:0:0:80:
224,192,34624,1,0,0:0:0:0:
160,192,34774,128,4,35224:3:0:0:86:
329,192,34774,128,2,34924:2:0:0:100:
369,192,34774,128,0,35074:0:0:0:0:
224,192,34924,128,0,35374:0:0:0:0:
329,192,35074,128,4,35524:3:0:0:86:
369,192,35224,128,0,35524:0:0:0:0:
160,192,35374,128,12,35524:3:0:0:86:
224,192,35524,128,0,35674:0:0:0:0:
160,192,35674,5,4,3:0:0:60:
329,192,35674,1,8,1:0:0:80:
369,192,35674,1,8,0:0:0:80:
224,192,35824,1,0,0:0:0:0:
160,192,35974,128,4,36124:3:0:0:86:
96,192,35974,128,0,36424:0:0:0:0:
426,192,35974,128,2,36274:2:0:0:100:
329,192,36124,128,0,36574:0:0:0:0:
160,192,36274,128,4,36724:3:0:0:86:
426,192,36424,128,0,36724:0:0:0:0:
96,192,36574,128,12,36724:3:0:0:86:
329,192,36724,128,0,36874:0:0:0:0:
160,192,36874,5,4,3:0:0:60:
96,192,36874,1,8,1:0:0:80:
426,192,36874,1,8,0:0:0:80:
329,192,37024,1,0,0:0:0:0:
426,192,37174,128,2,37924:2:0:0:100:
369,192,37174,128,0,37324:0:0:0:0:
96,192,37174,128,4,37474:3:0:0:86:
224,192,37324,128,0,37624:0:0:0:0:
369,192,37474,128,4,37774:3:0:0:86:
96,192,37624,128,0,37924:0:0:0:0:
224,192,37774,128,12,37924:3:0:0:86:
369,192,37924,128,0,38074:0:0:0:0:
224,192,38074,5,4,3:0:0:60:
426,192,38074,1,8,1:0:0:80:
96,192,38074,1,8,0:0:0:80:
369,192,38224,1,0,0:0:0:0:
426,192,38374,128,0,38524:0:0:0:0:
96,192,38374,128,2,38824:2:0:0:100:
224,192,38374,128,4,38674:3:0:0:86:
329,192,38524,128,0,39024:0:0:0:0:
426,192,38674,128,4,38974:3:0:0:86:
224,192,38824,128,0,39074:0:0:0:0:
96,192,38974,128,12,39124:3:0:0:86:
426,192,39124,1,0,0:0:0:0:
329,192,39174,1,0,0:0:0:0:
224,192,39224,1,0,0:0:0:0:
96,192,39274,5,4,3:0:0:60:
426,192,39274,1,8,1:0:0:80:
329,192,39424,1,0,0:0:0:0:
199,192,39574,5,0,1:0:0:48:
256,192,39574,1,4,1:0:0:56:
160,192,39574,1,4,2:0:0:56:
426,192,39574,128,0,40174:0:0:0:0:
96,192,39574,128,4,40474:3:0:0:78:
32,192,39574,1,0,0:0:0:0:
329,192,39724,1,0,0:0:0:0:
369,192,39874,128,0,40474:1:0:0:48:
256,192,40024,1,0,0:0:0:0:
329,192,40174,128,12,40774:3:0:0:40:
224,192,40324,1,0,0:0:0:0:
426,192,40474,1,8,1:0:0:80:
256,192,40474,128,0,40774:1:0:0:100:
160,192,40624,1,0,0:0:0:0:
426,192,40774,128,4,41674:3:0:0:78:
96,192,40774,128,0,41374:1:0:0:48:
224,192,40924,1,0,0:0:0:0:
160,192,41074,128,0,41674:1:0:0:48:
256,192,41224,1,0,0:0:0:0:
224,192,41374,128,12,41974:3:0:0:40:
329,192,41524,1,0,0:0:0:0:
96,192,41674,5,0,1:0:0:100:
256,192,41674,128,8,41974:1:0:0:80:
369,192,41824,1,0,0:0:0:0:
96,192,41974,128,4,42574:3:0:0:78:
426,192,41974,128,0,42574:1:0:0:48:
329,192,42124,1,0,0:0:0:0:
369,192,42274,128,0,42574:1:0:0:48:
256,192,42424,1,0,0:0:0:0:
160,192,42574,128,12,43174:3:0:0:40:
329,192,42574,128,0,42874:0:0:0:0:
224,192,42724,1,0,0:0:0:0:
96,192,42874,5,0,1:0:0:100:
256,192,42874,128,8,43174:1:0:0:80:
369,192,43024,1,0,0:0:0:0:
426,192,43174,128,0,43474:1:0:0:48:
224,192,43174,128,4,43474:3:0:0:78:
329,192,43324,1,0,0:0:0:0:
160,192,43474,128,0,43774:1:0:0:48:
256,192,43474,128,0,43624:0:0:0:0:
329,192,43574,128,0,43724:0:0:0:0:
369,192,43674,128,0,43824:0:0:0:0:
426,192,43774,128,12,44224:3:0:0:40:
96,192,43774,128,0,43924:0:0:0:0:
256,192,43924,128,0,44074:0:0:0:0:
224,192,43974,128,0,44124:0:0:0:0:
160,192,44024,128,0,44174:0:0:0:0:
369,192,44074,128,8,44224:1:0:0:80:
96,192,44074,128,0,44224:1:0:0:100:
329,192,44224,1,0,0:0:0:0:
369,192,44374,5,0,1:0:0:48:
96,192,44374,5,8,3:0:0:90:
426,192,44374,1,4,2:0:0:56:
312,192,44374,1,0,0:0:0:0:
224,192,44374,1,0,0:0:0:0:
32,192,44374,1,0,0:0:0:0:
224,192,44524,5,4,3:0:0:50:
329,192,44674,5,0,1:0:0:48:
160,192,44674,5,8,3:0:0:90:
256,192,44674,1,0,0:0:0:0:
256,192,44824,5,4,3:0:0:50:
329,192,44974,5,0,1:0:0:48:
224,192,44974,5,8,3:0:0:90:
369,192,44974,1,0,0:0:0:0:
329,192,45124,5,4,3:0:0:50:
426,192,45274,5,0,1:0:0:100:
96,192,45274,5,8,3:0:0:30:
369,192,45274,1,8,1:0:0:80:
160,192,45274,1,0,0:0:0:0:
369,192,45424,5,4,3:0:0:30:
142,192,45574,5,0,1:0:0:48:
426,192,45574,5,8,3:0:0:90:
28,192,45574,1,4,2:0:0:56:
256,192,45574,1,0,0:0:0:0:
329,192,45574,1,0,0:0:0:0:
483,192,45574,1,0,0:0:0:0:
329,192,45724,5,4,3:0:0:50:
256,192,45874,5,0,1:0:0:48:
369,192,45874,5,8,3:0:0:90:
224,192,45874,1,0,0:0:0:0:
256,192,46024,5,4,3:0:0:50:
224,192,46174,5,0,1:0:0:48:
329,192,46174,5,8,3:0:0:90:
160,192,46174,1,0,0:0:0:0:
224,192,46324,5,4,3:0:0:50:
160,192,46474,5,0,1:0:0:100:
369,192,46474,5,8,3:0:0:30:
96,192,46474,1,8,1:0:0:80:
426,192,46474,1,0,0:0:0:0:
160,192,46624,5,4,3:0:0:30:
256,192,46774,5,0,1:0:0:48:
96,192,46774,1,4,2:0:0:56:
426,192,46774,1,0,0:0:0:0:
32,192,46774,1,0,0:0:0:0:
483,192,46774,1,0,0:0:0:0:
329,192,46849,5,4,3:0:0:58:
369,192,46849,1,0,0:0:0:0:
224,192,46924,5,0,1:0:0:48:
160,192,46924,1,0,0:0:0:0:
329,192,46999,5,4,3:0:0:48:
369,192,46999,1,0,0:0:0:0:
256,192,47074,5,0,1:0:0:48:
96,192,47074,1,8,1:0:0:80:
426,192,47074,1,0,0:0:0:0:
224,192,47149,5,4,3:0:0:38:
369,192,47224,5,8,3:0:0:86:
160,192,47224,5,0,1:0:0:30:
329,192,47299,5,8,3:0:0:50:
256,192,47374,5,0,1:0:0:48:
96,192,47374,1,4,2:0:0:56:
426,192,47374,1,0,0:0:0:0:
32,192,47374,1,0,0:0:0:0:
483,192,47374,1,0,0:0:0:0:
224,192,47449,5,4,3:0:0:58:
160,192,47449,1,0,0:0:0:0:
329,192,47524,5,0,1:0:0:48:
369,192,47524,1,0,0:0:0:0:
224,192,47599,5,4,3:0:0:48:
160,192,47599,1,0,0:0:0:0:
426,192,47674,5,0,1:0:0:48:
96,192,47674,1,8,1:0:0:80:
369,192,47749,5,4,3:0:0:38:
329,192,47824,5,8,3:0:0:86:
224,192,47824,5,0,1:0:0:30:
160,192,47899,5,8,3:0:0:50:
256,192,47974,5,4,3:0:0:30:
96,192,47974,5,4,1:0:0:56:
483,192,47974,1,4,2:0:0:56:
426,192,47974,1,0,1:0:0:34:
32,192,47974,1,0,0:0:0:0:
199,192,48124,1,0,0:0:0:0:
352,192,48274,1,0,0:0:0:0:
142,192,48424,5,4,3:0:0:54:
312,192,48574,1,0,0:0:0:0:
256,192,48724,5,4,3:0:0:54:
213,192,48774,1,0,0:0:0:0:
256,192,48824,1,0,0:0:0:0:
329,192,48874,1,0,0:0:0:0:
199,192,49024,5,4,3:0:0:54:
256,192,49174,5,10,3:0:0:100:
426,192,49174,5,6,3:0:0:100:
483,192,49174,1,6,3:0:0:100:
85,192,49174,128,2,49474:2:0:0:76:
142,192,49174,128,4,49474:1:0:0:56:
28,192,49174,1,0,0:0:0:0:
329,192,49399,1,2,2:0:0:76:
426,192,49474,128,2,50899:2:0:0:76:
256,192,49699,1,2,2:0:0:76:
96,192,49774,1,0,1:0:0:90:
369,192,49774,128,2,50899:2:0:0:76:
224,192,50036,5,2,0:0:0:60:
256,192,50074,1,2,0:0:0:60:
329,192,50111,128,2,50899:0:0:0:60:
160,192,50299,1,2,0:0:0:90:
256,192,50374,128,2,50899:0:0:0:90:
96,192,50599,5,2,0:0:0:80:
224,192,50674,128,4,50899:3:0:0:90:
160,192,50899,1,2,0:0:0:70:
426,192,50974,1,0,1:0:0:90:
256,192,50974,1,0,0:0:0:0:
329,192,50974,1,0,0:0:0:0:
369,192,50974,1,0,0:0:0:0:
199,192,51274,1,0,0:0:0:0:
312,192,51424,1,0,0:0:0:0:
142,192,51574,1,6,3:0:0:100:
28,192,51574,128,10,51874:3:0:0:100:
483,192,51574,128,6,51874:3:0:0:100:
369,192,51574,1,0,0:0:0:0:
224,192,51874,128,2,51949:1:0:0:40:
329,192,51874,128,0,51949:0:0:0:0:
224,192,52099,1,2,1:0:0:20:
329,192,52099,1,0,0:0:0:0:
224,192,52174,128,2,52249:1:0:0:20:
329,192,52174,128,0,52249:1:0:0:90:
224,192,52474,128,2,52549:1:0:0:40:
329,192,52474,128,4,52549:3:0:0:90:
224,192,52774,128,2,52849:1:0:0:20:
329,192,52774,128,4,52849:3:0:0:90:
224,192,52999,1,2,1:0:0:20:
329,192,52999,1,8,3:0:0:40:
224,192,53074,128,2,53149:1:0:0:30:
329,192,53074,128,4,53149:3:0:0:60:
256,192,53224,1,4,3:0:0:90:
224,192,53299,1,2,1:0:0:20:
329,192,53299,1,0,0:0:0:0:
224,192,53374,128,2,53449:1:0:0:20:
329,192,53374,128,0,53449:1:0:0:90:
160,192,53599,1,0,0:0:0:0:
96,192,53674,5,2,1:0:0:40:
483,192,53674,1,4,3:0:0:90:
256,192,53674,1,0,0:0:0:0:
32,192,53674,1,0,0:0:0:0:
256,192,53974,5,10,3:0:0:100:
160,192,53974,1,6,3:0:0:100:
369,192,53974,128,6,54274:3:0:0:100:
426,192,53974,128,2,54274:2:0:0:76:
96,192,54199,128,2,55699:2:0:0:76:
224,192,54274,1,2,2:0:0:76:
160,192,54499,128,2,55699:2:0:0:76:
256,192,54574,1,0,1:0:0:90:
224,192,54836,128,2,55699:0:0:0:60:
256,192,54874,1,2,0:0:0:60:
329,192,54911,1,2,0:0:0:60:
256,192,55099,128,2,55699:0:0:0:70:
369,192,55174,1,2,0:0:0:70:
329,192,55399,128,2,55699:0:0:0:80:
426,192,55474,1,4,3:0:0:90:
369,192,55699,1,2,0:0:0:90:
96,192,55774,1,0,1:0:0:90:
256,192,55774,1,2,0:0:0:90:
224,192,55774,1,0,0:0:0:0:
160,192,55774,1,0,0:0:0:0:
160,192,56074,1,0,0:0:0:0:
256,192,56224,1,0,0:0:0:0:
28,192,56374,5,10,3:0:0:100:
224,192,56374,128,6,56674:3:0:0:100:
483,192,56374,1,0,0:0:0:0:
329,192,56374,128,6,56674:3:0:0:100:
160,192,56674,128,2,56749:1:0:0:40:
369,192,56674,128,0,56749:0:0:0:0:
160,192,56899,1,2,1:0:0:20:
369,192,56899,1,0,0:0:0:0:
160,192,56974,128,2,57049:1:0:0:20:
369,192,56974,128,0,57049:1:0:0:90:
160,192,57274,128,2,57349:1:0:0:40:
369,192,57274,128,4,57349:3:0:0:90:
160,192,57574,128,2,57649:1:0:0:20:
369,192,57574,128,4,57649:3:0:0:90:
160,192,57799,1,2,1:0:0:20:
369,192,57799,1,8,3:0:0:40:
160,192,57874,128,2,57949:1:0:0:30:
369,192,57874,128,4,57949:3:0:0:60:
256,192,58024,1,4,3:0:0:90:
160,192,58099,1,2,1:0:0:20:
369,192,58099,1,0,0:0:0:0:
160,192,58174,128,2,58249:1:0:0:20:
369,192,58174,128,0,58249:1:0:0:90:
224,192,58399,1,0,0:0:0:0:
96,192,58474,5,2,1:0:0:40:
483,192,58474,1,4,3:0:0:90:
256,192,58474,1,2,3:0:0:90:
32,192,58474,1,0,0:0:0:0:
329,192,58624,1,0,0:0:0:0:
483,192,58774,5,10,3:0:0:100:
426,192,58774,1,6,3:0:0:100:
28,192,58774,128,4,59074:2:0:0:56:
224,192,58774,128,6,59074:3:0:0:100:
312,192,58924,1,0,1:0:0:50:
369,192,58999,1,0,0:0:0:0:
160,192,59074,1,0,1:0:0:90:
426,192,59074,128,0,59374:0:0:0:0:
256,192,59224,1,0,1:0:0:50:
224,192,59299,1,0,0:0:0:0:
329,192,59374,1,0,0:0:0:0:
160,192,59374,128,4,59674:3:0:0:90:
369,192,59524,1,0,1:0:0:50:
256,192,59636,1,0,0:0:0:0:
85,192,59674,1,0,1:0:0:90:
329,192,59674,1,0,0:0:0:0:
369,192,59711,128,0,59974:0:0:0:0:
224,192,59824,1,0,1:0:0:50:
160,192,59899,1,0,0:0:0:0:
426,192,59974,1,4,3:0:0:90:
96,192,59974,128,0,60274:0:0:0:0:
369,192,60124,1,0,1:0:0:50:
329,192,60199,1,0,0:0:0:0:
224,192,60274,1,0,1:0:0:90:
426,192,60274,1,0,0:0:0:0:
256,192,60274,128,0,60574:0:0:0:0:
96,192,60424,1,0,1:0:0:50:
160,192,60499,1,0,0:0:0:0:
224,192,60574,128,0,60874:0:0:0:0:
329,192,60574,128,4,60874:3:0:0:90:
426,192,60724,1,0,1:0:0:50:
160,192,60874,1,0,1:0:0:90:
96,192,60874,1,0,0:0:0:0:
369,192,60874,1,0,0:0:0:0:
256,192,61024,1,0,1:0:0:50:
96,192,61174,1,6,3:0:0:100:
28,192,61174,1,0,0:0:0:0:
329,192,61174,128,2,61474:3:0:0:100:
483,192,61174,128,6,61474:3:0:0:100:
160,192,61324,1,0,1:0:0:50:
256,192,61474,1,0,1:0:0:90:
96,192,61474,128,2,61549:1:0:0:40:
224,192,61474,1,0,0:0:0:0:
369,192,61624,1,0,1:0:0:50:
160,192,61699,1,2,1:0:0:20:
329,192,61774,1,4,3:0:0:90:
96,192,61774,128,2,61849:1:0:0:20:
256,192,61774,1,0,0:0:0:0:
426,192,61924,1,0,1:0:0:50:
369,192,62074,5,2,1:0:0:40:
329,192,62074,1,0,0:0:0:0:
96,192,62074,128,0,62149:1:0:0:90:
224,192,62224,1,0,1:0:0:50:
426,192,62374,1,4,3:0:0:90:
96,192,62374,128,2,62449:1:0:0:20:
369,192,62374,1,0,0:0:0:0:
224,192,62524,1,0,1:0:0:50:
160,192,62599,1,2,1:0:0:20:
329,192,62674,1,0,1:0:0:90:
96,192,62674,128,2,62749:1:0:0:30:
256,192,62674,1,0,0:0:0:0:
426,192,62824,1,0,1:0:0:50:
224,192,62899,1,2,1:0:0:20:
329,192,62974,1,4,3:0:0:90:
96,192,62974,128,2,63049:1:0:0:20:
369,192,62974,1,0,0:0:0:0:
160,192,63124,1,0,1:0:0:50:
224,192,63199,1,0,0:0:0:0:
96,192,63274,5,2,1:0:0:40:
426,192,63274,1,0,1:0:0:90:
483,192,63274,1,0,0:0:0:0:
256,192,63274,1,2,3:0:0:90:
32,192,63274,1,0,0:0:0:0:
312,192,63424,1,0,1:0:0:50:
369,192,63574,1,4,3:0:0:100:
96,192,63574,1,4,2:0:0:56:
199,192,63574,1,0,0:0:0:0:
426,192,63574,1,0,0:0:0:0:
483,192,63574,1,0,0:0:0:0:
160,192,63724,1,8,3:0:0:50:
256,192,63724,1,0,0:0:0:0:
224,192,63874,1,8,1:0:0:50:
329,192,63874,1,4,3:0:0:90:
96,192,63874,1,0,1:0:0:100:
369,192,64024,1,8,3:0:0:50:
256,192,64024,1,0,0:0:0:0:
160,192,64174,1,8,1:0:0:65:
426,192,64174,1,4,3:0:0:90:
329,192,64174,1,0,0:0:0:0:
256,192,64324,1,8,3:0:0:50:
369,192,64324,1,0,0:0:0:0:
329,192,64474,1,4,3:0:0:90:
96,192,64474,1,0,1:0:0:100:
224,192,64474,1,8,1:0:0:80:
256,192,64624,1,8,3:0:0:30:
160,192,64624,1,0,0:0:0:0:
96,192,64774,1,4,2:0:0:70:
369,192,64774,1,4,3:0:0:90:
224,192,64774,1,0,0:0:0:0:
426,192,64774,1,0,0:0:0:0:
32,192,64774,1,0,0:0:0:0:
256,192,64924,1,8,3:0:0:50:
160,192,64924,1,0,0:0:0:0:
224,192,65074,1,4,3:0:0:90:
329,192,65074,1,0,1:0:0:100:
426,192,65074,1,8,1:0:0:50:
256,192,65224,1,8,3:0:0:50:
369,192,65224,1,0,0:0:0:0:
329,192,65374,1,4,3:0:0:90:
160,192,65374,1,8,1:0:0:65:
426,192,65374,1,0,0:0:0:0:
369,192,65524,1,8,3:0:0:50:
256,192,65524,1,0,0:0:0:0:
329,192,65674,1,4,3:0:0:90:
96,192,65674,1,0,1:0:0:100:
224,192,65674,1,8,1:0:0:80:
160,192,65824,1,8,3:0:0:30:
256,192,65824,1,0,0:0:0:0:
369,192,65974,5,4,3:0:0:100:
96,192,65974,1,4,2:0:0:70:
426,192,65974,1,0,0:0:0:0:
224,192,65974,1,0,0:0:0:0:
483,192,65974,1,0,0:0:0:0:
256,192,66049,1,8,3:0:0:50:
329,192,66124,1,4,3:0:0:90:
160,192,66124,1,8,1:0:0:50:
224,192,66199,1,8,3:0:0:50:
369,192,66274,1,8,1:0:0:50:
256,192,66274,1,4,3:0:0:90:
96,192,66274,1,0,0:0:0:0:
160,192,66349,1,8,3:0:0:50:
224,192,66424,1,8,1:0:0:80:
426,192,66424,1,4,3:0:0:90:
369,192,66499,1,8,3:0:0:50:
256,192,66574,1,4,2:0:0:85:
329,192,66574,1,4,3:0:0:90:
96,192,66574,1,0,0:0:0:0:
32,192,66574,1,0,0:0:0:0:
160,192,66649,1,8,3:0:0:50:
224,192,66649,1,0,0:0:0:0:
369,192,66724,1,4,3:0:0:80:
426,192,66724,1,8,1:0:0:50:
329,192,66761,1,4,3:0:0:80:
256,192,66799,1,4,3:0:0:80:
224,192,66836,1,4,3:0:0:80:
160,192,66874,1,4,3:0:0:80:
96,192,66874,1,8,1:0:0:50:
369,192,66949,1,8,3:0:0:50:
426,192,66949,1,0,0:0:0:0:
256,192,67024,1,8,1:0:0:80:
329,192,67024,1,0,0:0:0:0:
224,192,67099,1,4,3:0:0:90:
160,192,67099,1,0,0:0:0:0:
483,192,67174,1,8,3:0:0:50:
426,192,67174,1,0,0:0:0:0:
32,192,67174,1,0,0:0:0:0:
96,192,67174,1,4,2:0:0:100:
369,192,67174,1,0,0:0:0:0:
312,192,67174,128,2,67249:1:0:0:30:
224,192,67399,5,2,1:0:0:30:
312,192,67474,128,2,67549:1:0:0:45:
224,192,67699,1,2,1:0:0:30:
312,192,67774,128,2,67849:1:0:0:30:
199,192,67999,1,0,0:0:0:0:
329,192,68074,1,0,0:0:0:0:
142,192,68074,1,2,1:0:0:60:
369,192,68224,1,0,0:0:0:0:
96,192,68374,128,4,69594:2:0:0:56:
224,192,68374,128,0,68994:0:0:0:0:
426,192,68374,128,4,69444:3:0:0:30:
32,192,68374,1,0,0:0:0:0:
483,192,68374,1,0,0:0:0:0:
329,192,68544,1,0,0:0:0:0:
369,192,68694,1,0,0:0:0:0:
256,192,68844,1,0,0:0:0:0:
329,192,68994,1,0,0:0:0:0:
224,192,69144,1,0,0:0:0:0:
369,192,69194,1,0,0:0:0:0:
329,192,69244,1,0,0:0:0:0:
256,192,69294,1,0,0:0:0:0:
160,192,69444,1,0,0:0:0:0:
224,192,69594,1,0,0:0:0:0:
426,192,69594,128,0,70494:0:0:0:0:
329,192,69594,128,2,70344:2:0:0:66:
96,192,69744,1,0,0:0:0:0:
224,192,69894,1,0,0:0:0:0:
160,192,70044,1,0,0:0:0:0:
96,192,70194,128,0,70644:0:0:0:0:
329,192,70494,1,0,0:0:0:0:
426,192,70644,1,0,0:0:0:0:
224,192,70794,128,0,71244:0:0:0:0:
96,192,70794,128,2,71694:0:0:0:36:
369,192,70794,1,0,0:0:0:0:
426,192,70944,1,0,0:0:0:0:
329,192,71094,1,0,0:0:0:0:
369,192,71244,1,0,0:0:0:0:
224,192,71394,1,0,0:0:0:0:
256,192,71544,1,0,0:0:0:0:
426,192,71594,1,0,0:0:0:0:
329,192,71644,1,0,0:0:0:0:
224,192,71694,1,0,0:0:0:0:
96,192,71844,1,0,0:0:0:0:
329,192,71994,128,0,72894:0:0:0:0:
426,192,71994,128,2,73044:0:0:0:96:
160,192,71994,1,0,0:0:0:0:
96,192,72144,1,0,0:0:0:0:
224,192,72294,1,0,0:0:0:0:
160,192,72444,1,0,0:0:0:0:
96,192,72594,128,0,73044:0:0:0:0:
224,192,72894,1,0,0:0:0:0:
329,192,73044,1,0,0:0:0:0:
96,192,73194,128,2,74244:0:0:0:66:
224,192,73194,128,0,73744:0:0:0:0:
426,192,73194,128,0,74194:0:0:0:0:
329,192,73644,1,0,0:0:0:0:
329,192,73794,1,0,0:0:0:0:
224,192,73944,1,0,0:0:0:0:
256,192,74094,1,0,0:0:0:0:
160,192,74244,1,0,0:0:0:0:
329,192,74394,128,0,74844:0:0:0:0:
426,192,74394,128,0,75144:0:0:0:0:
96,192,74394,128,2,75444:0:0:0:30:
224,192,74544,1,0,0:0:0:0:
160,192,74694,1,0,0:0:0:0:
224,192,74844,1,0,0:0:0:0:
329,192,74994,128,0,75294:0:0:0:0:
426,192,75294,1,0,0:0:0:0:
329,192,75444,1,0,0:0:0:0:
96,192,75594,128,0,76344:0:0:0:0:
224,192,75594,128,2,76294:0:0:0:40:
426,192,75594,128,0,76044:0:0:0:0:
256,192,75744,1,0,0:0:0:0:
369,192,75894,1,0,0:0:0:0:
329,192,76044,128,0,76194:0:0:0:0:
426,192,76194,1,0,0:0:0:0:
329,192,76344,1,0,0:0:0:0:
426,192,76394,128,0,76644:0:0:0:0:
224,192,76444,1,0,0:0:0:0:
96,192,76494,128,0,76644:0:0:0:0:
256,192,76644,1,0,0:0:0:0:
96,192,76794,128,0,77244:0:0:0:0:
329,192,76794,128,0,76944:0:0:0:0:
426,192,76794,128,2,77094:0:0:0:96:
224,192,76944,128,0,77394:0:0:0:0:
329,192,77094,128,0,77544:0:0:0:0:
426,192,77244,128,0,77544:0:0:0:0:
96,192,77394,128,0,77544:0:0:0:0:
224,192,77544,128,0,77694:0:0:0:0:
96,192,77694,128,8,77844:2:0:0:80:
329,192,77694,128,0,77844:0:0:0:0:
426,192,77694,128,8,77844:1:0:0:70:
224,192,77844,128,0,77974:0:0:0:0:
96,192,77974,1,4,3:0:0:44:
426,192,77974,1,0,1:0:0:90:
329,192,77974,1,8,2:0:0:90:
483,192,77974,1,0,0:0:0:0:
32,192,77974,1,0,0:0:0:0:
160,192,78124,1,0,0:0:0:0:
224,192,78199,1,0,0:0:0:0:
426,192,78274,1,0,1:0:0:60:
256,192,78274,1,8,2:0:0:60:
96,192,78274,1,0,0:0:0:0:
369,192,78349,1,0,0:0:0:0:
224,192,78424,1,0,0:0:0:0:
329,192,78424,1,0,0:0:0:0:
160,192,78499,1,0,0:0:0:0:
256,192,78574,1,0,1:0:0:30:
96,192,78574,1,8,2:0:0:45:
426,192,78574,1,0,0:0:0:0:
224,192,78724,1,0,0:0:0:0:
329,192,78724,1,0,0:0:0:0:
369,192,78799,1,0,0:0:0:0:
256,192,78874,1,0,1:0:0:70:
160,192,78874,1,2,3:0:0:70:
426,192,78874,1,0,0:0:0:0:
329,192,78949,1,0,0:0:0:0:
224,192,79024,1,0,0:0:0:0:
369,192,79024,1,0,0:0:0:0:
256,192,79099,1,0,0:0:0:0:
329,192,79174,1,8,2:0:0:90:
96,192,79174,1,0,1:0:0:90:
224,192,79324,1,0,0:0:0:0:
160,192,79399,1,0,0:0:0:0:
426,192,79474,1,8,2:0:0:60:
256,192,79474,1,0,1:0:0:60:
96,192,79474,1,0,0:0:0:0:
329,192,79549,1,0,0:0:0:0:
369,192,79624,1,0,0:0:0:0:
224,192,79624,1,0,0:0:0:0:
329,192,79774,1,0,1:0:0:30:
256,192,79774,1,8,2:0:0:45:
160,192,79774,1,0,0:0:0:0:
369,192,79924,1,0,0:0:0:0:
96,192,79924,1,0,0:0:0:0:
160,192,79999,1,0,0:0:0:0:
256,192,80074,1,0,1:0:0:70:
224,192,80074,1,2,3:0:0:70:
426,192,80074,1,0,0:0:0:0:
369,192,80149,1,0,0:0:0:0:
160,192,80224,1,0,0:0:0:0:
329,192,80224,1,0,0:0:0:0:
224,192,80299,1,0,0:0:0:0:
426,192,80374,1,0,1:0:0:90:
256,192,80374,1,8,2:0:0:90:
96,192,80374,1,0,0:0:0:0:
329,192,80524,1,0,0:0:0:0:
369,192,80599,1,0,0:0:0:0:
426,192,80674,1,0,1:0:0:60:
256,192,80674,1,8,2:0:0:60:
96,192,80674,1,0,0:0:0:0:
160,192,80749,1,0,0:0:0:0:
224,192,80824,1,0,0:0:0:0:
329,192,80824,1,0,0:0:0:0:
256,192,80974,1,8,2:0:0:45:
369,192,80974,1,0,1:0:0:30:
96,192,80974,1,0,0:0:0:0:
426,192,81124,1,0,0:0:0:0:
160,192,81124,1,0,0:0:0:0:
224,192,81174,1,0,0:0:0:0:
256,192,81224,1,0,0:0:0:0:
96,192,81274,1,2,3:0:0:70:
369,192,81274,1,0,1:0:0:70:
329,192,81274,1,0,0:0:0:0:
426,192,81424,1,0,0:0:0:0:
224,192,81424,1,0,0:0:0:0:
160,192,81499,1,0,0:0:0:0:
256,192,81574,1,8,2:0:0:90:
96,192,81574,1,0,1:0:0:90:
369,192,81574,1,0,0:0:0:0:
329,192,81724,1,0,0:0:0:0:
256,192,81799,1,0,0:0:0:0:
224,192,81874,1,8,2:0:0:60:
426,192,81874,1,0,1:0:0:60:
96,192,81874,1,0,0:0:0:0:
369,192,81949,1,0,0:0:0:0:
329,192,82024,1,0,0:0:0:0:
160,192,82024,1,0,0:0:0:0:
224,192,82099,1,0,0:0:0:0:
426,192,82174,1,0,1:0:0:30:
256,192,82174,1,8,2:0:0:45:
96,192,82174,1,0,0:0:0:0:
369,192,82249,1,0,0:0:0:0:
329,192,82324,1,0,0:0:0:0:
256,192,82399,1,0,0:0:0:0:
224,192,82474,1,0,1:0:0:70:
160,192,82474,1,2,3:0:0:70:
426,192,82474,1,0,0:0:0:0:
256,192,82624,1,0,0:0:0:0:
329,192,82624,1,0,0:0:0:0:
483,192,82774,1,4,2:0:0:70:
369,192,82774,1,0,1:0:0:90:
224,192,82774,1,0,0:0:0:0:
426,192,82774,1,0,0:0:0:0:
32,192,82774,1,0,0:0:0:0:
96,192,82924,1,0,1:0:0:50:
160,192,82924,1,8,2:0:0:90:
369,192,82999,1,0,0:0:0:0:
224,192,83074,1,0,1:0:0:90:
329,192,83074,1,0,0:0:0:0:
160,192,83224,1,8,2:0:0:90:
96,192,83224,1,0,1:0:0:50:
369,192,83224,1,0,0:0:0:0:
329,192,83374,1,0,1:0:0:90:
224,192,83374,1,0,0:0:0:0:
96,192,83524,1,0,1:0:0:50:
160,192,83524,1,8,2:0:0:90:
426,192,83524,1,0,0:0:0:0:
369,192,83599,1,0,0:0:0:0:
224,192,83674,1,2,3:0:0:100:
256,192,83674,1,0,1:0:0:80:
329,192,83674,1,0,0:0:0:0:
160,192,83824,1,2,3:0:0:100:
256,192,83824,1,0,1:0:0:80:
369,192,83824,1,0,0:0:0:0:
426,192,83974,1,0,1:0:0:90:
96,192,83974,1,4,2:0:0:80:
224,192,83974,1,0,0:0:0:0:
329,192,83974,1,0,0:0:0:0:
32,192,83974,1,0,0:0:0:0:
483,192,83974,1,0,0:0:0:0:
329,192,84124,1,0,1:0:0:50:
369,192,84124,1,8,2:0:0:90:
256,192,84199,1,0,0:0:0:0:
224,192,84274,1,0,1:0:0:90:
96,192,84274,1,0,0:0:0:0:
369,192,84424,1,8,2:0:0:90:
329,192,84424,1,0,1:0:0:50:
160,192,84424,1,0,0:0:0:0:
224,192,84574,1,0,1:0:0:90:
96,192,84574,1,0,0:0:0:0:
329,192,84724,1,0,1:0:0:50:
369,192,84724,1,8,2:0:0:90:
256,192,84799,1,0,0:0:0:0:
160,192,84874,1,0,1:0:0:80:
224,192,84874,1,2,3:0:0:100:
329,192,85024,1,0,1:0:0:80:
256,192,85024,1,2,3:0:0:100:
96,192,85174,1,4,2:0:0:90:
426,192,85174,1,0,1:0:0:90:
369,192,85174,1,0,0:0:0:0:
224,192,85174,1,0,0:0:0:0:
32,192,85174,1,0,0:0:0:0:
483,192,85174,1,0,0:0:0:0:
256,192,85249,1,8,3:0:0:48:
160,192,85324,1,0,1:0:0:90:
329,192,85324,1,0,0:0:0:0:
224,192,85399,1,8,3:0:0:48:
96,192,85474,1,0,1:0:0:44:
256,192,85474,1,2,3:0:0:100:
369,192,85549,1,4,3:0:0:48:
329,192,85624,1,0,1:0:0:44:
160,192,85624,1,0,0:0:0:0:
256,192,85699,1,4,3:0:0:48:
426,192,85774,1,0,1:0:0:90:
224,192,85774,1,0,0:0:0:0:
32,192,85774,1,0,0:0:0:0:
483,192,85774,1,0,0:0:0:0:
96,192,85774,1,4,2:0:0:90:
369,192,85849,1,8,3:0:0:48:
256,192,85924,1,0,1:0:0:90:
329,192,85924,1,0,0:0:0:0:
224,192,85974,1,0,0:0:0:0:
369,192,85999,1,8,3:0:0:48:
160,192,86024,1,0,0:0:0:0:
426,192,86074,1,0,1:0:0:44:
96,192,86074,1,2,3:0:0:100:
329,192,86149,1,4,3:0:0:48:
369,192,86224,1,0,1:0:0:44:
160,192,86224,1,0,0:0:0:0:
224,192,86299,1,4,3:0:0:48:
256,192,86374,1,4,3:0:0:60:
329,192,86374,1,4,1:0:0:56:
426,192,86374,1,0,1:0:0:90:
96,192,86374,1,4,2:0:0:90:
32,192,86374,1,0,0:0:0:0:
483,192,86374,1,0,0:0:0:0:
160,192,86524,128,0,86899:0:0:0:0:
256,192,86674,128,0,87199:0:0:0:0:
369,192,86824,128,0,87199:0:0:0:0:
160,192,86974,128,0,87199:0:0:0:0:
369,192,87274,1,2,3:0:0:90:
160,192,87274,1,0,0:0:0:0:
256,192,87274,1,0,0:0:0:0:
160,192,87574,5,4,1:0:0:56:
312,192,87574,5,4,3:0:0:100:
256,192,87574,1,8,1:0:0:60:
224,192,87574,1,0,1:0:0:34:
32,192,87574,1,0,0:0:0:0:
483,192,87574,1,0,0:0:0:0:
426,192,87724,1,0,0:0:0:0:
96,192,87724,1,0,0:0:0:0:
369,192,87799,1,0,0:0:0:0:
329,192,87874,1,4,3:0:0:100:
224,192,87874,1,0,0:0:0:0:
160,192,88024,1,0,0:0:0:0:
426,192,88024,1,0,0:0:0:0:
224,192,88099,1,0,0:0:0:0:
256,192,88174,1,0,1:0:0:80:
329,192,88174,1,2,3:0:0:66:
96,192,88174,1,0,0:0:0:0:
224,192,88324,1,0,0:0:0:0:
160,192,88324,1,0,0:0:0:0:
329,192,88399,1,0,0:0:0:0:
369,192,88399,1,0,0:0:0:0:
256,192,88474,1,4,3:0:0:100:
224,192,88474,1,0,0:0:0:0:
160,192,88624,1,0,0:0:0:0:
96,192,88624,1,0,0:0:0:0:
369,192,88774,1,4,2:0:0:70:
199,192,88774,1,4,3:0:0:100:
28,192,88774,1,2,2:0:0:100:
426,192,88774,1,0,0:0:0:0:
329,192,88774,1,0,0:0:0:0:
96,192,88924,1,0,0:0:0:0:
369,192,88924,1,0,0:0:0:0:
160,192,88999,1,0,0:0:0:0:
329,192,89074,1,4,3:0:0:100:
224,192,89074,1,0,0:0:0:0:
160,192,89224,1,0,0:0:0:0:
369,192,89224,1,0,0:0:0:0:
256,192,89374,1,0,1:0:0:80:
96,192,89374,1,2,3:0:0:66:
426,192,89374,1,0,0:0:0:0:
224,192,89524,1,0,0:0:0:0:
160,192,89524,1,0,0:0:0:0:
329,192,89599,1,0,0:0:0:0:
369,192,89599,1,0,0:0:0:0:
160,192,89674,1,4,3:0:0:100:
96,192,89674,1,0,0:0:0:0:
426,192,89824,1,0,0:0:0:0:
369,192,89824,1,0,0:0:0:0:
312,192,89974,1,4,2:0:0:70:
256,192,89974,1,4,3:0:0:100:
224,192,89974,1,2,2:0:0:100:
96,192,89974,1,0,0:0:0:0:
483,192,89974,1,0,0:0:0:0:
426,192,90124,1,0,0:0:0:0:
160,192,90124,1,0,0:0:0:0:
369,192,90199,1,0,0:0:0:0:
312,192,90274,1,4,3:0:0:100:
224,192,90274,1,0,0:0:0:0:
96,192,90424,1,0,0:0:0:0:
426,192,90424,1,0,0:0:0:0:
160,192,90574,1,2,3:0:0:66:
256,192,90574,1,0,1:0:0:80:
369,192,90574,1,0,0:0:0:0:
426,192,90724,1,0,0:0:0:0:
96,192,90724,1,0,0:0:0:0:
224,192,90774,1,0,0:0:0:0:
329,192,90824,1,0,0:0:0:0:
426,192,90874,1,4,3:0:0:100:
96,192,90874,1,0,0:0:0:0:
160,192,91024,1,0,0:0:0:0:
369,192,91024,1,0,0:0:0:0:
224,192,91174,1,2,2:0:0:100:
329,192,91174,1,4,3:0:0:100:
28,192,91174,1,4,2:0:0:70:
426,192,91174,1,0,0:0:0:0:
256,192,91174,1,0,0:0:0:0:
160,192,91324,1,0,0:0:0:0:
369,192,91324,1,0,0:0:0:0:
329,192,91399,1,0,0:0:0:0:
256,192,91474,1,4,3:0:0:100:
96,192,91474,1,0,0:0:0:0:
369,192,91624,1,0,0:0:0:0:
224,192,91624,1,0,0:0:0:0:
329,192,91774,1,0,1:0:0:80:
96,192,91774,1,2,3:0:0:66:
160,192,91774,1,0,0:0:0:0:
369,192,91849,1,0,0:0:0:0:
426,192,91924,1,0,0:0:0:0:
224,192,91924,1,0,0:0:0:0:
96,192,92074,1,4,3:0:0:100:
160,192,92074,1,0,0:0:0:0:
256,192,92224,1,0,0:0:0:0:
329,192,92224,1,0,0:0:0:0:
96,192,92374,1,4,2:0:0:70:
426,192,92374,1,4,3:0:0:100:
224,192,92374,1,2,2:0:0:100:
483,192,92374,1,0,0:0:0:0:
160,192,92374,1,0,0:0:0:0:
256,192,92524,1,0,0:0:0:0:
369,192,92599,1,0,0:0:0:0:
160,192,92599,1,0,0:0:0:0:
329,192,92674,1,4,3:0:0:100:
224,192,92674,1,0,0:0:0:0:
369,192,92824,1,0,0:0:0:0:
160,192,92824,1,0,0:0:0:0:
256,192,92974,1,2,3:0:0:66:
329,192,92974,1,0,1:0:0:80:
96,192,92974,1,0,0:0:0:0:
160,192,93124,1,0,0:0:0:0:
224,192,93124,1,0,0:0:0:0:
329,192,93199,1,0,0:0:0:0:
369,192,93199,1,0,0:0:0:0:
160,192,93274,1,4,3:0:0:100:
224,192,93274,1,0,0:0:0:0:
329,192,93424,1,0,0:0:0:0:
96,192,93424,1,0,0:0:0:0:
224,192,93574,1,2,2:0:0:100:
369,192,93574,1,4,3:0:0:100:
28,192,93574,1,4,2:0:0:70:
256,192,93574,1,0,0:0:0:0:
426,192,93574,1,0,0:0:0:0:
96,192,93724,1,0,0:0:0:0:
329,192,93724,1,0,0:0:0:0:
369,192,93799,1,0,0:0:0:0:
426,192,93874,1,4,3:0:0:100:
224,192,93874,1,0,0:0:0:0:
160,192,94024,1,0,0:0:0:0:
329,192,94024,1,0,0:0:0:0:
256,192,94174,1,0,1:0:0:80:
96,192,94174,1,2,3:0:0:66:
426,192,94174,1,0,0:0:0:0:
224,192,94324,1,0,0:0:0:0:
369,192,94324,1,0,0:0:0:0:
329,192,94399,1,0,0:0:0:0:
256,192,94474,1,4,3:0:0:100:
160,192,94474,1,0,0:0:0:0:
224,192,94624,1,0,0:0:0:0:
329,192,94624,1,0,0:0:0:0:
160,192,94774,1,4,2:0:0:70:
256,192,94774,1,4,3:0:0:100:
96,192,94774,1,2,2:0:0:100:
369,192,94774,1,0,0:0:0:0:
483,192,94774,1,0,0:0:0:0:
329,192,94924,1,0,0:0:0:0:
224,192,94924,1,0,0:0:0:0:
160,192,94999,1,0,0:0:0:0:
369,192,95074,1,4,3:0:0:100:
96,192,95074,1,0,0:0:0:0:
329,192,95224,1,0,0:0:0:0:
160,192,95224,1,0,0:0:0:0:
224,192,95374,1,2,3:0:0:66:
426,192,95374,1,0,1:0:0:80:
256,192,95374,1,0,0:0:0:0:
369,192,95524,1,0,0:0:0:0:
96,192,95524,1,0,0:0:0:0:
329,192,95574,1,0,0:0:0:0:
256,192,95624,1,0,0:0:0:0:
426,192,95674,1,4,3:0:0:100:
224,192,95674,1,0,0:0:0:0:
96,192,95824,1,0,0:0:0:0:
329,192,95824,1,0,0:0:0:0:
224,192,95974,1,2,2:0:0:100:
369,192,95974,1,4,3:0:0:100:
28,192,95974,1,4,2:0:0:70:
256,192,95974,1,0,0:0:0:0:
426,192,95974,1,0,0:0:0:0:
96,192,96124,1,0,0:0:0:0:
329,192,96124,1,0,0:0:0:0:
160,192,96199,1,0,0:0:0:0:
426,192,96274,1,4,3:0:0:100:
224,192,96274,1,0,0:0:0:0:
96,192,96424,1,0,0:0:0:0:
329,192,96424,1,0,0:0:0:0:
224,192,96574,1,0,1:0:0:90:
160,192,96574,1,0,0:0:0:0:
369,192,96574,1,0,0:0:0:0:
96,192,96724,5,2,3:0:0:90:
256,192,96724,1,0,0:0:0:0:
483,192,96724,1,0,0:0:0:0:
32,192,96724,1,0,0:0:0:0:
483,192,96874,1,4,3:0:0:100:
96,192,96874,1,2,3:0:0:90:
256,192,96874,1,0,0:0:0:0:
32,192,96874,1,0,0:0:0:0:
224,192,97024,1,0,0:0:0:0:
329,192,97024,1,0,0:0:0:0:
96,192,97174,5,4,1:0:0:56:
256,192,97174,1,8,1:0:0:100:
160,192,97174,1,2,2:0:0:100:
483,192,97174,1,4,3:0:0:100:
426,192,97174,1,0,0:0:0:0:
32,192,97174,1,0,0:0:0:0:
224,192,97324,1,0,0:0:0:0:
329,192,97324,1,0,0:0:0:0:
160,192,97399,1,0,0:0:0:0:
96,192,97474,1,4,3:0:0:100:
369,192,97474,1,0,0:0:0:0:
224,192,97624,1,0,0:0:0:0:
426,192,97624,1,0,0:0:0:0:
256,192,97774,1,0,1:0:0:80:
329,192,97774,1,2,3:0:0:66:
160,192,97774,1,0,0:0:0:0:
96,192,97924,1,0,0:0:0:0:
224,192,97924,1,0,0:0:0:0:
426,192,97999,1,0,0:0:0:0:
329,192,97999,1,0,0:0:0:0:
96,192,98074,1,4,3:0:0:100:
224,192,98074,1,0,0:0:0:0:
160,192,98224,1,0,0:0:0:0:
256,192,98224,1,0,0:0:0:0:
224,192,98374,1,4,3:0:0:100:
312,192,98374,1,8,1:0:0:80:
369,192,98374,1,4,2:0:0:70:
28,192,98374,1,0,0:0:0:0:
96,192,98374,1,0,0:0:0:0:
256,192,98524,1,0,0:0:0:0:
160,192,98524,1,0,0:0:0:0:
329,192,98599,1,0,0:0:0:0:
224,192,98674,1,4,3:0:0:100:
369,192,98674,1,0,0:0:0:0:
96,192,98824,1,0,0:0:0:0:
426,192,98824,1,0,0:0:0:0:
256,192,98974,1,0,1:0:0:80:
369,192,98974,1,2,3:0:0:66:
160,192,98974,1,0,0:0:0:0:
329,192,99124,1,0,0:0:0:0:
426,192,99124,1,0,0:0:0:0:
224,192,99199,1,0,0:0:0:0:
96,192,99199,1,0,0:0:0:0:
369,192,99274,1,4,3:0:0:100:
256,192,99274,1,0,0:0:0:0:
160,192,99424,1,0,0:0:0:0:
329,192,99424,1,0,0:0:0:0:
96,192,99574,1,4,3:0:0:100:
483,192,99574,1,8,1:0:0:80:
369,192,99574,1,4,2:0:0:70:
256,192,99574,1,0,0:0:0:0:
224,192,99574,1,0,0:0:0:0:
329,192,99724,1,0,0:0:0:0:
160,192,99724,1,0,0:0:0:0:
256,192,99799,1,0,0:0:0:0:
224,192,99874,1,4,3:0:0:100:
369,192,99874,1,0,0:0:0:0:
96,192,100024,1,0,0:0:0:0:
329,192,100024,1,0,0:0:0:0:
160,192,100174,1,2,3:0:0:66:
256,192,100174,1,0,1:0:0:80:
369,192,100174,1,0,0:0:0:0:
224,192,100324,1,0,0:0:0:0:
426,192,100324,1,0,0:0:0:0:
256,192,100374,1,0,0:0:0:0:
329,192,100424,1,0,0:0:0:0:
96,192,100474,1,4,3:0:0:100:
369,192,100474,1,0,0:0:0:0:
160,192,100624,1,0,0:0:0:0:
256,192,100624,1,0,0:0:0:0:
28,192,100774,1,4,2:0:0:70:
312,192,100774,1,8,1:0:0:80:
96,192,100774,1,4,3:0:0:100:
369,192,100774,1,0,0:0:0:0:
224,192,100774,1,0,0:0:0:0:
160,192,100924,1,0,0:0:0:0:
256,192,100924,1,0,0:0:0:0:
329,192,100999,1,0,0:0:0:0:
224,192,101074,1,4,3:0:0:100:
369,192,101074,1,0,0:0:0:0:
160,192,101224,1,0,0:0:0:0:
426,192,101224,1,0,0:0:0:0:
256,192,101374,1,0,1:0:0:80:
329,192,101374,1,2,3:0:0:66:
96,192,101374,1,0,0:0:0:0:
369,192,101449,1,0,0:0:0:0:
160,192,101524,1,0,0:0:0:0:
426,192,101524,1,0,0:0:0:0:
369,192,101674,1,4,3:0:0:100:
224,192,101674,1,0,0:0:0:0:
426,192,101824,1,0,0:0:0:0:
256,192,101824,1,0,0:0:0:0:
369,192,101974,1,4,2:0:0:70:
483,192,101974,1,4,3:0:0:100:
329,192,101974,1,8,1:0:0:80:
224,192,101974,1,0,0:0:0:0:
96,192,101974,1,0,0:0:0:0:
32,192,101974,1,0,0:0:0:0:
256,192,102124,1,4,3:0:0:40:
426,192,102124,1,0,0:0:0:0:
224,192,102199,1,0,0:0:0:0:
160,192,102274,1,4,3:0:0:40:
369,192,102274,1,8,2:0:0:100:
329,192,102274,1,0,0:0:0:0:
96,192,102424,1,4,3:0:0:40:
426,192,102424,1,8,2:0:0:100:
224,192,102424,1,0,0:0:0:0:
160,192,102574,1,4,3:0:0:40:
369,192,102574,1,8,2:0:0:100:
256,192,102574,1,0,0:0:0:0:
224,192,102724,1,4,3:0:0:40:
329,192,102724,1,0,0:0:0:0:
369,192,102799,1,0,0:0:0:0:
160,192,102799,1,0,0:0:0:0:
256,192,102874,1,8,1:0:0:100:
426,192,102874,1,8,3:0:0:60:
96,192,102874,1,4,3:0:0:30:
224,192,103024,1,8,3:0:0:40:
329,192,103024,1,0,0:0:0:0:
142,192,103174,1,4,3:0:0:90:
369,192,103174,1,4,2:0:0:70:
483,192,103174,1,8,1:0:0:100:
426,192,103174,1,0,0:0:0:0:
96,192,103174,1,0,0:0:0:0:
32,192,103174,1,0,0:0:0:0:
224,192,103324,1,4,3:0:0:40:
329,192,103324,1,0,0:0:0:0:
369,192,103399,1,0,0:0:0:0:
426,192,103474,1,8,2:0:0:100:
256,192,103474,1,4,3:0:0:40:
160,192,103474,1,0,0:0:0:0:
96,192,103624,1,4,3:0:0:40:
369,192,103624,1,8,2:0:0:100:
224,192,103624,1,0,0:0:0:0:
160,192,103774,1,4,3:0:0:40:
426,192,103774,1,8,2:0:0:100:
256,192,103774,1,0,0:0:0:0:
329,192,103924,1,0,0:0:0:0:
224,192,103924,1,0,0:0:0:0:
160,192,103999,1,0,0:0:0:0:
369,192,104074,1,8,1:0:0:100:
96,192,104074,1,4,3:0:0:30:
256,192,104074,1,8,3:0:0:60:
160,192,104224,1,8,3:0:0:40:
329,192,104224,1,0,0:0:0:0:
426,192,104224,1,0,0:0:0:0:
96,192,104374,1,4,2:0:0:60:
256,192,104374,1,8,1:0:0:100:
224,192,104374,1,8,3:0:0:60:
369,192,104374,1,0,1:0:0:100:
32,192,104374,1,0,0:0:0:0:
426,192,104524,1,4,3:0:0:40:
329,192,104524,1,8,1:0:0:100:
160,192,104524,1,0,0:0:0:0:
256,192,104599,1,0,0:0:0:0:
426,192,104674,1,4,2:0:0:100:
224,192,104674,1,8,3:0:0:60:
369,192,104674,1,8,2:0:0:100:
96,192,104674,1,0,0:0:0:0:
483,192,104674,1,0,0:0:0:0:
256,192,104824,1,4,3:0:0:40:
329,192,104824,1,8,2:0:0:100:
160,192,104824,1,0,0:0:0:0:
369,192,104899,1,0,0:0:0:0:
96,192,104974,1,4,2:0:0:60:
224,192,104974,1,8,1:0:0:100:
256,192,104974,1,8,3:0:0:60:
426,192,104974,1,0,1:0:0:100:
32,192,104974,1,0,0:0:0:0:
369,192,105124,1,4,3:0:0:40:
329,192,105124,1,8,1:0:0:100:
160,192,105124,1,0,0:0:0:0:
256,192,105174,1,0,0:0:0:0:
224,192,105224,1,0,0:0:0:0:
426,192,105274,1,4,2:0:0:100:
160,192,105274,1,8,3:0:0:60:
369,192,105274,1,8,2:0:0:100:
96,192,105274,1,0,0:0:0:0:
483,192,105274,1,0,0:0:0:0:
224,192,105424,1,4,3:0:0:40:
256,192,105424,1,8,2:0:0:100:
329,192,105424,1,0,0:0:0:0:
426,192,105574,1,4,2:0:0:60:
142,192,105574,1,8,1:0:0:100:
96,192,105574,1,8,2:0:0:70:
32,192,105574,1,0,0:0:0:0:
369,192,105649,5,8,2:0:0:80:
312,192,105724,1,8,2:0:0:70:
199,192,105724,1,4,3:0:0:70:
142,192,105799,1,8,2:0:0:80:
483,192,105874,1,4,2:0:0:100:
85,192,105874,1,8,1:0:0:100:
256,192,105874,1,8,2:0:0:70:
426,192,105874,1,0,0:0:0:0:
312,192,105949,1,8,2:0:0:80:
369,192,106024,1,8,2:0:0:70:
142,192,106024,1,4,3:0:0:70:
199,192,106099,1,8,2:0:0:80:
256,192,106174,1,4,1:0:0:80:
426,192,106174,1,4,2:0:0:80:
483,192,106174,1,8,1:0:0:100:
96,192,106174,1,0,1:0:0:100:
288,192,106174,1,0,0:0:0:0:
32,192,106174,1,0,0:0:0:0:
142,192,106324,5,2,3:0:0:90:
369,192,106324,1,0,0:0:0:0:
369,192,106474,1,2,3:0:0:90:
160,192,106474,1,0,0:0:0:0:
160,192,106774,5,4,1:0:0:56:
483,192,106774,5,4,3:0:0:100:
256,192,106774,1,8,1:0:0:60:
224,192,106774,1,0,1:0:0:34:
312,192,106774,1,0,0:0:0:0:
32,192,106774,1,0,0:0:0:0:
85,192,106924,1,0,0:0:0:0:
426,192,106924,1,0,0:0:0:0:
142,192,106999,1,0,0:0:0:0:
199,192,107074,1,4,3:0:0:100:
369,192,107074,1,0,0:0:0:0:
142,192,107224,1,0,0:0:0:0:
312,192,107224,1,0,0:0:0:0:
369,192,107299,1,0,0:0:0:0:
483,192,107374,1,0,1:0:0:80:
96,192,107374,1,8,2:0:0:100:
426,192,107374,1,0,0:0:0:0:
199,192,107374,1,0,0:0:0:0:
160,192,107524,1,0,0:0:0:0:
369,192,107524,1,0,0:0:0:0:
224,192,107599,1,0,0:0:0:0:
329,192,107599,1,0,0:0:0:0:
426,192,107674,1,4,3:0:0:100:
96,192,107674,1,0,0:0:0:0:
224,192,107824,1,0,0:0:0:0:
329,192,107824,1,0,0:0:0:0:
142,192,107974,1,4,2:0:0:70:
369,192,107974,1,4,3:0:0:100:
256,192,107974,1,8,1:0:0:60:
426,192,107974,1,0,0:0:0:0:
28,192,107974,1,0,0:0:0:0:
329,192,108124,1,0,0:0:0:0:
224,192,108124,1,0,0:0:0:0:
160,192,108199,1,0,0:0:0:0:
426,192,108274,1,4,3:0:0:100:
96,192,108274,1,0,0:0:0:0:
224,192,108424,1,0,0:0:0:0:
369,192,108424,1,0,0:0:0:0:
96,192,108574,1,0,1:0:0:80:
160,192,108574,1,8,2:0:0:100:
483,192,108574,1,0,0:0:0:0:
256,192,108574,1,0,0:0:0:0:
329,192,108724,1,0,0:0:0:0:
224,192,108724,1,0,0:0:0:0:
369,192,108799,1,0,0:0:0:0:
160,192,108799,1,0,0:0:0:0:
426,192,108874,1,4,3:0:0:100:
96,192,108874,1,0,0:0:0:0:
224,192,109024,1,0,0:0:0:0:
329,192,109024,1,0,0:0:0:0:
256,192,109174,1,8,1:0:0:60:
85,192,109174,1,4,2:0:0:70:
369,192,109174,1,4,3:0:0:100:
28,192,109174,1,0,0:0:0:0:
426,192,109174,1,0,0:0:0:0:
224,192,109324,1,0,0:0:0:0:
329,192,109324,1,0,0:0:0:0:
160,192,109399,1,0,0:0:0:0:
426,192,109474,1,4,3:0:0:100:
96,192,109474,1,0,0:0:0:0:
329,192,109624,1,0,0:0:0:0:
224,192,109624,1,0,0:0:0:0:
483,192,109774,1,0,1:0:0:80:
160,192,109774,1,8,2:0:0:100:
96,192,109774,1,0,0:0:0:0:
426,192,109774,1,0,0:0:0:0:
160,192,109924,1,0,0:0:0:0:
224,192,109924,1,0,0:0:0:0:
369,192,109974,1,0,0:0:0:0:
329,192,109974,1,0,0:0:0:0:
160,192,110024,1,0,0:0:0:0:
224,192,110024,1,0,0:0:0:0:
369,192,110074,1,4,3:0:0:100:
329,192,110074,1,0,0:0:0:0:
96,192,110224,1,0,0:0:0:0:
256,192,110224,1,0,0:0:0:0:
426,192,110374,1,8,1:0:0:60:
369,192,110374,1,4,3:0:0:100:
28,192,110374,1,4,2:0:0:70:
329,192,110374,1,0,0:0:0:0:
224,192,110374,1,0,0:0:0:0:
96,192,110524,1,0,0:0:0:0:
256,192,110524,1,0,0:0:0:0:
329,192,110599,1,0,0:0:0:0:
369,192,110674,1,4,3:0:0:100:
160,192,110674,1,0,0:0:0:0:
426,192,110824,1,0,0:0:0:0:
224,192,110824,1,0,0:0:0:0:
96,192,110974,1,0,1:0:0:80:
160,192,110974,1,8,2:0:0:100:
256,192,110974,1,0,0:0:0:0:
483,192,110974,1,0,0:0:0:0:
312,192,111049,1,0,0:0:0:0:
224,192,111124,1,0,0:0:0:0:
369,192,111124,1,0,0:0:0:0:
329,192,111274,1,4,3:0:0:100:
96,192,111274,1,0,0:0:0:0:
224,192,111424,1,0,0:0:0:0:
426,192,111424,1,0,0:0:0:0:
160,192,111574,1,4,2:0:0:70:
369,192,111574,1,4,3:0:0:100:
256,192,111574,1,8,1:0:0:60:
28,192,111574,1,0,0:0:0:0:
329,192,111574,1,0,0:0:0:0:
224,192,111724,1,0,0:0:0:0:
369,192,111799,1,0,0:0:0:0:
160,192,111799,1,0,0:0:0:0:
312,192,111874,1,4,3:0:0:100:
96,192,111874,1,0,0:0:0:0:
160,192,112024,1,0,0:0:0:0:
426,192,112024,1,0,0:0:0:0:
224,192,112174,1,0,1:0:0:80:
96,192,112174,1,8,2:0:0:100:
312,192,112174,1,0,0:0:0:0:
483,192,112174,1,0,0:0:0:0:
160,192,112324,1,0,0:0:0:0:
369,192,112324,1,0,0:0:0:0:
224,192,112399,1,0,0:0:0:0:
329,192,112399,1,0,0:0:0:0:
426,192,112474,1,4,3:0:0:100:
96,192,112474,1,0,0:0:0:0:
142,192,112624,1,0,0:0:0:0:
329,192,112624,1,0,0:0:0:0:
256,192,112774,1,8,1:0:0:60:
369,192,112774,1,4,3:0:0:100:
28,192,112774,1,4,2:0:0:70:
426,192,112774,1,0,0:0:0:0:
96,192,112774,1,0,0:0:0:0:
329,192,112924,1,0,0:0:0:0:
224,192,112924,1,0,0:0:0:0:
256,192,112999,1,0,0:0:0:0:
369,192,113074,1,4,3:0:0:100:
85,192,113074,1,0,0:0:0:0:
426,192,113224,1,0,0:0:0:0:
142,192,113224,1,0,0:0:0:0:
199,192,113374,1,8,2:0:0:100:
256,192,113374,1,0,1:0:0:80:
329,192,113374,1,0,0:0:0:0:
483,192,113374,1,0,0:0:0:0:
426,192,113524,1,0,0:0:0:0:
142,192,113524,1,0,0:0:0:0:
369,192,113599,1,0,0:0:0:0:
329,192,113674,1,4,3:0:0:100:
85,192,113674,1,0,0:0:0:0:
224,192,113824,1,0,0:0:0:0:
256,192,113824,1,0,0:0:0:0:
312,192,113974,1,4,3:0:0:100:
160,192,113974,1,4,2:0:0:70:
426,192,113974,1,8,1:0:0:60:
28,192,113974,1,0,0:0:0:0:
96,192,113974,1,0,0:0:0:0:
256,192,114124,1,0,0:0:0:0:
224,192,114124,1,0,0:0:0:0:
329,192,114199,1,0,0:0:0:0:
160,192,114274,1,4,3:0:0:100:
369,192,114274,1,0,0:0:0:0:
96,192,114274,1,0,0:0:0:0:
224,192,114424,1,0,0:0:0:0:
426,192,114424,1,0,0:0:0:0:
96,192,114574,5,0,1:0:0:80:
256,192,114574,1,8,2:0:0:100:
329,192,114574,1,0,0:0:0:0:
483,192,114574,1,0,0:0:0:0:
224,192,114724,1,0,0:0:0:0:
160,192,114724,1,0,0:0:0:0:
369,192,114774,1,0,0:0:0:0:
426,192,114774,1,0,0:0:0:0:
160,192,114824,1,0,0:0:0:0:
224,192,114824,1,0,0:0:0:0:
426,192,114874,1,4,3:0:0:100:
369,192,114874,1,0,0:0:0:0:
329,192,115024,1,0,0:0:0:0:
96,192,115024,1,0,0:0:0:0:
256,192,115174,1,8,1:0:0:60:
369,192,115174,1,4,3:0:0:100:
28,192,115174,1,4,2:0:0:70:
224,192,115174,1,0,0:0:0:0:
426,192,115174,1,0,0:0:0:0:
329,192,115324,1,0,0:0:0:0:
142,192,115324,1,0,0:0:0:0:
256,192,115399,1,0,0:0:0:0:
426,192,115474,1,4,3:0:0:100:
224,192,115474,1,0,0:0:0:0:
160,192,115624,1,0,0:0:0:0:
369,192,115624,1,0,0:0:0:0:
224,192,115774,5,0,1:0:0:80:
96,192,115774,1,8,2:0:0:100:
426,192,115774,1,0,0:0:0:0:
329,192,115774,1,0,0:0:0:0:
256,192,115924,5,2,3:0:0:90:
483,192,115924,1,0,0:0:0:0:
32,192,115924,1,0,0:0:0:0:
483,192,116074,1,4,3:0:0:100:
256,192,116074,1,2,3:0:0:90:
32,192,116074,1,0,0:0:0:0:
224,192,116224,1,0,0:0:0:0:
329,192,116224,1,0,0:0:0:0:
96,192,116374,5,4,1:0:0:56:
256,192,116374,1,0,1:0:0:34:
369,192,116374,1,8,1:0:0:100:
426,192,116374,1,4,3:0:0:100:
160,192,116374,1,0,0:0:0:0:
32,192,116374,1,0,0:0:0:0:
329,192,116524,1,0,0:0:0:0:
224,192,116524,1,0,0:0:0:0:
160,192,116599,1,0,0:0:0:0:
96,192,116674,1,0,1:0:0:80:
369,192,116674,1,0,0:0:0:0:
224,192,116824,1,0,0:0:0:0:
426,192,116824,1,0,0:0:0:0:
329,192,116974,1,0,0:0:0:0:
369,192,116974,1,8,2:0:0:100:
28,192,116974,1,4,3:0:0:100:
160,192,116974,1,0,0:0:0:0:
224,192,117124,1,0,0:0:0:0:
426,192,117124,1,0,0:0:0:0:
256,192,117199,1,0,0:0:0:0:
28,192,117274,1,4,3:0:0:100:
369,192,117274,1,8,2:0:0:100:
160,192,117274,1,0,0:0:0:0:
329,192,117274,1,0,0:0:0:0:
224,192,117424,1,0,0:0:0:0:
256,192,117424,1,0,0:0:0:0:
160,192,117574,1,4,3:0:0:100:
329,192,117574,1,8,1:0:0:80:
369,192,117574,1,4,2:0:0:70:
426,192,117574,1,0,0:0:0:0:
96,192,117574,1,0,0:0:0:0:
483,192,117574,1,0,0:0:0:0:
224,192,117724,1,0,0:0:0:0:
256,192,117724,1,0,0:0:0:0:
329,192,117799,1,0,0:0:0:0:
369,192,117874,1,0,1:0:0:80:
96,192,117874,1,0,0:0:0:0:
160,192,118024,1,0,0:0:0:0:
426,192,118024,1,0,0:0:0:0:
329,192,118174,1,8,2:0:0:100:
256,192,118174,1,4,3:0:0:100:
224,192,118174,1,0,0:0:0:0:
483,192,118174,1,0,0:0:0:0:
96,192,118324,1,0,0:0:0:0:
369,192,118324,1,0,0:0:0:0:
160,192,118399,1,0,0:0:0:0:
483,192,118474,1,8,2:0:0:100:
329,192,118474,1,4,3:0:0:100:
224,192,118474,1,0,0:0:0:0:
256,192,118474,1,0,0:0:0:0:
426,192,118624,1,0,0:0:0:0:
96,192,118624,1,0,0:0:0:0:
369,192,118774,1,4,2:0:0:70:
329,192,118774,1,8,1:0:0:80:
28,192,118774,1,4,3:0:0:100:
224,192,118774,1,0,0:0:0:0:
256,192,118774,1,0,0:0:0:0:
96,192,118924,1,0,0:0:0:0:
426,192,118924,1,0,0:0:0:0:
369,192,118999,1,0,0:0:0:0:
160,192,119074,1,0,1:0:0:80:
329,192,119074,1,0,0:0:0:0:
369,192,119224,1,0,0:0:0:0:
224,192,119224,1,0,0:0:0:0:
256,192,119374,1,8,2:0:0:100:
329,192,119374,1,4,3:0:0:100:
426,192,119374,1,0,0:0:0:0:
28,192,119374,1,0,0:0:0:0:
142,192,119524,1,0,0:0:0:0:
199,192,119524,1,0,0:0:0:0:
369,192,119574,1,0,0:0:0:0:
312,192,119574,1,0,0:0:0:0:
199,192,119624,1,0,0:0:0:0:
142,192,119624,1,0,0:0:0:0:
369,192,119674,1,8,2:0:0:100:
312,192,119674,1,4,3:0:0:100:
28,192,119674,1,0,0:0:0:0:
256,192,119824,1,0,0:0:0:0:
160,192,119824,1,0,0:0:0:0:
426,192,119974,1,4,2:0:0:70:
369,192,119974,1,8,1:0:0:80:
483,192,119974,1,4,3:0:0:100:
224,192,119974,1,0,0:0:0:0:
96,192,119974,1,0,0:0:0:0:
256,192,120124,1,0,0:0:0:0:
160,192,120124,1,0,0:0:0:0:
329,192,120199,1,0,0:0:0:0:
224,192,120274,1,0,1:0:0:80:
369,192,120274,1,0,0:0:0:0:
160,192,120424,1,0,0:0:0:0:
426,192,120424,1,0,0:0:0:0:
483,192,120574,1,8,2:0:0:100:
96,192,120574,1,4,3:0:0:100:
224,192,120574,1,0,0:0:0:0:
256,192,120574,1,0,0:0:0:0:
312,192,120649,1,0,0:0:0:0:
160,192,120724,1,0,0:0:0:0:
369,192,120724,1,0,0:0:0:0:
256,192,120874,1,8,2:0:0:100:
96,192,120874,1,4,3:0:0:100:
483,192,120874,1,0,0:0:0:0:
224,192,120874,1,0,0:0:0:0:
426,192,121024,1,0,0:0:0:0:
160,192,121024,1,0,0:0:0:0:
312,192,121024,1,0,0:0:0:0:
483,192,121174,1,8,1:0:0:100:
256,192,121174,1,4,3:0:0:100:
224,192,121174,1,0,0:0:0:0:
96,192,121174,1,0,0:0:0:0:
369,192,121174,128,4,121249:2:0:0:70:
32,192,121174,1,0,0:0:0:0:
426,192,121324,1,8,2:0:0:100:
160,192,121324,1,4,3:0:0:40:
256,192,121324,1,0,1:0:0:80:
369,192,121399,128,0,121474:0:0:0:0:
96,192,121474,1,4,3:0:0:40:
329,192,121474,1,0,0:0:0:0:
224,192,121474,1,0,0:0:0:0:
160,192,121624,1,4,3:0:0:40:
256,192,121624,1,0,1:0:0:80:
369,192,121624,128,8,121699:2:0:0:100:
224,192,121774,1,4,3:0:0:40:
329,192,121774,1,0,0:0:0:0:
426,192,121774,1,0,0:0:0:0:
256,192,121924,1,0,1:0:0:80:
369,192,121924,1,8,2:0:0:100:
96,192,121924,128,4,121999:3:0:0:40:
160,192,121999,128,0,122074:0:0:0:0:
426,192,122074,1,8,1:0:0:100:
329,192,122074,1,8,3:0:0:60:
224,192,122074,128,4,122149:3:0:0:30:
256,192,122224,1,8,3:0:0:40:
369,192,122224,1,0,0:0:0:0:
160,192,122224,128,0,122299:0:0:0:0:
483,192,122374,1,4,3:0:0:90:
329,192,122374,1,4,2:0:0:70:
224,192,122374,1,8,1:0:0:100:
96,192,122374,1,0,0:0:0:0:
426,192,122374,128,0,122449:0:0:0:0:
32,192,122374,1,0,0:0:0:0:
160,192,122524,1,4,3:0:0:40:
329,192,122524,1,8,2:0:0:100:
96,192,122524,1,0,1:0:0:80:
369,192,122524,1,0,0:0:0:0:
256,192,122599,128,0,122674:0:0:0:0:
160,192,122674,1,4,3:0:0:40:
224,192,122674,1,0,0:0:0:0:
426,192,122674,1,0,0:0:0:0:
96,192,122824,1,4,3:0:0:40:
329,192,122824,1,8,2:0:0:100:
256,192,122824,1,0,1:0:0:80:
369,192,122824,128,0,122899:0:0:0:0:
224,192,122974,1,0,0:0:0:0:
329,192,122974,1,0,0:0:0:0:
96,192,122974,128,4,123049:3:0:0:40:
224,192,123124,1,0,1:0:0:80:
369,192,123124,1,8,2:0:0:100:
160,192,123124,1,4,3:0:0:40:
426,192,123124,1,0,0:0:0:0:
312,192,123199,128,0,123274:0:0:0:0:
256,192,123274,1,8,1:0:0:100:
96,192,123274,1,4,3:0:0:30:
426,192,123274,1,8,3:0:0:60:
312,192,123424,1,0,0:0:0:0:
142,192,123424,1,0,0:0:0:0:
224,192,123424,128,8,123499:3:0:0:40:
426,192,123574,1,8,1:0:0:100:
256,192,123574,1,8,3:0:0:60:
369,192,123574,1,0,1:0:0:100:
96,192,123574,128,4,123649:2:0:0:60:
32,192,123574,1,0,0:0:0:0:
160,192,123649,1,4,3:0:0:70:
224,192,123724,1,4,3:0:0:40:
329,192,123724,1,8,1:0:0:100:
369,192,123799,128,4,123874:3:0:0:70:
426,192,123874,1,4,2:0:0:100:
96,192,123874,1,0,1:0:0:100:
160,192,123874,1,8,1:0:0:100:
256,192,123874,1,8,3:0:0:60:
483,192,123874,1,0,0:0:0:0:
329,192,123949,1,4,3:0:0:70:
369,192,124024,1,8,2:0:0:100:
224,192,124024,128,4,124099:3:0:0:40:
256,192,124099,1,4,3:0:0:70:
329,192,124174,1,8,1:0:0:100:
160,192,124174,1,8,3:0:0:60:
96,192,124174,128,4,124249:2:0:0:60:
369,192,124174,1,0,1:0:0:100:
32,192,124174,1,0,0:0:0:0:
256,192,124249,1,4,3:0:0:70:
224,192,124324,1,4,3:0:0:40:
426,192,124324,128,8,124399:1:0:0:100:
369,192,124374,128,0,124449:0:0:0:0:
160,192,124399,1,4,3:0:0:70:
329,192,124424,128,0,124499:0:0:0:0:
96,192,124474,1,0,1:0:0:100:
224,192,124474,1,8,1:0:0:100:
256,192,124474,128,4,124549:2:0:0:100:
483,192,124474,1,0,0:0:0:0:
426,192,124549,1,4,3:0:0:70:
369,192,124624,1,8,2:0:0:100:
160,192,124624,128,4,124699:3:0:0:40:
224,192,124699,1,4,3:0:0:70:
426,192,124774,1,4,2:0:0:60:
312,192,124774,1,8,1:0:0:40:
256,192,124774,128,8,124849:2:0:0:100:
369,192,124774,1,0,0:0:0:0:
85,192,124849,5,8,1:0:0:80:
28,192,124849,1,8,3:0:0:60:
256,192,124924,1,8,1:0:0:40:
312,192,124924,128,4,124999:3:0:0:70:
85,192,124999,1,8,1:0:0:80:
28,192,124999,1,4,3:0:0:70:
483,192,125074,1,4,2:0:0:100:
426,192,125074,1,8,2:0:0:100:
369,192,125074,128,8,125149:1:0:0:40:
160,192,125149,1,8,1:0:0:80:
224,192,125149,1,8,3:0:0:60:
369,192,125224,1,8,1:0:0:40:
426,192,125224,128,4,125299:3:0:0:70:
224,192,125299,1,8,1:0:0:80:
160,192,125299,1,4,3:0:0:70:
256,192,125374,1,4,1:0:0:80:
96,192,125374,1,4,2:0:0:80:
312,192,125374,1,8,2:0:0:100:
426,192,125374,1,0,0:0:0:0:
483,192,125374,128,0,125449:1:0:0:100:
32,192,125374,1,0,0:0:0:0:
142,192,125524,5,2,3:0:0:90:
369,192,125524,1,0,0:0:0:0:
369,192,125674,1,2,3:0:0:90:
160,192,125674,1,0,0:0:0:0:
256,192,125824,128,0,125974:0:0:0:0:
475,192,125974,5,4,3:0:0:78:
142,192,125974,5,4,1:0:0:56:
32,192,125974,1,2,2:0:0:100:
85,192,125974,1,0,0:0:0:0:
369,192,125974,1,0,0:0:0:0:
402,192,125974,1,0,0:0:0:0:
