osu file format v14

[General]
AudioFilename: audio.mp3
AudioLeadIn: 0
PreviewTime: 10699
Countdown: 0
SampleSet: None
StackLeniency: 0.7
Mode: 3
LetterboxInBreaks: 0
SpecialStyle: 0
WidescreenStoryboard: 1

[Editor]
Bookmarks: 1174,10774,20374,29974,39574,49174,58774,68374,77974,87574,97174,106774,116374,125974
DistanceSpacing: 0.8
BeatDivisor: 4
GridSize: 8
TimelineZoom: 2.3

[Metadata]
Title:Nadeshiko Sensation
TitleUnicode:Nadeshiko Sensation
Artist:yuki.
ArtistUnicode:yuki.
Creator:LordRaika
Version:9K Easy
Source:
Tags:
BeatmapID:1177370
BeatmapSetID:556303

[Difficulty]
HPDrainRate:7.1
CircleSize:9
OverallDifficulty:6.9
ApproachRate:5
SliderMultiplier:1.4
SliderTickRate:1

[Events]
//Background and Video events
0,0,"Nadeshiko Sensation B.jpg",0,0
//Break Periods
//Storyboard Layer 0 (Background)
//Storyboard Layer 1 (Fail)
//Storyboard Layer 2 (Pass)
//Storyboard Layer 3 (Foreground)
//Storyboard Sound Samples

[TimingPoints]
1174,300,4,2,0,5,1,0
10774,-100,4,2,0,5,0,1
29974,-100,4,2,0,5,0,0
49174,-100,4,2,0,5,0,1
49249,-100,4,2,0,5,0,0
68544,300,4,2,0,5,1,0
69594,300,4,2,0,5,1,0
77974,300,4,2,0,5,1,0
87574,-100,4,2,0,5,0,1
97174,-100,4,2,0,5,0,0
106774,-100,4,2,0,5,0,1
116374,-100,4,2,0,5,0,0

[HitObjects]
312,192,1174,5,4,1:0:0:56:
142,192,1174,1,2,0:0:0:44:
142,192,1624,1,2,0:0:0:44:
32,192,2074,1,2,3:0:0:90:
369,192,2374,1,2,0:0:0:76:
369,192,2824,1,2,0:0:0:76:
109,192,3574,1,2,0:0:0:44:
109,192,4024,1,2,0:0:0:44:
402,192,4774,1,2,0:0:0:100:
402,192,5224,1,2,0:0:0:100:
32,192,5674,1,2,3:0:0:90:
480,192,5974,5,8,3:0:0:30:
85,192,5974,5,4,1:0:0:56:
224,192,6274,1,8,1:0:0:40:
224,192,6574,1,8,1:0:0:40:
224,192,6874,1,8,1:0:0:40:
475,192,7174,5,8,3:0:0:30:
96,192,7174,5,4,1:0:0:56:
329,192,7474,1,8,1:0:0:40:
329,192,7774,1,8,1:0:0:40:
329,192,8074,1,8,1:0:0:40:
475,192,8374,5,8,3:0:0:30:
96,192,8374,5,4,1:0:0:56:
224,192,8674,1,8,1:0:0:40:
475,192,8974,5,8,3:0:0:30:
96,192,8974,5,4,1:0:0:56:
32,192,9274,1,2,3:0:0:100:
329,192,9274,1,8,1:0:0:26:
475,192,9574,5,8,3:0:0:30:
96,192,9574,5,4,1:0:0:56:
32,192,10474,5,2,3:0:0:90:
224,192,10774,5,4,1:0:0:56:
480,192,10774,1,8,1:0:0:60:
96,192,11074,1,0,1:0:0:80:
329,192,11374,1,4,3:0:0:90:
160,192,11674,1,0,1:0:0:80:
402,192,11974,1,8,1:0:0:60:
199,192,12274,1,0,1:0:0:80:
312,192,12574,128,4,12874:3:0:0:90:
85,192,12874,1,0,1:0:0:80:
199,192,13174,1,8,1:0:0:60:
312,192,13474,1,0,1:0:0:80:
426,192,13774,1,4,3:0:0:90:
256,192,14074,1,0,1:0:0:80:
96,192,14374,1,8,1:0:0:60:
160,192,14674,1,0,1:0:0:80:
224,192,14974,128,4,15274:3:0:0:90:
426,192,15274,1,0,1:0:0:80:
256,192,15574,1,8,1:0:0:60:
369,192,15874,1,0,1:0:0:80:
109,192,16174,1,4,3:0:0:90:
402,192,16474,1,0,1:0:0:80:
182,192,16774,1,8,1:0:0:60:
329,192,17074,1,0,1:0:0:80:
182,192,17374,1,4,3:0:0:90:
426,192,17674,1,0,1:0:0:80:
256,192,17974,1,8,1:0:0:60:
329,192,18274,1,0,1:0:0:80:
142,192,18574,1,4,3:0:0:90:
402,192,18874,5,0,1:0:0:80:
199,192,19174,1,8,1:0:0:60:
142,192,19474,1,0,1:0:0:80:
256,192,19774,5,4,3:0:0:50:
480,192,19924,5,2,3:0:0:90:
32,192,20074,1,2,3:0:0:90:
160,192,20374,5,4,1:0:0:56:
369,192,20374,1,8,1:0:0:100:
256,192,20674,1,0,1:0:0:80:
426,192,20974,1,8,2:0:0:100:
182,192,21274,1,0,1:0:0:80:
369,192,21574,1,8,1:0:0:80:
142,192,21874,1,0,1:0:0:80:
288,192,22174,128,8,22474:2:0:0:100:
85,192,22474,1,0,1:0:0:80:
256,192,22774,1,8,1:0:0:80:
142,192,23074,1,0,1:0:0:80:
369,192,23374,1,8,2:0:0:100:
199,192,23674,1,0,1:0:0:80:
256,192,23974,1,8,1:0:0:80:
312,192,24274,1,0,1:0:0:80:
369,192,24574,128,8,24874:2:0:0:100:
402,192,24874,1,0,1:0:0:80:
96,192,25174,128,8,25624:1:0:0:100:
329,192,25174,128,4,25624:2:0:0:70:
224,192,25624,1,8,2:0:0:100:
329,192,26074,1,8,1:0:0:100:
96,192,26074,1,8,3:0:0:60:
426,192,26374,128,4,26824:2:0:0:70:
224,192,26374,128,8,26824:1:0:0:100:
329,192,26824,1,8,2:0:0:100:
426,192,27274,1,8,1:0:0:100:
224,192,27274,1,8,3:0:0:60:
85,192,27574,1,8,1:0:0:100:
426,192,27874,1,12,2:0:0:100:
160,192,28174,1,8,1:0:0:100:
352,192,28474,1,12,2:0:0:100:
224,192,28774,1,12,2:0:0:60:
256,192,29074,1,12,2:0:0:100:
312,192,29374,1,4,1:0:0:80:
142,192,29374,1,12,2:0:0:100:
480,192,29524,5,2,3:0:0:90:
32,192,29674,1,2,3:0:0:90:
483,192,29974,5,4,1:0:0:56:
199,192,29974,128,4,30874:3:0:0:86:
369,192,30274,5,4,3:0:0:86:
426,192,30574,5,8,3:0:0:68:
483,192,30874,1,8,1:0:0:80:
312,192,31174,128,4,32074:3:0:0:86:
142,192,31474,5,4,3:0:0:86:
85,192,31774,5,8,3:0:0:68:
28,192,32074,1,8,1:0:0:80:
402,192,32374,128,4,33274:3:0:0:86:
109,192,32674,5,4,3:0:0:86:
199,192,32974,5,8,3:0:0:68:
312,192,33274,1,8,1:0:0:80:
96,192,33574,128,4,34474:3:0:0:86:
426,192,33874,5,4,3:0:0:86:
312,192,34174,5,8,3:0:0:68:
199,192,34474,1,8,1:0:0:80:
369,192,34774,128,4,35674:3:0:0:86:
142,192,35074,5,4,3:0:0:86:
224,192,35374,5,8,3:0:0:68:
85,192,35674,1,8,1:0:0:80:
142,192,35974,128,4,36874:3:0:0:86:
369,192,36274,5,4,3:0:0:86:
329,192,36574,5,8,3:0:0:68:
426,192,36874,1,8,1:0:0:80:
288,192,37174,128,4,38074:3:0:0:86:
109,192,37474,5,4,3:0:0:86:
416,192,37774,5,8,3:0:0:68:
142,192,38074,1,8,1:0:0:80:
199,192,38374,128,4,39274:3:0:0:86:
426,192,38674,5,4,3:0:0:86:
85,192,38974,5,8,3:0:0:68:
369,192,39274,1,8,1:0:0:80:
36,192,39574,5,0,1:0:0:48:
288,192,39574,1,6,2:0:0:56:
288,192,39874,5,0,1:0:0:48:
288,192,40174,5,0,1:0:0:48:
288,192,40474,1,8,1:0:0:80:
416,192,40774,5,0,1:0:0:48:
402,192,41074,5,0,1:0:0:48:
402,192,41374,5,0,1:0:0:48:
402,192,41674,1,8,1:0:0:80:
182,192,41974,5,0,1:0:0:48:
182,192,42274,5,0,1:0:0:48:
329,192,42574,5,0,1:0:0:48:
329,192,42874,1,8,1:0:0:80:
109,192,43174,5,0,1:0:0:48:
182,192,43474,5,0,1:0:0:48:
109,192,43774,5,0,1:0:0:48:
256,192,44074,1,8,1:0:0:80:
475,192,44374,5,4,3:0:0:90:
182,192,44374,1,4,2:0:0:56:
182,192,44674,5,0,1:0:0:48:
182,192,44974,5,0,1:0:0:48:
256,192,45274,1,8,1:0:0:80:
329,192,45574,5,4,3:0:0:90:
36,192,45574,5,0,1:0:0:48:
329,192,45874,5,0,1:0:0:48:
329,192,46174,5,0,1:0:0:48:
256,192,46474,1,8,1:0:0:80:
369,192,46774,5,0,1:0:0:48:
142,192,46774,1,4,2:0:0:56:
256,192,47074,1,8,1:0:0:80:
402,192,47374,5,0,1:0:0:48:
109,192,47374,1,4,2:0:0:56:
256,192,47674,1,8,1:0:0:80:
36,192,47974,1,4,1:0:0:56:
475,192,47974,128,4,49024:2:0:0:56:
224,192,49174,128,4,49474:1:0:0:56:
475,192,49174,128,6,49474:3:0:0:100:
224,192,49774,1,0,1:0:0:90:
475,192,49774,1,0,0:0:0:0:
96,192,50374,1,0,0:0:0:0:
256,192,50674,1,4,3:0:0:90:
369,192,50974,1,0,1:0:0:90:
224,192,50974,1,0,0:0:0:0:
28,192,51574,128,10,51874:3:0:0:100:
312,192,51574,128,6,51874:3:0:0:100:
312,192,52174,1,0,1:0:0:90:
28,192,52174,1,0,0:0:0:0:
199,192,52474,1,4,3:0:0:90:
199,192,52774,1,4,3:0:0:90:
329,192,53074,1,4,3:0:0:60:
224,192,53224,1,4,3:0:0:90:
402,192,53374,1,0,1:0:0:90:
109,192,53374,1,0,0:0:0:0:
32,192,53674,1,6,3:0:0:90:
142,192,53974,128,6,54274:3:0:0:100:
369,192,53974,128,10,54274:3:0:0:100:
142,192,54574,1,0,1:0:0:90:
369,192,54574,1,0,0:0:0:0:
199,192,55174,1,0,0:0:0:0:
288,192,55474,1,4,3:0:0:90:
96,192,55774,1,0,1:0:0:90:
416,192,55774,1,0,0:0:0:0:
224,192,56374,128,10,56674:3:0:0:100:
426,192,56374,128,6,56674:3:0:0:100:
402,192,56974,1,0,1:0:0:90:
182,192,56974,1,0,0:0:0:0:
96,192,57274,1,4,3:0:0:90:
96,192,57574,1,4,3:0:0:90:
160,192,57874,1,4,3:0:0:60:
288,192,58024,1,4,3:0:0:90:
416,192,58174,1,0,1:0:0:90:
224,192,58174,1,0,0:0:0:0:
32,192,58474,1,6,3:0:0:90:
312,192,58774,128,4,59074:2:0:0:56:
369,192,58774,128,6,59074:3:0:0:100:
85,192,59074,1,0,1:0:0:90:
312,192,59374,1,4,3:0:0:90:
199,192,59524,1,0,1:0:0:50:
109,192,59674,1,0,1:0:0:90:
352,192,59974,1,4,3:0:0:90:
96,192,60274,1,0,1:0:0:90:
426,192,60574,1,4,3:0:0:90:
256,192,60724,1,0,1:0:0:50:
96,192,60874,1,0,1:0:0:90:
182,192,61174,128,2,61474:3:0:0:100:
142,192,61174,128,6,61474:3:0:0:100:
426,192,61474,1,0,1:0:0:90:
199,192,61774,1,4,3:0:0:90:
312,192,61924,1,0,1:0:0:50:
426,192,62074,1,0,1:0:0:90:
142,192,62374,1,4,3:0:0:90:
426,192,62674,1,0,1:0:0:90:
85,192,62974,1,4,3:0:0:90:
256,192,63124,1,0,1:0:0:50:
426,192,63274,1,0,1:0:0:90:
36,192,63574,1,4,3:0:0:100:
480,192,63574,1,4,2:0:0:56:
160,192,63874,1,8,1:0:0:50:
256,192,64174,1,8,1:0:0:65:
369,192,64474,1,8,1:0:0:80:
32,192,64774,1,4,2:0:0:70:
475,192,64774,1,4,3:0:0:90:
352,192,65074,1,8,1:0:0:50:
256,192,65374,1,8,1:0:0:65:
142,192,65674,1,8,1:0:0:80:
28,192,65974,1,4,2:0:0:70:
160,192,66124,1,8,1:0:0:50:
256,192,66274,1,8,1:0:0:50:
369,192,66424,1,8,1:0:0:80:
480,192,66574,1,4,2:0:0:85:
352,192,66724,1,8,1:0:0:50:
256,192,66874,1,8,1:0:0:50:
142,192,67024,1,8,1:0:0:80:
32,192,67174,1,4,2:0:0:100:
480,192,67174,1,2,1:0:0:30:
475,192,68374,5,4,3:0:0:30:
96,192,68374,128,4,69594:2:0:0:56:
329,192,69594,128,2,70794:2:0:0:66:
160,192,69594,1,2,0:0:0:0:
182,192,70794,128,2,71994:0:0:0:36:
402,192,70794,1,2,0:0:0:0:
426,192,71994,128,2,73194:0:0:0:96:
109,192,71994,1,2,0:0:0:0:
369,192,73194,1,2,0:0:0:0:
109,192,73194,128,2,74394:0:0:0:66:
352,192,74394,128,2,75594:0:0:0:30:
160,192,74394,1,2,0:0:0:0:
182,192,75594,128,2,77544:0:0:0:40:
312,192,75594,1,2,0:0:0:0:
416,192,76794,128,2,77544:0:0:0:96:
182,192,77694,5,8,2:0:0:80:
416,192,77694,1,8,1:0:0:70:
32,192,77974,1,0,1:0:0:90:
475,192,77974,1,8,2:0:0:60:
475,192,78274,1,0,1:0:0:60:
475,192,78574,1,0,1:0:0:30:
256,192,78874,1,0,1:0:0:70:
96,192,79174,1,8,2:0:0:60:
329,192,79174,1,0,1:0:0:90:
329,192,79474,1,0,1:0:0:60:
329,192,79774,1,0,1:0:0:30:
256,192,80074,1,0,1:0:0:70:
475,192,80374,1,0,1:0:0:90:
182,192,80374,1,8,2:0:0:60:
182,192,80674,1,0,1:0:0:60:
182,192,80974,1,0,1:0:0:30:
256,192,81274,1,0,1:0:0:70:
402,192,81574,1,0,1:0:0:90:
96,192,81574,1,8,2:0:0:60:
96,192,81874,1,0,1:0:0:60:
96,192,82174,1,0,1:0:0:30:
256,192,82474,1,0,1:0:0:70:
475,192,82774,1,4,2:0:0:80:
32,192,82774,1,0,1:0:0:90:
329,192,83074,1,0,1:0:0:90:
329,192,83374,1,0,1:0:0:90:
288,192,83674,1,2,3:0:0:100:
480,192,83974,1,0,1:0:0:90:
32,192,83974,1,4,2:0:0:80:
182,192,84274,1,0,1:0:0:90:
182,192,84574,1,0,1:0:0:90:
224,192,84874,1,2,3:0:0:100:
475,192,85174,1,0,1:0:0:90:
28,192,85174,1,4,2:0:0:90:
224,192,85474,1,2,3:0:0:100:
475,192,85774,1,0,1:0:0:90:
28,192,85774,1,4,2:0:0:90:
288,192,86074,1,2,3:0:0:100:
475,192,86374,1,4,1:0:0:56:
36,192,86374,1,4,2:0:0:90:
32,192,87274,1,2,3:0:0:90:
224,192,87574,5,4,1:0:0:56:
475,192,87574,1,0,1:0:0:90:
256,192,88024,1,0,0:0:0:0:
96,192,88324,128,0,88774:0:0:0:0:
475,192,88774,1,0,1:0:0:90:
329,192,89224,1,0,0:0:0:0:
160,192,89524,128,0,89974:0:0:0:0:
475,192,89974,1,0,1:0:0:90:
224,192,90424,128,0,90724:0:0:0:0:
329,192,90724,128,0,91174:0:0:0:0:
475,192,91174,1,0,1:0:0:90:
109,192,91624,1,0,0:0:0:0:
256,192,92074,128,0,92374:0:0:0:0:
475,192,92374,1,0,1:0:0:90:
475,192,92824,1,0,0:0:0:0:
199,192,93124,128,0,93574:0:0:0:0:
475,192,93574,1,0,1:0:0:90:
109,192,94024,1,0,0:0:0:0:
256,192,94399,128,0,94774:0:0:0:0:
475,192,94774,1,0,1:0:0:90:
329,192,95224,128,0,95674:0:0:0:0:
109,192,95674,1,0,0:0:0:0:
475,192,95974,1,0,1:0:0:90:
182,192,96424,1,0,0:0:0:0:
480,192,96724,5,2,3:0:0:90:
32,192,96874,1,2,3:0:0:90:
85,192,97174,5,4,1:0:0:56:
426,192,97174,1,8,1:0:0:100:
142,192,97624,1,0,0:0:0:0:
312,192,97924,128,0,98374:0:0:0:0:
28,192,98374,1,8,1:0:0:80:
142,192,98824,1,0,0:0:0:0:
329,192,99124,128,0,99574:0:0:0:0:
28,192,99574,1,8,1:0:0:80:
369,192,100024,128,0,100324:0:0:0:0:
199,192,100324,128,0,100774:0:0:0:0:
28,192,100774,1,8,1:0:0:80:
160,192,101224,128,0,101674:0:0:0:0:
288,192,101674,128,0,101974:0:0:0:0:
36,192,101974,1,4,2:0:0:70:
402,192,101974,1,8,1:0:0:80:
402,192,102424,1,0,0:0:0:0:
256,192,102724,128,0,103174:0:0:0:0:
483,192,103174,1,8,1:0:0:80:
36,192,103174,1,4,2:0:0:70:
312,192,103624,1,0,0:0:0:0:
142,192,103999,128,0,104374:0:0:0:0:
32,192,104374,1,8,1:0:0:100:
480,192,104674,1,4,2:0:0:46:
199,192,104974,1,8,1:0:0:100:
312,192,105274,1,4,2:0:0:46:
36,192,105574,1,8,1:0:0:100:
85,192,105874,1,8,1:0:0:100:
142,192,106174,1,8,1:0:0:100:
352,192,106174,1,4,2:0:0:80:
480,192,106324,1,2,3:0:0:90:
32,192,106474,1,2,3:0:0:90:
85,192,106774,5,4,1:0:0:56:
426,192,106774,1,8,1:0:0:60:
182,192,107074,1,4,3:0:0:100:
369,192,107374,1,8,2:0:0:100:
142,192,107524,1,0,0:0:0:0:
329,192,107674,1,4,3:0:0:100:
199,192,107974,1,4,2:0:0:70:
483,192,107974,1,8,1:0:0:60:
329,192,108274,1,4,3:0:0:100:
160,192,108574,1,8,2:0:0:100:
256,192,108724,1,0,0:0:0:0:
369,192,108874,1,4,3:0:0:100:
28,192,109174,1,4,2:0:0:70:
312,192,109174,1,8,1:0:0:60:
426,192,109474,1,4,3:0:0:100:
142,192,109774,1,8,2:0:0:100:
369,192,109924,1,0,0:0:0:0:
256,192,110074,1,4,3:0:0:100:
475,192,110374,1,8,1:0:0:60:
224,192,110374,1,4,2:0:0:70:
160,192,110674,1,4,3:0:0:100:
256,192,110974,1,8,2:0:0:100:
402,192,111274,1,4,3:0:0:100:
402,192,111424,1,4,3:0:0:100:
28,192,111574,1,4,2:0:0:70:
199,192,111574,1,8,1:0:0:60:
288,192,111874,1,4,3:0:0:100:
369,192,112174,1,8,2:0:0:100:
256,192,112324,1,0,0:0:0:0:
160,192,112474,1,4,3:0:0:100:
312,192,112774,1,8,1:0:0:60:
475,192,112774,1,4,2:0:0:70:
224,192,113074,1,4,3:0:0:100:
312,192,113374,1,8,2:0:0:100:
426,192,113674,1,4,3:0:0:100:
28,192,113974,1,4,2:0:0:70:
224,192,113974,1,8,1:0:0:60:
329,192,114274,1,4,3:0:0:100:
160,192,114574,1,8,2:0:0:100:
329,192,114724,1,0,0:0:0:0:
224,192,114874,1,4,3:0:0:100:
329,192,115174,1,8,1:0:0:60:
475,192,115174,1,4,2:0:0:70:
160,192,115474,1,4,3:0:0:100:
256,192,115774,1,8,2:0:0:100:
480,192,115924,5,2,3:0:0:90:
32,192,116074,1,2,3:0:0:90:
85,192,116374,5,4,1:0:0:56:
426,192,116374,1,8,1:0:0:100:
256,192,116674,1,0,1:0:0:80:
329,192,116974,1,8,2:0:0:100:
182,192,117124,1,0,0:0:0:0:
329,192,117274,1,8,2:0:0:100:
109,192,117574,1,8,1:0:0:80:
402,192,117574,1,4,2:0:0:70:
256,192,117874,1,0,1:0:0:80:
369,192,118174,1,8,2:0:0:100:
142,192,118324,1,0,0:0:0:0:
369,192,118474,1,8,2:0:0:100:
182,192,118774,1,4,2:0:0:70:
329,192,118774,1,8,1:0:0:80:
256,192,119074,1,0,1:0:0:80:
109,192,119374,1,8,2:0:0:100:
402,192,119524,1,0,0:0:0:0:
109,192,119674,1,8,2:0:0:100:
369,192,119974,1,4,2:0:0:70:
160,192,119974,1,8,1:0:0:80:
224,192,120274,1,0,1:0:0:80:
329,192,120574,1,8,2:0:0:100:
182,192,120874,1,8,2:0:0:100:
402,192,121174,1,4,2:0:0:70:
109,192,121174,1,8,1:0:0:100:
182,192,121474,1,8,2:0:0:100:
182,192,121774,1,8,2:0:0:100:
182,192,122074,1,8,2:0:0:100:
402,192,122374,1,4,2:0:0:70:
109,192,122374,1,8,1:0:0:100:
329,192,122674,1,8,2:0:0:100:
329,192,122974,1,8,2:0:0:100:
329,192,123274,1,8,2:0:0:100:
182,192,123574,1,4,2:0:0:60:
483,192,123574,1,8,1:0:0:100:
256,192,123874,1,8,2:0:0:100:
28,192,124174,1,4,2:0:0:60:
312,192,124174,1,8,1:0:0:100:
256,192,124474,1,8,2:0:0:100:
199,192,124774,1,4,2:0:0:60:
85,192,124774,1,8,2:0:0:100:
312,192,125074,1,4,2:0:0:100:
426,192,125074,1,8,2:0:0:100:
199,192,125374,1,4,2:0:0:80:
96,192,125374,1,8,2:0:0:100:
480,192,125524,5,2,3:0:0:90:
32,192,125674,1,2,3:0:0:90:
475,192,125974,5,4,3:0:0:78:
28,192,125974,5,4,1:0:0:56:
