osu file format v14

[General]
AudioFilename: audio.mp3
AudioLeadIn: 0
PreviewTime: 10699
Countdown: 0
SampleSet: None
StackLeniency: 0.7
Mode: 3
LetterboxInBreaks: 0
SpecialStyle: 0
WidescreenStoryboard: 1

[Editor]
Bookmarks: 1174,10774,20374,29974,39574,49174,58774,68374,77974,87574,97174,106774,116374,125974
DistanceSpacing: 0.8
BeatDivisor: 4
GridSize: 8
TimelineZoom: 2.3

[Metadata]
Title:Nadeshiko Sensation
TitleUnicode:Nadeshiko Sensation
Artist:yuki.
ArtistUnicode:yuki.
Creator:LordRaika
Version:7K Normal
Source:
Tags:
BeatmapID:1177364
BeatmapSetID:556303

[Difficulty]
HPDrainRate:7.4
CircleSize:7
OverallDifficulty:7.2
ApproachRate:5
SliderMultiplier:1.4
SliderTickRate:1

[Events]
//Background and Video events
0,0,"Nadeshiko Sensation B.jpg",0,0
//Break Periods
//Storyboard Layer 0 (Background)
//Storyboard Layer 1 (Fail)
//Storyboard Layer 2 (Pass)
//Storyboard Layer 3 (Foreground)
//Storyboard Sound Samples

[TimingPoints]
1174,300,4,2,0,5,1,0
10774,-100,4,2,0,5,0,1
29974,-100,4,2,0,5,0,0
49174,-100,4,2,0,5,0,1
49249,-100,4,2,0,5,0,0
68544,300,4,2,0,5,1,0
69594,300,4,2,0,5,1,0
77974,300,4,2,0,5,1,0
87574,-100,4,2,0,5,0,1
97174,-100,4,2,0,5,0,0
106774,-100,4,2,0,5,0,1
116374,-100,4,2,0,5,0,0

[HitObjects]
475,192,1174,5,8,3:0:0:30:
329,192,1174,5,4,1:0:0:56:
109,192,1174,128,2,1474:0:0:0:44:
109,192,1624,1,2,0:0:0:44:
182,192,2074,1,2,3:0:0:45:
256,192,2074,1,2,3:0:0:45:
402,192,2374,128,2,2674:0:0:0:76:
402,192,2824,1,2,0:0:0:76:
36,192,3574,128,2,3874:0:0:0:44:
36,192,4024,1,2,0:0:0:44:
475,192,4774,128,2,5074:0:0:0:100:
475,192,5224,1,2,0:0:0:100:
256,192,5674,1,2,3:0:0:45:
329,192,5674,1,2,3:0:0:45:
182,192,5974,5,4,1:0:0:56:
36,192,5974,1,0,1:0:0:34:
256,192,6274,1,0,1:0:0:34:
109,192,6274,1,8,1:0:0:40:
329,192,6574,1,0,1:0:0:34:
182,192,6574,1,8,1:0:0:40:
402,192,6874,1,0,1:0:0:34:
256,192,6874,1,8,1:0:0:40:
329,192,7174,5,4,1:0:0:56:
475,192,7174,1,0,1:0:0:34:
402,192,7474,1,0,1:0:0:34:
256,192,7474,1,8,1:0:0:40:
329,192,7774,1,0,1:0:0:34:
182,192,7774,1,8,1:0:0:40:
256,192,8074,1,0,1:0:0:34:
109,192,8074,1,8,1:0:0:40:
36,192,8374,5,4,1:0:0:56:
182,192,8374,1,0,1:0:0:34:
256,192,8524,1,8,1:0:0:40:
402,192,8674,1,8,1:0:0:40:
109,192,8824,1,8,1:0:0:40:
475,192,8974,5,4,1:0:0:56:
329,192,8974,1,0,1:0:0:34:
36,192,9124,1,8,1:0:0:26:
256,192,9274,1,2,3:0:0:100:
182,192,9274,1,8,1:0:0:26:
402,192,9424,1,8,1:0:0:26:
36,192,9574,5,4,1:0:0:56:
475,192,9574,1,0,1:0:0:34:
329,192,10474,1,2,3:0:0:45:
256,192,10474,1,2,3:0:0:45:
475,192,10774,5,4,3:0:0:60:
36,192,10774,5,4,1:0:0:56:
182,192,10774,1,8,1:0:0:60:
256,192,11074,1,0,1:0:0:80:
402,192,11374,1,4,3:0:0:90:
182,192,11674,1,0,1:0:0:80:
36,192,11974,1,4,2:0:0:70:
329,192,11974,1,8,1:0:0:60:
256,192,12274,128,0,12874:1:0:0:80:
109,192,12574,128,4,12874:3:0:0:90:
329,192,12874,1,0,1:0:0:80:
182,192,13174,1,4,2:0:0:70:
402,192,13174,1,8,1:0:0:60:
36,192,13474,1,0,1:0:0:80:
329,192,13774,1,4,3:0:0:90:
109,192,14074,1,0,1:0:0:80:
475,192,14374,1,8,1:0:0:60:
182,192,14374,1,4,2:0:0:70:
329,192,14674,128,0,15274:1:0:0:80:
475,192,14974,128,4,15274:3:0:0:90:
182,192,15274,1,0,1:0:0:80:
109,192,15574,1,4,2:0:0:70:
402,192,15574,1,8,1:0:0:60:
256,192,15874,1,0,1:0:0:80:
475,192,16174,1,4,3:0:0:90:
329,192,16474,1,0,1:0:0:80:
402,192,16774,1,8,1:0:0:60:
36,192,16774,1,4,2:0:0:70:
182,192,17074,128,0,17674:1:0:0:80:
329,192,17374,128,4,17674:3:0:0:90:
475,192,17674,1,0,1:0:0:80:
109,192,17974,1,4,2:0:0:70:
256,192,17974,1,8,1:0:0:60:
329,192,18274,1,0,1:0:0:80:
182,192,18574,1,4,3:0:0:90:
329,192,18874,5,0,1:0:0:80:
475,192,19174,1,8,1:0:0:60:
36,192,19174,1,4,2:0:0:70:
329,192,19474,1,0,1:0:0:80:
182,192,19774,1,4,3:0:0:90:
256,192,19924,5,2,3:0:0:90:
256,192,20074,1,2,3:0:0:90:
475,192,20374,5,8,3:0:0:30:
109,192,20374,5,4,1:0:0:56:
182,192,20374,1,8,1:0:0:100:
256,192,20674,1,0,1:0:0:80:
402,192,20974,1,8,2:0:0:100:
182,192,21274,1,0,1:0:0:80:
329,192,21574,1,8,1:0:0:80:
402,192,21574,1,4,2:0:0:70:
109,192,21874,128,0,22474:1:0:0:80:
402,192,22174,128,8,22474:2:0:0:100:
329,192,22474,1,0,1:0:0:80:
182,192,22774,1,4,2:0:0:70:
109,192,22774,1,8,1:0:0:80:
475,192,23074,1,0,1:0:0:80:
36,192,23374,1,8,2:0:0:100:
182,192,23674,1,0,1:0:0:80:
402,192,23974,1,4,2:0:0:70:
329,192,23974,1,8,1:0:0:80:
109,192,24274,128,0,24874:1:0:0:80:
256,192,24574,128,8,24874:2:0:0:100:
329,192,24874,1,0,1:0:0:80:
402,192,25024,1,0,0:0:0:0:
36,192,25174,1,4,2:0:0:70:
475,192,25174,1,8,1:0:0:100:
256,192,25324,1,8,2:0:0:100:
109,192,25474,1,4,3:0:0:40:
329,192,25624,1,8,2:0:0:100:
182,192,25774,1,4,3:0:0:40:
402,192,25924,1,8,2:0:0:100:
256,192,26074,1,8,1:0:0:100:
329,192,26074,1,8,3:0:0:60:
475,192,26374,1,4,2:0:0:70:
36,192,26374,1,8,1:0:0:100:
256,192,26524,1,8,2:0:0:100:
402,192,26674,1,4,3:0:0:40:
182,192,26824,1,8,2:0:0:100:
329,192,26974,1,4,3:0:0:40:
109,192,27124,1,8,2:0:0:100:
256,192,27274,1,8,1:0:0:100:
182,192,27274,1,8,3:0:0:60:
36,192,27574,1,8,1:0:0:100:
402,192,27574,1,4,2:0:0:100:
109,192,27724,1,8,1:0:0:100:
36,192,27874,1,8,1:0:0:100:
256,192,28024,1,8,2:0:0:100:
109,192,28174,1,8,1:0:0:100:
475,192,28174,1,4,2:0:0:100:
402,192,28324,1,8,1:0:0:100:
475,192,28474,1,8,1:0:0:100:
256,192,28624,1,8,2:0:0:100:
182,192,28774,1,4,2:0:0:60:
329,192,28774,1,8,2:0:0:100:
109,192,28924,1,8,1:0:0:40:
329,192,29074,1,4,2:0:0:100:
182,192,29074,1,8,2:0:0:100:
402,192,29224,1,8,1:0:0:40:
182,192,29374,1,4,2:0:0:80:
329,192,29374,1,8,2:0:0:100:
256,192,29524,5,2,3:0:0:90:
256,192,29674,1,2,3:0:0:90:
36,192,29974,5,4,1:0:0:56:
109,192,29974,1,0,0:0:0:0:
475,192,29974,128,4,30874:3:0:0:86:
182,192,30274,5,4,3:0:0:86:
109,192,30574,5,4,3:0:0:86:
329,192,30874,5,4,3:0:0:60:
36,192,30874,1,8,1:0:0:80:
109,192,31174,5,4,3:0:0:86:
402,192,31174,128,2,32074:2:0:0:100:
182,192,31474,5,4,3:0:0:86:
109,192,31774,5,4,3:0:0:86:
256,192,32074,1,8,1:0:0:80:
36,192,32074,1,8,0:0:0:80:
182,192,32374,1,2,2:0:0:100:
329,192,32374,128,4,33274:3:0:0:86:
109,192,32674,5,4,3:0:0:86:
36,192,32974,5,4,3:0:0:86:
475,192,33274,5,4,3:0:0:60:
182,192,33274,1,8,1:0:0:80:
402,192,33574,5,4,3:0:0:86:
109,192,33574,1,2,2:0:0:100:
182,192,33724,1,0,0:0:0:0:
109,192,33874,5,4,3:0:0:86:
256,192,34024,1,0,0:0:0:0:
402,192,34174,5,4,3:0:0:86:
329,192,34324,1,0,0:0:0:0:
402,192,34474,5,4,3:0:0:60:
109,192,34474,1,8,1:0:0:80:
475,192,34774,5,4,3:0:0:86:
182,192,34774,128,2,35674:2:0:0:100:
402,192,35074,5,4,3:0:0:86:
329,192,35374,5,4,3:0:0:86:
36,192,35674,5,4,3:0:0:60:
402,192,35674,1,8,1:0:0:80:
475,192,35974,5,4,3:0:0:86:
109,192,35974,128,2,36874:2:0:0:100:
402,192,36274,5,4,3:0:0:86:
329,192,36574,5,4,3:0:0:86:
182,192,36874,5,4,3:0:0:60:
402,192,36874,1,8,1:0:0:80:
475,192,37174,5,4,3:0:0:86:
36,192,37174,128,2,38074:2:0:0:100:
402,192,37474,5,4,3:0:0:86:
329,192,37774,5,4,3:0:0:86:
182,192,38074,5,4,3:0:0:60:
475,192,38074,1,8,1:0:0:80:
109,192,38374,5,4,3:0:0:86:
402,192,38374,1,2,2:0:0:100:
36,192,38524,1,0,0:0:0:0:
109,192,38674,5,4,3:0:0:86:
329,192,38824,1,0,0:0:0:0:
182,192,38974,5,4,3:0:0:86:
329,192,39124,1,0,0:0:0:0:
109,192,39274,5,4,3:0:0:60:
475,192,39274,1,8,1:0:0:80:
36,192,39574,128,0,40774:1:0:0:48:
402,192,39874,5,0,1:0:0:48:
402,192,40174,5,0,1:0:0:48:
256,192,40474,1,8,1:0:0:80:
329,192,40774,128,0,41974:1:0:0:48:
182,192,41074,5,0,1:0:0:48:
182,192,41374,5,0,1:0:0:48:
256,192,41674,1,8,1:0:0:80:
109,192,41974,128,0,42574:1:0:0:48:
402,192,42274,5,0,1:0:0:48:
182,192,42574,128,0,43174:1:0:0:48:
256,192,42874,1,8,1:0:0:80:
402,192,43174,128,0,43474:1:0:0:48:
109,192,43474,128,0,43774:1:0:0:48:
329,192,43774,128,0,44074:1:0:0:48:
256,192,44074,1,8,1:0:0:80:
36,192,44074,128,0,44374:1:0:0:100:
182,192,44374,5,0,1:0:0:48:
475,192,44374,1,4,2:0:0:56:
402,192,44674,5,0,1:0:0:48:
109,192,44674,5,8,3:0:0:90:
329,192,44974,5,0,1:0:0:48:
36,192,44974,5,8,3:0:0:90:
256,192,45274,5,0,1:0:0:100:
182,192,45274,1,8,1:0:0:80:
329,192,45574,5,0,1:0:0:48:
36,192,45574,1,4,2:0:0:56:
109,192,45874,5,0,1:0:0:48:
402,192,45874,5,8,3:0:0:90:
182,192,46174,5,0,1:0:0:48:
475,192,46174,5,8,3:0:0:90:
256,192,46474,5,0,1:0:0:100:
329,192,46474,1,8,1:0:0:80:
475,192,46774,5,0,1:0:0:48:
109,192,46774,1,4,2:0:0:56:
182,192,46924,5,0,1:0:0:48:
256,192,47074,1,8,1:0:0:80:
329,192,47224,5,8,3:0:0:86:
402,192,47374,5,0,1:0:0:48:
36,192,47374,1,4,2:0:0:56:
329,192,47524,5,0,1:0:0:48:
256,192,47674,1,8,1:0:0:80:
182,192,47824,5,8,3:0:0:86:
109,192,47974,5,4,1:0:0:56:
475,192,47974,1,4,2:0:0:56:
402,192,48124,5,4,3:0:0:54:
109,192,48424,5,4,3:0:0:54:
402,192,48724,5,4,3:0:0:54:
109,192,49024,5,4,3:0:0:54:
36,192,49174,128,4,49474:1:0:0:56:
475,192,49174,128,10,49474:3:0:0:100:
182,192,49474,1,0,0:0:0:0:
329,192,49774,1,0,1:0:0:90:
402,192,49774,1,0,0:0:0:0:
109,192,50074,1,0,0:0:0:0:
256,192,50374,1,0,0:0:0:0:
402,192,50674,1,4,3:0:0:90:
182,192,50974,1,0,1:0:0:90:
109,192,50974,1,0,0:0:0:0:
182,192,51574,128,10,51874:3:0:0:100:
329,192,51574,128,6,51874:3:0:0:100:
109,192,51874,1,0,0:0:0:0:
475,192,52174,1,0,1:0:0:90:
402,192,52174,1,0,0:0:0:0:
182,192,52474,1,4,3:0:0:90:
182,192,52774,1,4,3:0:0:90:
329,192,52999,1,8,3:0:0:40:
475,192,53074,1,4,3:0:0:60:
182,192,53224,1,4,3:0:0:90:
109,192,53374,1,0,1:0:0:90:
36,192,53374,1,0,0:0:0:0:
256,192,53674,1,4,3:0:0:90:
109,192,53974,128,6,54274:3:0:0:100:
402,192,53974,128,10,54274:3:0:0:100:
329,192,54274,1,0,0:0:0:0:
182,192,54574,1,0,0:0:0:0:
36,192,54574,1,0,1:0:0:90:
402,192,54874,1,0,0:0:0:0:
256,192,55174,1,0,0:0:0:0:
182,192,55474,1,4,3:0:0:90:
329,192,55774,1,0,0:0:0:0:
475,192,55774,1,0,1:0:0:90:
36,192,56374,128,10,56674:3:0:0:100:
329,192,56374,128,6,56674:3:0:0:100:
109,192,56674,1,0,0:0:0:0:
475,192,56974,1,0,1:0:0:90:
329,192,56974,1,0,0:0:0:0:
109,192,57274,1,4,3:0:0:90:
109,192,57574,1,4,3:0:0:90:
402,192,57799,1,8,3:0:0:40:
256,192,57874,1,4,3:0:0:60:
109,192,58024,1,4,3:0:0:90:
475,192,58174,1,0,1:0:0:90:
329,192,58174,1,0,0:0:0:0:
256,192,58474,1,4,3:0:0:90:
109,192,58774,1,10,3:0:0:100:
36,192,58774,1,4,2:0:0:56:
329,192,58924,1,0,1:0:0:50:
256,192,59074,1,0,1:0:0:90:
329,192,59224,1,0,1:0:0:50:
36,192,59374,1,4,3:0:0:90:
475,192,59524,1,0,1:0:0:50:
402,192,59674,1,0,1:0:0:90:
475,192,59824,1,0,1:0:0:50:
36,192,59974,1,4,3:0:0:90:
329,192,60124,1,0,1:0:0:50:
256,192,60274,1,0,1:0:0:90:
329,192,60424,1,0,1:0:0:50:
36,192,60574,1,4,3:0:0:90:
182,192,60724,1,0,1:0:0:50:
109,192,60874,1,0,1:0:0:90:
182,192,61024,1,0,1:0:0:50:
402,192,61174,5,2,3:0:0:100:
475,192,61174,5,6,3:0:0:100:
36,192,61324,1,0,1:0:0:50:
109,192,61474,1,0,1:0:0:90:
36,192,61624,1,0,1:0:0:50:
475,192,61774,1,4,3:0:0:90:
109,192,61924,1,0,1:0:0:50:
182,192,62074,1,0,1:0:0:90:
109,192,62224,1,0,1:0:0:50:
475,192,62374,1,4,3:0:0:90:
182,192,62524,1,0,1:0:0:50:
256,192,62674,1,0,1:0:0:90:
182,192,62824,1,0,1:0:0:50:
475,192,62974,1,4,3:0:0:90:
256,192,63124,1,0,1:0:0:50:
329,192,63274,1,0,1:0:0:90:
256,192,63424,1,0,1:0:0:50:
475,192,63574,1,4,3:0:0:100:
36,192,63574,1,4,2:0:0:56:
402,192,63724,1,8,3:0:0:90:
329,192,63874,1,8,1:0:0:50:
182,192,63874,1,0,1:0:0:100:
329,192,64174,1,8,1:0:0:65:
182,192,64174,1,4,3:0:0:90:
402,192,64324,1,8,3:0:0:90:
36,192,64474,1,0,1:0:0:100:
475,192,64474,1,8,1:0:0:80:
36,192,64774,1,4,2:0:0:70:
475,192,64774,1,4,3:0:0:90:
109,192,64924,1,8,3:0:0:90:
182,192,65074,1,0,1:0:0:100:
329,192,65074,1,8,1:0:0:50:
329,192,65374,1,4,3:0:0:90:
182,192,65374,1,8,1:0:0:65:
109,192,65524,1,8,3:0:0:90:
36,192,65674,1,0,1:0:0:100:
475,192,65674,1,8,1:0:0:80:
475,192,65974,5,4,3:0:0:100:
36,192,65974,1,4,2:0:0:70:
182,192,66124,1,8,1:0:0:50:
329,192,66274,1,8,1:0:0:50:
182,192,66424,1,8,1:0:0:80:
36,192,66574,1,4,2:0:0:85:
475,192,66574,1,4,3:0:0:90:
329,192,66724,1,8,1:0:0:50:
182,192,66874,1,8,1:0:0:50:
329,192,67024,1,8,1:0:0:80:
475,192,67174,1,4,2:0:0:100:
36,192,67174,1,2,1:0:0:30:
36,192,67474,5,2,1:0:0:45:
36,192,67774,1,2,1:0:0:30:
475,192,68074,5,2,1:0:0:60:
256,192,68374,5,4,3:0:0:30:
182,192,68374,128,4,70794:2:0:0:56:
329,192,69594,128,2,71994:2:0:0:66:
109,192,70794,128,2,73194:0:0:0:36:
402,192,71994,128,2,74394:0:0:0:96:
36,192,73194,128,2,75594:0:0:0:66:
329,192,74394,128,2,76794:0:0:0:30:
109,192,75594,128,2,77544:0:0:0:40:
402,192,76794,128,2,77544:0:0:0:96:
109,192,77694,5,8,2:0:0:80:
402,192,77694,1,8,1:0:0:70:
475,192,77974,1,0,1:0:0:90:
36,192,77974,1,0,0:0:0:0:
256,192,77974,1,8,2:0:0:90:
182,192,78274,1,0,1:0:0:60:
329,192,78574,1,0,1:0:0:30:
475,192,78874,1,0,1:0:0:70:
109,192,79174,1,8,2:0:0:90:
36,192,79174,1,0,1:0:0:90:
182,192,79474,1,0,1:0:0:60:
256,192,79774,1,0,1:0:0:30:
329,192,80074,1,0,1:0:0:70:
109,192,80374,1,0,1:0:0:90:
182,192,80374,1,8,2:0:0:90:
256,192,80674,1,0,1:0:0:60:
329,192,80974,1,0,1:0:0:30:
402,192,81274,1,0,1:0:0:70:
256,192,81574,1,8,2:0:0:90:
182,192,81574,1,0,1:0:0:90:
329,192,81874,1,0,1:0:0:60:
402,192,82174,1,0,1:0:0:30:
475,192,82474,1,0,1:0:0:70:
36,192,82774,1,4,2:0:0:70:
402,192,82774,1,0,1:0:0:90:
329,192,82924,1,8,2:0:0:90:
109,192,83074,1,0,1:0:0:90:
402,192,83224,1,8,2:0:0:90:
182,192,83374,1,0,1:0:0:90:
475,192,83524,1,8,2:0:0:90:
256,192,83674,1,2,3:0:0:100:
256,192,83824,1,2,3:0:0:100:
475,192,83974,1,0,1:0:0:90:
109,192,83974,1,4,2:0:0:80:
182,192,84124,1,8,2:0:0:90:
402,192,84274,1,0,1:0:0:90:
109,192,84424,1,8,2:0:0:90:
329,192,84574,1,0,1:0:0:90:
36,192,84724,1,8,2:0:0:90:
256,192,84874,1,2,3:0:0:100:
256,192,85024,1,2,3:0:0:100:
475,192,85174,1,4,2:0:0:90:
182,192,85174,1,8,3:0:0:48:
329,192,85324,1,8,3:0:0:48:
402,192,85474,1,2,3:0:0:100:
109,192,85474,1,4,3:0:0:48:
256,192,85624,1,4,3:0:0:48:
36,192,85774,1,0,1:0:0:90:
329,192,85774,1,8,3:0:0:48:
182,192,85924,1,8,3:0:0:48:
109,192,86074,1,2,3:0:0:100:
402,192,86074,1,4,3:0:0:48:
256,192,86224,1,4,3:0:0:48:
475,192,86374,1,4,1:0:0:56:
182,192,86374,1,4,2:0:0:90:
256,192,87274,1,2,3:0:0:45:
182,192,87274,1,2,3:0:0:45:
36,192,87574,5,4,1:0:0:56:
475,192,87574,1,8,1:0:0:60:
329,192,87574,1,0,0:0:0:0:
182,192,87799,1,0,0:0:0:0:
402,192,88024,1,0,0:0:0:0:
109,192,88324,1,0,0:0:0:0:
256,192,88474,1,0,0:0:0:0:
182,192,88624,1,0,0:0:0:0:
36,192,88774,1,4,2:0:0:70:
329,192,88774,1,4,3:0:0:100:
402,192,88999,1,0,0:0:0:0:
182,192,89224,1,0,0:0:0:0:
256,192,89524,1,0,0:0:0:0:
109,192,89674,1,0,0:0:0:0:
329,192,89824,1,0,0:0:0:0:
182,192,89974,1,4,2:0:0:70:
475,192,89974,1,4,3:0:0:100:
109,192,90199,1,0,0:0:0:0:
256,192,90424,1,0,0:0:0:0:
402,192,90574,128,0,90874:0:0:0:0:
182,192,90874,1,0,0:0:0:0:
109,192,91024,1,0,0:0:0:0:
329,192,91174,1,4,3:0:0:100:
36,192,91174,1,4,2:0:0:70:
182,192,91399,1,0,0:0:0:0:
329,192,91624,1,0,0:0:0:0:
475,192,91849,1,0,0:0:0:0:
475,192,92074,1,0,0:0:0:0:
402,192,92224,1,0,0:0:0:0:
36,192,92374,1,4,2:0:0:70:
329,192,92374,1,4,3:0:0:100:
36,192,92599,1,0,0:0:0:0:
36,192,92824,1,0,0:0:0:0:
182,192,93124,1,0,0:0:0:0:
329,192,93274,1,0,0:0:0:0:
475,192,93424,1,0,0:0:0:0:
329,192,93574,1,4,3:0:0:100:
36,192,93574,1,4,2:0:0:70:
182,192,93799,1,0,0:0:0:0:
402,192,94024,1,0,0:0:0:0:
256,192,94174,1,0,0:0:0:0:
109,192,94399,1,0,0:0:0:0:
256,192,94624,1,0,0:0:0:0:
36,192,94774,1,4,2:0:0:70:
402,192,94774,1,4,3:0:0:100:
182,192,94999,1,0,0:0:0:0:
329,192,95224,1,0,0:0:0:0:
475,192,95374,128,0,95674:0:0:0:0:
182,192,95674,1,0,0:0:0:0:
256,192,95824,1,0,0:0:0:0:
329,192,95974,1,4,3:0:0:100:
36,192,95974,1,4,2:0:0:70:
182,192,96199,1,0,0:0:0:0:
402,192,96424,1,0,0:0:0:0:
109,192,96574,1,0,0:0:0:0:
256,192,96724,5,2,3:0:0:90:
256,192,96874,1,2,3:0:0:90:
36,192,97174,5,4,1:0:0:56:
402,192,97174,1,8,1:0:0:100:
182,192,97399,1,0,0:0:0:0:
329,192,97624,1,0,0:0:0:0:
182,192,97924,1,0,0:0:0:0:
256,192,98074,1,0,0:0:0:0:
109,192,98224,1,0,0:0:0:0:
329,192,98374,1,8,1:0:0:80:
475,192,98374,1,4,2:0:0:70:
182,192,98599,1,0,0:0:0:0:
256,192,98824,1,0,0:0:0:0:
402,192,99124,1,0,0:0:0:0:
329,192,99274,1,0,0:0:0:0:
256,192,99424,1,0,0:0:0:0:
182,192,99574,1,8,1:0:0:80:
36,192,99574,1,4,2:0:0:70:
329,192,99799,1,0,0:0:0:0:
109,192,100024,1,0,0:0:0:0:
402,192,100174,128,0,100474:0:0:0:0:
36,192,100474,1,0,0:0:0:0:
109,192,100624,1,0,0:0:0:0:
182,192,100774,1,4,2:0:0:70:
475,192,100774,1,8,1:0:0:80:
256,192,100999,1,0,0:0:0:0:
329,192,101224,1,0,0:0:0:0:
402,192,101449,1,0,0:0:0:0:
475,192,101674,1,0,0:0:0:0:
182,192,101824,1,0,0:0:0:0:
329,192,101974,1,4,2:0:0:70:
36,192,101974,1,8,1:0:0:80:
329,192,102199,1,0,0:0:0:0:
329,192,102424,1,8,2:0:0:100:
182,192,102724,1,0,0:0:0:0:
402,192,102874,1,8,1:0:0:100:
109,192,102874,1,8,3:0:0:60:
109,192,103174,1,4,2:0:0:70:
402,192,103174,1,8,1:0:0:100:
182,192,103399,1,0,0:0:0:0:
329,192,103624,1,8,2:0:0:100:
256,192,103774,1,0,0:0:0:0:
402,192,104074,1,8,1:0:0:100:
109,192,104074,1,8,3:0:0:60:
109,192,104374,1,4,2:0:0:100:
402,192,104374,1,8,1:0:0:100:
329,192,104524,1,8,1:0:0:100:
182,192,104674,1,8,2:0:0:100:
402,192,104824,1,8,2:0:0:100:
475,192,104974,1,8,1:0:0:100:
36,192,104974,1,4,2:0:0:100:
182,192,105124,1,8,1:0:0:100:
402,192,105274,1,8,2:0:0:100:
109,192,105424,1,8,2:0:0:100:
36,192,105574,1,4,2:0:0:100:
329,192,105574,1,8,1:0:0:100:
402,192,105724,1,8,2:0:0:70:
475,192,105874,1,8,1:0:0:100:
182,192,105874,1,4,2:0:0:100:
109,192,106024,1,8,2:0:0:70:
36,192,106174,1,4,2:0:0:80:
329,192,106174,1,8,1:0:0:100:
256,192,106324,5,2,3:0:0:90:
256,192,106474,1,2,3:0:0:90:
109,192,106774,5,4,1:0:0:56:
402,192,106774,1,8,1:0:0:60:
256,192,107074,1,4,3:0:0:100:
329,192,107374,1,0,0:0:0:0:
109,192,107374,1,8,2:0:0:100:
402,192,107524,1,4,3:0:0:50:
329,192,107674,1,4,3:0:0:100:
256,192,107824,1,0,0:0:0:0:
36,192,107974,1,4,2:0:0:70:
182,192,107974,1,8,1:0:0:60:
329,192,108274,1,4,3:0:0:100:
182,192,108574,1,8,2:0:0:100:
402,192,108574,1,0,0:0:0:0:
109,192,108724,1,4,3:0:0:50:
182,192,108874,1,4,3:0:0:100:
256,192,109024,1,0,0:0:0:0:
475,192,109174,1,4,2:0:0:70:
329,192,109174,1,8,1:0:0:60:
182,192,109474,1,4,3:0:0:100:
109,192,109774,1,8,2:0:0:100:
402,192,109774,1,0,0:0:0:0:
256,192,109924,1,4,3:0:0:50:
475,192,110074,1,4,3:0:0:100:
329,192,110224,1,0,0:0:0:0:
182,192,110374,1,8,1:0:0:60:
36,192,110374,1,4,2:0:0:70:
329,192,110674,1,4,3:0:0:100:
109,192,110974,1,8,2:0:0:100:
402,192,110974,1,0,0:0:0:0:
256,192,111124,1,4,3:0:0:50:
36,192,111274,1,4,3:0:0:100:
182,192,111424,1,0,0:0:0:0:
475,192,111574,1,4,2:0:0:70:
329,192,111574,1,8,1:0:0:60:
256,192,111874,1,4,3:0:0:100:
402,192,112174,1,8,2:0:0:100:
36,192,112174,1,0,0:0:0:0:
182,192,112324,1,4,3:0:0:50:
329,192,112474,1,4,3:0:0:100:
256,192,112624,1,0,0:0:0:0:
182,192,112774,1,8,1:0:0:60:
36,192,112774,1,4,2:0:0:70:
402,192,113074,1,4,3:0:0:100:
109,192,113374,1,8,2:0:0:100:
475,192,113374,1,0,0:0:0:0:
329,192,113524,1,4,3:0:0:50:
182,192,113674,1,4,3:0:0:100:
256,192,113824,1,0,0:0:0:0:
475,192,113974,1,4,2:0:0:70:
329,192,113974,1,8,1:0:0:60:
182,192,114274,1,4,3:0:0:100:
36,192,114574,1,8,2:0:0:100:
402,192,114574,1,0,0:0:0:0:
256,192,114724,1,4,3:0:0:50:
109,192,114874,1,4,3:0:0:100:
329,192,115024,1,0,0:0:0:0:
475,192,115174,1,8,1:0:0:60:
182,192,115174,1,4,2:0:0:70:
329,192,115474,1,4,3:0:0:100:
109,192,115774,1,8,2:0:0:100:
402,192,115774,1,0,0:0:0:0:
256,192,115924,5,2,3:0:0:90:
256,192,116074,1,2,3:0:0:90:
182,192,116374,5,4,1:0:0:56:
329,192,116374,1,8,1:0:0:100:
109,192,116674,1,0,1:0:0:80:
256,192,116824,1,0,0:0:0:0:
402,192,116974,1,8,2:0:0:100:
182,192,117124,1,4,3:0:0:50:
402,192,117274,1,8,2:0:0:100:
329,192,117574,1,8,1:0:0:80:
36,192,117574,1,4,2:0:0:70:
402,192,117874,1,0,1:0:0:80:
256,192,118024,1,0,0:0:0:0:
109,192,118174,1,8,2:0:0:100:
329,192,118324,1,4,3:0:0:50:
109,192,118474,1,8,2:0:0:100:
182,192,118774,1,4,2:0:0:70:
475,192,118774,1,8,1:0:0:80:
329,192,119074,1,0,1:0:0:80:
109,192,119224,1,0,0:0:0:0:
475,192,119374,1,8,2:0:0:100:
182,192,119524,1,4,3:0:0:50:
475,192,119674,1,8,2:0:0:100:
36,192,119974,1,4,2:0:0:70:
329,192,119974,1,8,1:0:0:80:
402,192,120274,1,0,1:0:0:80:
109,192,120424,1,0,0:0:0:0:
329,192,120574,1,8,2:0:0:100:
182,192,120724,1,4,3:0:0:50:
329,192,120874,1,8,2:0:0:100:
36,192,121174,1,4,2:0:0:70:
475,192,121174,1,8,1:0:0:100:
109,192,121324,1,8,2:0:0:100:
402,192,121474,1,4,3:0:0:40:
109,192,121624,1,8,2:0:0:100:
329,192,121774,1,4,3:0:0:40:
109,192,121924,1,8,2:0:0:100:
256,192,122074,1,8,1:0:0:100:
329,192,122224,1,8,3:0:0:40:
36,192,122374,1,4,2:0:0:70:
475,192,122374,1,8,1:0:0:100:
402,192,122524,1,8,2:0:0:100:
109,192,122674,1,4,3:0:0:40:
402,192,122824,1,8,2:0:0:100:
182,192,122974,1,4,3:0:0:40:
402,192,123124,1,8,2:0:0:100:
256,192,123274,1,8,1:0:0:100:
182,192,123424,1,8,3:0:0:40:
36,192,123574,1,4,2:0:0:60:
329,192,123574,1,8,1:0:0:100:
109,192,123724,1,8,1:0:0:100:
475,192,123874,1,4,2:0:0:100:
182,192,123874,1,8,1:0:0:100:
402,192,124024,1,8,2:0:0:100:
36,192,124174,1,4,2:0:0:60:
329,192,124174,1,8,1:0:0:100:
109,192,124324,1,8,1:0:0:100:
182,192,124474,1,4,2:0:0:100:
475,192,124474,1,8,1:0:0:100:
402,192,124624,1,8,2:0:0:100:
182,192,124774,1,4,2:0:0:60:
36,192,124774,1,8,2:0:0:100:
329,192,124774,1,8,1:0:0:40:
402,192,125074,1,4,2:0:0:100:
109,192,125074,1,8,2:0:0:100:
256,192,125074,1,8,1:0:0:40:
182,192,125374,1,4,2:0:0:80:
329,192,125374,1,8,2:0:0:100:
475,192,125374,1,0,1:0:0:100:
256,192,125524,5,2,3:0:0:90:
256,192,125674,1,2,3:0:0:90:
475,192,125974,5,4,3:0:0:78:
36,192,125974,5,4,1:0:0:56:
256,192,125974,1,2,2:0:0:100:
