osu file format v14

[General]
AudioFilename: audio.mp3
AudioLeadIn: 0
PreviewTime: 82706
Countdown: 0
SampleSet: Soft
StackLeniency: 0.7
Mode: 2
LetterboxInBreaks: 0
WidescreenStoryboard: 0

[Editor]
DistanceSpacing: 1.2
BeatDivisor: 6
GridSize: 4
TimelineZoom: 2

[Metadata]
Title:Nadeshiko Sensation
TitleUnicode:Nadeshiko Sensation
Artist:yuki.
ArtistUnicode:yuki.
Creator:JBHyperion
Version:Platter
Source:
Tags:白雪 J-Core UK Hardcore White Records community beatmapping contest featured artist
BeatmapID:1466622
BeatmapSetID:693123

[Difficulty]
HPDrainRate:5
CircleSize:3.5
OverallDifficulty:8
ApproachRate:8
SliderMultiplier:1.4
SliderTickRate:1

[Events]
//Background and Video events
0,0,"cherry-blossom-tree-1470424985VFU.jpg",0,0
//Break Periods
2,68581,76781
//Storyboard Layer 0 (Background)
//Storyboard Layer 1 (Fail)
//Storyboard Layer 2 (Pass)
//Storyboard Layer 3 (Foreground)
//Storyboard Sound Samples

[TimingPoints]
1181,300,4,2,0,50,1,0
5981,-100,4,3,0,80,0,0
8381,-100,4,3,0,90,0,0
10181,-100,4,3,0,70,0,0
10481,-100,4,3,0,80,0,0
10781,-100,4,3,0,80,0,0
29981,-100,4,3,0,60,0,0
39581,-100,4,1,0,70,0,0
44381,-100,4,1,0,70,0,0
45581,-100,4,1,0,65,0,0
46781,-100,4,1,0,70,0,0
47981,-100,4,3,0,80,0,0
49181,-100,4,2,0,60,0,0
58781,-100,4,3,0,60,0,0
59081,-100,4,3,0,70,0,0
61181,-100,4,3,0,60,0,0
61481,-100,4,3,0,70,0,0
63581,-100,4,3,0,65,0,0
64781,-100,4,3,0,70,0,0
65981,-100,4,3,0,75,0,0
67181,-100,4,2,0,75,0,0
68381,-100,4,2,0,50,0,0
77681,-100,4,2,0,70,0,0
77981,-100,4,1,0,50,0,0
81806,-100,4,2,0,50,0,0
82031,-100,4,1,0,65,0,0
82256,-100,4,2,0,50,0,0
82781,-100,4,1,0,75,0,0
85181,-100,4,1,0,40,0,0
85481,-100,4,1,0,45,0,0
85781,-100,4,1,0,50,0,0
86081,-100,4,1,0,55,0,0
86381,-100,4,1,0,35,0,0
87281,-100,4,3,0,50,0,0
87581,-100,4,3,0,90,0,1
106706,-100,4,3,0,90,0,0
106781,-100,4,3,0,90,0,1
116381,-100,4,1,0,70,0,1
121181,-100,4,1,0,80,0,1
125981,-100,4,2,0,100,0,0
126131,-100,4,2,0,45,0,0
126281,-100,4,2,0,40,0,0
126581,-100,4,2,0,35,0,0
126881,-100,4,2,0,30,0,0
127181,-100,4,2,0,25,0,0
127481,-100,4,2,0,20,0,0
127781,-100,4,2,0,15,0,0
128081,-100,4,2,0,10,0,0
128381,-100,4,2,0,5,0,0

[Colours]
Combo1 : 180,120,120
Combo2 : 240,160,180
Combo3 : 255,65,160
Combo4 : 255,160,65

[HitObjects]
304,356,881,6,0,L|312:280,1,70,2|0,0:3|0:0,0:0:0:0:
160,280,1181,6,0,P|116:244|160:192,1,140,4|0,0:2|0:0,0:0:0:0:
240,192,1631,1,0,0:0:0:0:
316,192,1781,2,0,L|400:152,1,70,2|0,0:3|0:0,0:0:0:0:
288,104,2081,2,0,L|204:104,1,70,8|0,0:3|0:0,0:0:0:0:
296,24,2381,6,0,L|380:24,2,70,2|0|0,0:0|0:0|0:0,0:0:0:0:
212,24,2831,1,0,0:0:0:0:
304,24,2981,1,4,0:3:0:0:
164,24,3281,2,0,L|72:24,1,70,0|0,0:0|0:0,0:0:0:0:
248,120,3581,6,0,L|328:120,1,70,2|0,0:0|0:0,0:0:0:0:
396,120,3881,1,0,0:0:0:0:
324,120,4031,1,0,0:0:0:0:
480,192,4181,2,0,P|472:232|432:256,1,70,2|0,0:3|0:0,0:0:0:0:
408,248,4406,1,0,0:0:0:0:
368,248,4481,2,0,L|452:248,1,70,0|0,0:0|0:0,0:0:0:0:
284,192,4781,6,0,L|196:192,2,70,2|0|0,0:0|0:0|0:0,0:0:0:0:
360,192,5231,1,0,0:0:0:0:
268,192,5381,1,8,0:3:0:0:
492,192,5681,1,8,0:3:0:0:
128,192,5981,6,0,P|64:168|36:96,1,140,4|0,0:2|0:0,0:0:0:0:
128,100,6431,1,0,0:0:0:0:
284,100,6581,2,0,L|368:100,1,70,4|0,0:0|0:0,0:0:0:0:
440,176,6881,2,0,L|352:176,1,70,2|0,0:2|0:0,0:0:0:0:
216,176,7181,6,0,L|148:192,2,70,2|0|0,0:0|0:0|0:0,0:0:0:0:
300,176,7631,1,0,0:0:0:0:
148,192,7781,2,0,P|108:244|152:296,1,140,0|2,0:0|0:2,0:0:0:0:
232,296,8231,1,0,0:0:0:0:
388,296,8381,6,0,L|468:296,2,70,4|0|8,0:2|0:0|0:0,0:0:0:0:
304,296,8831,1,0,0:0:0:0:
448,216,8981,1,0,0:0:0:0:
480,188,9056,1,0,0:0:0:0:
484,145,9131,1,0,0:0:0:0:
458,112,9206,1,0,0:0:0:0:
412,108,9281,2,0,L|340:108,1,70,8|0,0:3|0:0,0:0:0:0:
244,108,9581,6,0,L|156:108,2,70,4|0|0,0:0|0:0|0:0,0:0:0:0:
320,108,10031,1,0,0:0:0:0:
244,108,10181,1,2,0:0:0:0:
484,108,10481,1,8,0:0:0:0:
120,108,10781,6,0,L|44:108,2,70,4|0|0,0:2|0:0|0:0,0:0:0:0:
204,108,11231,1,0,0:0:0:0:
360,108,11381,2,0,P|396:124|408:152,1,70,2|0,0:0|0:0,0:0:0:0:
400,192,11606,1,0,0:0:0:0:
360,208,11681,2,0,L|264:208,1,70,0|0,0:0|0:0,0:0:0:0:
192,280,11981,6,0,L|256:308,1,70,8|0,0:0|0:0,0:0:0:0:
340,308,12281,2,0,L|316:376,1,70,0|0,0:0|0:0,0:0:0:0:
232,376,12581,2,0,P|172:360|144:292,1,140,2|0,0:0|0:0,0:0:0:0:
220,300,13031,1,0,0:0:0:0:
296,292,13181,6,0,L|356:256,2,70,4|0|0,0:0|0:0|0:0,0:0:0:0:
220,300,13631,1,0,0:0:0:0:
64,292,13781,2,0,P|28:276|16:248,1,70,2|0,0:0|0:0,0:0:0:0:
24,208,14006,1,0,0:0:0:0:
64,192,14081,2,0,L|160:192,1,70,0|0,0:0|0:0,0:0:0:0:
288,120,14381,6,0,L|222:82,1,70,8|0,0:0|0:0,0:0:0:0:
136,84,14681,2,0,L|201:46,1,70,8|0,0:0|0:0,0:0:0:0:
352,48,14981,2,0,P|380:96|356:188,1,140,2|0,0:0|0:0,0:0:0:0:
280,176,15431,1,0,0:0:0:0:
124,176,15581,6,0,B|52:176|52:176|52:244,1,140,6|0,0:0|0:0,0:0:0:0:
192,252,16031,2,0,B|264:252|264:252|264:320,1,140,2|0,0:2|0:0,0:0:0:0:
184,320,16481,2,0,L|272:320,1,70,2|0,0:2|0:0,0:0:0:0:
352,192,16781,6,0,L|280:192,2,70,8|0|0,0:0|0:0|0:0,0:0:0:0:
436,192,17231,1,0,0:0:0:0:
352,192,17381,2,0,P|300:180|264:92,1,140,2|0,0:0|0:0,0:0:0:0:
348,104,17831,1,0,0:0:0:0:
261,107,17981,5,8,0:0:0:0:
184,108,18131,1,0,0:0:0:0:
108,108,18281,1,0,0:0:0:0:
184,108,18431,1,0,0:0:0:0:
340,192,18581,2,0,L|416:192,1,70,2|0,0:0|0:0,0:0:0:0:
375,192,18806,1,0,0:0:0:0:
340,192,18881,1,0,0:0:0:0:
240,192,19031,1,0,0:0:0:0:
396,292,19181,6,0,L|480:292,1,70,4|0,0:0|0:0,0:0:0:0:
360,376,19481,2,0,P|309:360|277:276,1,140,4|2,0:0|0:0,0:0:0:0:
365,192,19931,1,0,0:0:0:0:
209,192,20081,2,0,L|133:192,1,70,8|0,0:0|0:0,0:0:0:0:
357,92,20381,6,0,L|433:92,2,70,4|0|0,0:2|0:0|0:0,0:0:0:0:
273,92,20831,1,0,0:0:0:0:
117,92,20981,2,0,P|81:108|69:136,1,70,2|0,0:0|0:0,0:0:0:0:
77,176,21206,1,0,0:0:0:0:
117,192,21281,2,0,L|213:192,1,70,0|0,0:0|0:0,0:0:0:0:
285,192,21581,6,0,L|349:220,1,70,8|0,0:0|0:0,0:0:0:0:
252,292,21881,2,0,L|228:360,1,70,0|0,0:0|0:0,0:0:0:0:
325,352,22181,2,0,P|385:336|413:268,1,140,2|0,0:0|0:0,0:0:0:0:
337,276,22631,1,0,0:0:0:0:
261,268,22781,6,0,L|201:232,2,70,4|0|0,0:0|0:0|0:0,0:0:0:0:
337,276,23231,1,0,0:0:0:0:
181,232,23381,2,0,P|145:216|133:188,1,70,2|0,0:0|0:0,0:0:0:0:
141,148,23606,1,0,0:0:0:0:
181,132,23681,2,0,L|277:132,1,70,0|0,0:0|0:0,0:0:0:0:
405,132,23981,6,0,L|477:96,2,70,8|0|8,0:0|0:0|0:0,0:0:0:0:
321,132,24431,1,0,0:0:0:0:
165,132,24581,2,0,P|105:160|85:236,1,140,2|0,0:0|0:0,0:0:0:0:
165,216,25031,1,0,0:0:0:0:
385,216,25181,6,0,L|461:216,1,70,4|0,0:2|0:0,0:0:0:0:
361,296,25481,2,0,L|277:296,1,70,8|0,0:0|0:0,0:0:0:0:
369,216,25781,2,0,L|301:192,1,70,8|0,0:0|0:0,0:0:0:0:
225,160,26081,2,0,L|157:136,1,70,8|0,0:0|0:0,0:0:0:0:
328,80,26381,6,0,L|404:80,2,70,8|0|0,0:0|0:0|0:0,0:0:0:0:
236,80,26831,1,0,0:0:0:0:
145,80,26981,2,0,P|105:128|149:184,1,140,2|0,0:0|0:0,0:0:0:0:
229,184,27431,1,0,0:0:0:0:
449,184,27581,5,4,0:2:0:0:
480,213,27656,1,0,0:0:0:0:
490,255,27731,1,0,0:0:0:0:
476,296,27806,1,0,0:0:0:0:
442,322,27881,1,0,0:0:0:0:
357,324,28031,1,0,0:0:0:0:
209,324,28181,5,4,0:0:0:0:
181,290,28256,1,0,0:0:0:0:
175,247,28331,1,0,0:0:0:0:
193,208,28406,1,0,0:0:0:0:
228,183,28481,1,0,0:0:0:0:
313,184,28631,1,0,0:0:0:0:
157,184,28781,6,0,L|73:184,2,70,4|0|8,0:2|0:0|0:0,0:0:0:0:
241,184,29231,1,0,0:0:0:0:
269,104,29381,1,4,0:0:0:0:
128,104,29531,1,8,0:0:0:0:
269,104,29681,2,0,L|341:104,1,70,8|0,0:0|0:0,0:0:0:0:
120,104,29981,6,0,P|64:128|40:208,1,140,4|0,0:2|0:0,0:0:0:0:
116,196,30431,1,0,0:0:0:0:
192,196,30581,1,8,0:0:0:0:
332,192,30881,2,0,L|280:240,1,70,0|0,0:0|0:0,0:0:0:0:
140,272,31181,6,0,L|64:272,1,70,2|0,0:0|0:0,0:0:0:0:
156,352,31481,2,0,L|232:352,2,70,0|0|8,0:0|0:0|0:0,0:0:0:0:
16,272,32081,2,0,L|100:272,1,70,0|0,0:0|0:0,0:0:0:0:
240,272,32381,5,4,0:0:0:0:
285,248,32531,1,0,0:0:0:0:
301,199,32681,1,0,0:0:0:0:
280,153,32831,1,0,0:0:0:0:
232,135,32981,1,8,0:0:0:0:
76,136,33281,2,0,L|4:136,1,70
168,56,33581,6,0,L|244:56,2,70,8|0|0,0:0|0:0|0:0,0:0:0:0:
84,56,34031,1,0,0:0:0:0:
240,136,34181,1,8,0:0:0:0:
324,136,34331,1,0,0:0:0:0:
356,192,34406,1,0,0:0:0:0:
328,248,34481,2,0,L|244:248,1,70,8|0,0:0|0:0,0:0:0:0:
116,248,34781,6,0,P|60:224|36:144,1,140,4|0,0:0|0:0,0:0:0:0:
112,156,35231,1,0,0:0:0:0:
188,156,35381,2,0,L|248:104,1,70,8|0,0:0|0:0,0:0:0:0:
156,80,35681,2,0,L|84:80,1,70,0|0,0:0|0:0,0:0:0:0:
240,110,35981,6,0,L|316:110,1,70,2|0,0:0|0:0,0:0:0:0:
224,190,36281,2,0,L|148:190,2,70,0|0|8,0:0|0:0|0:0,0:0:0:0:
308,192,36731,1,0,0:0:0:0:
392,192,36881,2,0,L|308:192,1,70,0|0,0:0|0:0,0:0:0:0:
168,188,37181,5,4,0:0:0:0:
123,212,37331,1,0,0:0:0:0:
107,261,37481,1,0,0:0:0:0:
128,307,37631,1,0,0:0:0:0:
176,325,37781,2,0,L|256:324,1,70,8|0,0:0|0:0,0:0:0:0:
328,236,38081,2,0,L|252:236,1,70,0|0,0:0|0:0,0:0:0:0:
104,236,38381,5,4,0:0:0:0:
32,236,38531,1,8,0:0:0:0:
116,160,38681,1,8,0:0:0:0:
44,160,38831,1,8,0:0:0:0:
200,160,38981,1,8,0:0:0:0:
272,160,39131,1,8,0:0:0:0:
188,84,39281,1,8,0:0:0:0:
260,84,39431,1,8,0:0:0:0:
472,84,39581,6,0,P|508:132|464:192,1,140,4|0,0:2|0:0,0:0:0:0:
292,192,40181,1,8,0:3:0:0:
136,192,40481,1,0,0:0:0:0:
352,288,40781,6,0,P|344:240|272:192,1,140,4|0,0:3|0:0,0:0:0:0:
116,192,41381,1,0,0:0:0:0:
272,192,41681,1,0,0:0:0:0:
488,192,41981,6,0,P|504:140|456:72,1,140,8|0,0:3|0:0,0:0:0:0:
292,72,42581,2,0,P|312:136|384:152,1,140,8|0,0:3|0:0,0:0:0:0:
152,152,43181,6,0,P|88:180|64:256,1,140,4|0,0:3|0:0,0:0:0:0:
80,304,43581,1,2,2:0:0:0:
140,328,43681,1,2,2:0:0:0:
204,328,43781,2,0,L|344:328,1,140,2|0,0:3|0:0,0:0:0:0:
48,192,44381,6,0,L|44:116,1,70,4|0,0:2|0:0,0:0:0:0:
128,120,44681,2,0,L|132:44,1,70,8|0,0:3|0:0,0:0:0:0:
216,52,44981,2,0,L|220:128,1,70,4|0,0:3|0:0,0:0:0:0:
304,124,45281,2,0,L|300:200,1,70,4|0,0:3|0:0,0:0:0:0:
144,192,45581,6,0,L|64:192,1,70,4|0,0:2|0:0,0:0:0:0:
152,276,45881,2,0,L|224:276,1,70,8|0,0:3|0:0,0:0:0:0:
300,276,46181,2,0,L|220:276,1,70,4|0,0:3|0:0,0:0:0:0:
308,192,46481,2,0,L|380:192,1,70,4|0,0:3|0:0,0:0:0:0:
160,192,46781,5,4,0:0:0:0:
117,181,46856,1,0,0:0:0:0:
83,154,46931,1,0,0:0:0:0:
61,117,47006,1,0,0:0:0:0:
55,74,47081,1,0,0:0:0:0:
140,72,47231,1,8,0:3:0:0:
292,72,47381,5,4,0:0:0:0:
316,108,47456,1,0,0:0:0:0:
312,152,47531,1,0,0:0:0:0:
288,184,47606,1,0,0:0:0:0:
252,192,47681,1,0,0:0:0:0:
168,192,47831,1,8,0:3:0:0:
324,192,47981,5,4,0:0:0:0:
396,192,48131,1,0,0:0:0:0:
312,268,48281,1,2,0:0:0:0:
244,268,48431,1,0,0:0:0:0:
384,268,48581,1,8,0:0:0:0:
456,268,48731,1,8,0:0:0:0:
372,344,48881,1,8,0:0:0:0:
444,344,49031,1,8,0:0:0:0:
224,344,49181,6,0,L|64:344,1,140,4|0,0:0|0:0,0:0:0:0:
308,268,49781,2,0,P|368:240|388:168,1,140,4|0,0:3|0:0,0:0:0:0:
248,176,50381,2,0,L|244:60,1,116.666666666667,2|0,0:0|0:0,0:0:0:0:
300,128,50681,2,0,L|320:12,1,116.666666666667
376,12,50981,2,0,P|432:36|460:108,1,140,4|0,0:3|0:0,0:0:0:0:
224,192,51581,6,0,P|160:220|136:284,1,140,2|0,0:3|0:0,0:0:0:0:
352,284,52106,1,0,0:0:0:0:
408,284,52181,2,0,P|432:224|400:160,1,140,4|0,0:3|0:0,0:0:0:0:
148,160,52781,2,0,L|40:160,2,105,8|0|0,0:3|0:0|0:0,0:0:0:0:
312,160,53381,2,0,P|360:176|384:228,1,105,4|0,0:3|0:0,0:0:0:0:
336,272,53681,1,0,0:0:0:0:
84,272,53981,6,0,L|244:272,1,140,2|0,0:3|0:0,0:0:0:0:
480,152,54581,2,0,P|452:92|380:72,1,140,4|0,0:3|0:0,0:0:0:0:
216,192,55181,2,0,P|184:156|228:116,1,116.666666666667,2|0,0:0|0:0,0:0:0:0:
280,120,55481,2,0,L|180:188,1,116.666666666667,2|0,0:0|0:0,0:0:0:0:
240,184,55781,2,0,P|296:208|324:280,1,140,4|0,0:3|0:0,0:0:0:0:
72,280,56381,6,0,P|97:216|160:192,1,140,2|0,0:3|0:0,0:0:0:0:
380,232,56906,1,0,0:0:0:0:
436,232,56981,2,0,P|460:172|428:108,1,140,4|0,0:3|0:0,0:0:0:0:
132,156,57581,2,0,L|214:86,2,105,8|0|0,0:3|0:0|0:0,0:0:0:0:
280,192,58181,2,0,L|160:192,1,105,4|0,0:3|0:0,0:0:0:0:
112,192,58481,1,0,0:0:0:0:
492,264,58781,6,0,L|500:112,1,140,4|8,0:2|0:0,0:0:0:0:
276,124,59381,2,0,L|128:124,1,140,0|8,0:0|0:0,0:0:0:0:
276,212,59981,1,0,0:0:0:0:
108,208,60281,2,0,L|232:272,2,140,4|0|8,0:0|0:0|0:0,0:0:0:0:
360,212,61181,6,0,P|404:176|352:132,1,140,2|8,0:0|0:0,0:0:0:0:
144,132,61706,2,0,L|100:132,1,35,0|0,0:0|0:0,0:0:0:0:
276,132,62081,1,8,0:0:0:0:
24,128,62381,2,0,P|17:183|56:212,1,105,2|0,0:2|0:0,0:0:0:0:
116,212,62681,2,0,P|168:240|152:300,1,105,4|0,0:0|0:0,0:0:0:0:
104,280,62981,2,0,L|8:320,1,105
63,320,63281,1,8,0:0:0:0:
424,320,63581,6,0,L|496:320,1,70,2|0,0:2|0:0,0:0:0:0:
381,320,63881,2,0,L|362:250,1,70,8|0,0:0|0:0,0:0:0:0:
461,252,64181,2,0,L|442:182,1,70
331,188,64481,2,0,L|255:188,1,70,8|0,0:0|0:0,0:0:0:0:
99,188,64781,5,4,0:2:0:0:
57,226,64931,1,0,0:0:0:0:
63,282,65081,1,8,0:0:0:0:
111,312,65231,1,0,0:0:0:0:
211,312,65381,2,0,L|135:312,1,70,0|0,0:0|0:0,0:0:0:0:
43,224,65681,2,0,L|123:224,1,70,8|0,0:0|0:0,0:0:0:0:
331,228,65981,5,4,0:2:0:0:
372,215,66056,1,0,0:0:0:0:
404,186,66131,1,0,0:0:0:0:
420,146,66206,1,0,0:0:0:0:
415,102,66281,1,0,0:0:0:0:
319,100,66431,1,8,0:0:0:0:
179,100,66581,6,0,L|131:100,2,35,4|0|0,0:2|0:0|0:0,0:0:0:0:
277,100,66881,1,4,0:0:0:0:
309,128,66956,1,0,0:0:0:0:
318,170,67031,1,0,0:0:0:0:
301,210,67106,1,0,0:0:0:0:
264,232,67181,6,0,L|159:231,1,105,2|0,0:0|0:0,0:0:0:0:
101,232,67481,2,0,P|55:250|33:304,1,105,2|0,0:0|0:0,0:0:0:0:
93,296,67781,2,0,L|197:296,1,105,2|0,0:0|0:0,0:0:0:0:
141,368,68081,2,0,L|53:368,1,70,2|0,0:0|0:0,0:0:0:0:
289,368,68381,5,4,0:0:0:0:
100,192,77681,5,8,0:0:0:0:
360,192,77981,6,0,L|468:192,2,105,4|0|0,0:2|0:0|0:0,0:0:0:0:
204,192,78581,2,0,L|116:192,1,70
220,108,78881,2,0,L|144:108,1,70,4|0,0:3|0:0,0:0:0:0:
304,108,79181,6,0,P|364:136|372:184,2,105,4|0|0,0:3|0:0|0:0,0:0:0:0:
150,108,79781,2,0,L|230:108,1,70,2|0,0:2|0:0,0:0:0:0:
304,172,80081,2,0,L|220:172,1,70,0|0,0:0|0:0,0:0:0:0:
64,172,80381,5,4,0:3:0:0:
96,272,80606,1,0,0:0:0:0:
196,304,80831,1,0,0:0:0:0:
352,304,80981,2,0,L|428:304,1,70,8|0,0:3|0:0,0:0:0:0:
456,272,81206,1,0,0:0:0:0:
420,240,81281,2,0,L|350:240,1,70
196,192,81581,6,0,L|96:140,1,105,4|2,0:3|0:0,0:0:0:0:
312,120,82031,2,0,L|420:120,1,105,0|2,0:0|0:0,0:0:0:0:
228,44,82481,1,8,0:3:0:0:
340,44,82631,1,8,0:3:0:0:
120,276,82781,6,0,L|48:276,1,70,4|0,0:2|0:0,0:0:0:0:
136,192,83081,2,0,L|208:192,1,70,0|0,0:0|0:0,0:0:0:0:
304,192,83381,2,0,L|216:192,2,70,8|0|4,0:3|0:0|0:3,0:0:0:0:
388,192,83831,1,0,0:0:0:0:
168,192,83981,5,4,0:2:0:0:
120,160,84131,1,0,0:0:0:0:
104,108,84281,1,0,0:0:0:0:
120,52,84431,1,0,0:0:0:0:
218,52,84581,2,0,L|134:52,1,70,4|0,0:3|0:0,0:0:0:0:
50,160,84881,2,0,L|150:160,1,70,4|0,0:3|0:0,0:0:0:0:
256,192,85181,12,8,87281,0:0:0:0:
160,192,87581,6,0,L|44:156,2,105,4|0|0,0:2|0:0|0:0,0:0:0:0:
244,192,88181,1,2,0:0:0:0:
116,264,88331,1,0,0:0:0:0:
70,264,88406,1,0,0:0:0:0:
24,264,88481,1,0,0:0:0:0:
104,264,88631,1,0,0:0:0:0:
272,264,88781,6,0,P|324:236|340:192,2,105,8|0|0,0:0|0:0|0:0,0:0:0:0:
188,264,89381,1,2,0:0:0:0:
288,264,89531,2,0,L|332:264,2,35,0|0|0,0:0|0:0|0:0,0:0:0:0:
216,264,89831,1,0,0:0:0:0:
372,192,89981,6,0,L|480:192,2,105,4|0|0,0:0|0:0|0:0,0:0:0:0:
216,192,90581,2,0,L|136:192,1,70,2|0,0:0|0:0,0:0:0:0:
192,112,90806,1,0,0:0:0:0:
238,112,90881,2,0,L|314:112,1,70
152,112,91181,6,0,P|104:136|88:184,1,105,8|0,0:0|0:0,0:0:0:0:
276,192,91631,1,0,0:0:0:0:
168,192,91856,1,0,0:0:0:0:
388,192,92081,2,0,L|308:192,1,70,2|2,0:2|0:2,0:0:0:0:
100,192,92381,5,4,0:0:0:0:
8,120,92606,1,0,0:0:0:0:
100,48,92831,1,0,0:0:0:0:
240,48,93131,1,0,0:0:0:0:
136,120,93281,2,0,L|60:120,1,70,0|0,0:0|0:0,0:0:0:0:
208,188,93581,6,0,L|316:188,2,105,8|0|0,0:0|0:0|0:0,0:0:0:0:
313,188,94181,2,0,L|236:264,2,105,2|0|0,0:0|0:0|0:0,0:0:0:0:
160,192,94781,5,4,0:0:0:0:
276,192,95006,1,0,0:0:0:0:
392,192,95231,1,0,0:0:0:0:
244,108,95381,2,0,L|148:108,1,70,2|0,0:0|0:0,0:0:0:0:
220,108,95606,1,0,0:0:0:0:
264,108,95681,1,0,0:0:0:0:
174,108,95831,1,0,0:0:0:0:
316,108,95981,6,0,L|412:60,2,105,8|0|0,0:0|0:0|0:0,0:0:0:0:
252,108,96581,1,2,0:0:0:0:
392,108,96731,1,8,0:0:0:0:
252,108,96881,2,0,L|168:108,1,70,8|0,0:0|0:0,0:0:0:0:
400,192,97181,6,0,P|452:220|468:264,2,105,4|0|0,0:2|0:0|0:0,0:0:0:0:
316,192,97781,1,2,0:0:0:0:
232,296,97931,2,0,L|172:296,2,35
328,296,98231,1,0,0:0:0:0:
168,192,98381,5,8,0:0:0:0:
280,192,98606,1,0,0:0:0:0:
392,192,98831,1,0,0:0:0:0:
308,112,98981,1,2,0:0:0:0:
208,112,99131,1,0,0:0:0:0:
236,112,99206,1,0,0:0:0:0:
264,112,99281,1,0,0:0:0:0:
324,112,99431,1,0,0:0:0:0:
164,192,99581,6,0,L|56:192,2,105,4|0|0,0:0|0:0|0:0,0:0:0:0:
320,192,100181,2,0,L|268:240,1,70,2|0,0:0|0:0,0:0:0:0:
234,272,100406,1,0,0:0:0:0:
276,272,100481,2,0,L|364:272,1,70,0|0,0:0|0:0,0:0:0:0:
192,272,100781,6,0,L|116:272,1,70,8|0,0:0|0:0,0:0:0:0:
80,192,101006,2,0,L|156:192,1,70,0|0,0:0|0:0,0:0:0:0:
194,192,101231,1,0,0:0:0:0:
80,192,101456,1,0,0:0:0:0:
276,192,101681,1,2,0:2:0:0:
176,192,101831,1,2,0:2:0:0:
394,192,101981,6,0,L|464:160,1,70,4|0,0:2|0:0,0:0:0:0:
352,116,102281,2,0,L|272:116,1,70,4|0,0:0|0:0,0:0:0:0:
176,116,102581,2,0,L|212:48,1,70
314,177,102881,2,0,L|282:116,1,70,4|0,0:0|0:0,0:0:0:0:
108,116,103181,6,0,L|24:116,2,70,4|0|8,0:2|0:0|0:0,0:0:0:0:
192,116,103631,1,0,0:0:0:0:
332,192,103781,2,0,L|252:192,1,70
156,272,104081,2,0,L|244:272,1,70,8|0,0:0|0:0,0:0:0:0:
444,272,104381,6,0,P|484:256|508:196,2,105,4|0|0,0:2|0:0|0:0,0:0:0:0:
288,272,104981,1,4,0:2:0:0:
376,192,105131,1,0,0:0:0:0:
404,160,105206,1,0,0:0:0:0:
376,128,105281,2,0,L|304:128,1,70,8|0,0:0|0:0,0:0:0:0:
152,128,105581,6,0,L|68:128,2,70,4|0|4,0:2|0:0|0:0,0:0:0:0:
248,128,106031,1,0,0:0:0:0:
144,128,106181,1,2,0:0:0:0:
292,48,106331,1,8,0:0:0:0:
144,48,106481,2,0,L|60:48,1,70,8|0,0:0|0:0,0:0:0:0:
300,192,106781,6,0,L|408:192,2,105,4|0|8,0:2|0:0|0:0,0:0:0:0:
216,192,107381,1,0,0:0:0:0:
308,120,107531,1,0,0:0:0:0:
260,120,107606,1,0,0:0:0:0:
212,120,107681,1,2,0:0:0:0:
128,40,107831,1,0,0:0:0:0:
284,40,107981,6,0,L|388:40,2,105,4|0|8,0:0|0:0|0:0,0:0:0:0:
356,116,108581,1,0,0:0:0:0:
468,116,108731,2,0,L|512:116,2,35,0|0|2,0:0|0:0|0:0,0:0:0:0:
396,116,109031,1,0,0:0:0:0:
240,192,109181,6,0,L|132:192,2,105,4|0|0,0:0|0:0|0:0,0:0:0:0:
80,352,109781,2,0,L|150:352,1,70,2|0,0:0|0:0,0:0:0:0:
192,352,110006,1,0,0:0:0:0:
150,352,110081,2,0,L|74:352,1,70,0|0,0:0|0:0,0:0:0:0:
232,272,110381,5,8,0:0:0:0:
108,272,110606,1,0,0:0:0:0:
320,272,110831,1,0,0:0:0:0:
204,272,111056,1,0,0:0:0:0:
416,272,111281,2,0,L|496:272,1,70,2|2,0:2|0:2,0:0:0:0:
256,272,111581,5,4,0:0:0:0:
132,192,111806,1,0,0:0:0:0:
256,112,112031,1,8,0:0:0:0:
180,112,112181,1,0,0:0:0:0:
256,112,112331,1,0,0:0:0:0:
404,192,112481,2,0,L|480:192,1,70,2|0,0:0|0:0,0:0:0:0:
316,264,112781,6,0,L|208:264,2,105,4|0|0,0:0|0:0|0:0,0:0:0:0:
408,264,113381,2,0,L|313:317,2,105,2|0|0,0:0|0:0|0:0,0:0:0:0:
252,264,113981,5,4,0:0:0:0:
368,264,114206,1,0,0:0:0:0:
484,264,114431,1,0,0:0:0:0:
324,180,114581,2,0,L|420:180,1,70,8|0,0:0|0:0,0:0:0:0:
432,164,114806,1,0,0:0:0:0:
440,124,114881,1,0,0:0:0:0:
356,124,115031,1,0,0:0:0:0:
202,124,115181,6,0,L|106:76,2,105,4|0|0,0:0|0:0|0:0,0:0:0:0:
286,124,115781,1,2,0:0:0:0:
146,124,115931,1,8,0:0:0:0:
286,124,116081,2,0,L|370:124,1,70,8|0,0:0|0:0,0:0:0:0:
128,124,116381,6,0,P|84:168|128:216,1,140,4|0,0:2|0:0,0:0:0:0:
296,216,116981,2,0,L|312:304,1,70,8|0,0:3|0:0,0:0:0:0:
208,284,117281,2,0,L|152:332,1,70
312,324,117581,6,0,L|460:324,1,140,4|0,0:3|0:0,0:0:0:0:
284,236,118181,1,8,0:3:0:0:
380,236,118331,2,0,L|416:236,2,35,0|0|8,0:0|0:0|0:3,0:0:0:0:
296,236,118631,1,0,0:0:0:0:
456,236,118781,6,0,P|504:200|452:168,1,140,4|0,0:0|0:0,0:0:0:0:
368,168,119231,1,0,0:0:0:0:
208,168,119381,2,0,L|132:168,1,70,8|0,0:3|0:0,0:0:0:0:
104,168,119606,1,0,0:0:0:0:
138,168,119681,1,0,0:0:0:0:
220,168,119831,1,0,0:0:0:0:
380,268,119981,6,0,L|264:268,1,105,4|0,0:3|0:0,0:0:0:0:
148,340,120431,2,0,L|252:340,1,105
40,268,120881,2,0,L|112:268,1,70,2|2,0:2|0:2,0:0:0:0:
328,272,121181,6,0,L|416:272,1,70,4|0,0:2|0:0,0:0:0:0:
300,192,121481,2,0,L|224:192,1,70,0|0,0:0|0:0,0:0:0:0:
132,192,121781,2,0,L|88:136,1,70,8|0,0:3|0:0,0:0:0:0:
188,136,122081,2,0,L|232:80,1,70,4|0,0:3|0:0,0:0:0:0:
448,80,122381,6,0,L|464:164,1,70,2|0,0:2|0:0,0:0:0:0:
364,152,122681,2,0,L|288:152,1,70,0|0,0:0|0:0,0:0:0:0:
196,192,122981,2,0,L|240:248,1,70,4|0,0:3|0:0,0:0:0:0:
340,248,123281,2,0,L|296:304,1,70,4|0,0:3|0:0,0:0:0:0:
80,300,123581,5,4,0:2:0:0:
58,289,123656,1,0,0:0:0:0:
42,270,123731,1,0,0:0:0:0:
35,246,123806,1,0,0:0:0:0:
40,222,123881,1,0,0:0:0:0:
54,202,123956,1,0,0:0:0:0:
75,189,124031,1,8,0:3:0:0:
100,187,124106,1,0,0:0:0:0:
168,188,124181,5,4,0:2:0:0:
213,176,124256,1,0,0:0:0:0:
244,142,124331,1,0,0:0:0:0:
252,96,124406,1,0,0:0:0:0:
184,92,124481,5,4,0:3:0:0:
157,70,124556,1,0,0:0:0:0:
129,48,124631,1,0,0:0:0:0:
162,48,124706,1,0,0:0:0:0:
204,48,124781,6,0,L|280:48,2,70,4|0|0,0:2|0:0|0:0,0:0:0:0:
129,48,125231,1,0,0:0:0:0:
40,48,125381,1,2,0:3:0:0:
180,48,125531,1,8,0:3:0:0:
40,48,125681,1,8,0:3:0:0:
416,48,125981,5,4,0:1:0:0:
256,192,126131,12,0,128381,0:0:0:0:
