osu file format v14

[General]
AudioFilename: audio.mp3
AudioLeadIn: 0
PreviewTime: 82706
Countdown: 0
SampleSet: Soft
StackLeniency: 0.7
Mode: 2
LetterboxInBreaks: 0
WidescreenStoryboard: 0

[Editor]
DistanceSpacing: 1.1
BeatDivisor: 2
GridSize: 4
TimelineZoom: 1

[Metadata]
Title:Nadeshiko Sensation
TitleUnicode:Nadeshiko Sensation
Artist:yuki.
ArtistUnicode:yuki.
Creator:JBHyperion
Version:Cup
Source:
Tags:白雪 J-Core UK Hardcore White Records community beatmapping contest featured artist
BeatmapID:1466620
BeatmapSetID:693123

[Difficulty]
HPDrainRate:3
CircleSize:2.5
OverallDifficulty:6
ApproachRate:6
SliderMultiplier:1
SliderTickRate:1

[Events]
//Background and Video events
0,0,"cherry-blossom-tree-1470424985VFU.jpg",0,0
//Break Periods
2,68581,76631
//Storyboard Layer 0 (Background)
//Storyboard Layer 1 (Fail)
//Storyboard Layer 2 (Pass)
//Storyboard Layer 3 (Foreground)
//Storyboard Sound Samples

[TimingPoints]
1181,300,4,2,0,60,1,0
5981,-100,4,3,0,80,0,0
8381,-100,4,3,0,40,0,0
8681,-100,4,3,0,45,0,0
8981,-100,4,3,0,50,0,0
9281,-100,4,3,0,55,0,0
9581,-100,4,3,0,35,0,0
10781,-100,4,3,0,80,0,0
29981,-100,4,3,0,60,0,0
39581,-100,4,1,0,70,0,0
44381,-100,4,1,0,35,0,0
44981,-100,4,1,0,40,0,0
45581,-100,4,1,0,45,0,0
46181,-100,4,1,0,50,0,0
46781,-100,4,1,0,55,0,0
47381,-100,4,1,0,60,0,0
47981,-100,4,1,0,65,0,0
49181,-100,4,2,0,60,0,0
58781,-100,4,3,0,60,0,0
59081,-100,4,3,0,70,0,0
61181,-100,4,3,0,60,0,0
61481,-100,4,3,0,70,0,0
63581,-100,4,3,0,80,0,0
65981,-100,4,3,0,40,0,0
66281,-100,4,3,0,45,0,0
66581,-100,4,3,0,50,0,0
66881,-100,4,3,0,55,0,0
67181,-100,4,3,0,35,0,0
68381,-100,4,2,0,50,0,0
77681,-100,4,2,0,70,0,0
77981,-100,4,1,0,50,0,0
82781,-100,4,1,0,70,0,0
85181,-100,4,1,0,40,0,0
85481,-100,4,1,0,45,0,0
85781,-100,4,1,0,50,0,0
86081,-100,4,1,0,55,0,0
86381,-100,4,1,0,35,0,0
87281,-100,4,3,0,50,0,0
87581,-100,4,3,0,90,0,1
106706,-100,4,3,0,90,0,0
106781,-100,4,3,0,90,0,1
116381,-100,4,1,0,70,0,1
121181,-100,4,1,0,80,0,1
124781,-100,4,3,0,90,0,1
125981,-100,4,2,0,100,0,0
126281,-100,4,2,0,40,0,0
126581,-100,4,2,0,35,0,0
126881,-100,4,2,0,30,0,0
127181,-100,4,2,0,25,0,0
127481,-100,4,2,0,20,0,0
127781,-100,4,2,0,15,0,0
128081,-100,4,2,0,10,0,0
128381,-100,4,2,0,5,0,0

[Colours]
Combo1 : 180,120,120
Combo2 : 240,160,180
Combo3 : 255,65,160
Combo4 : 255,160,65

[HitObjects]
100,192,881,5,2,0:3:0:0:
220,192,1181,6,0,P|316:168|356:76,1,200,4|0,0:2|0:0,0:0:0:0:
256,84,2081,1,8,0:3:0:0:
356,82,2381,2,0,L|424:186,2,100,2|0|0,0:0|0:0|0:0,0:0:0:0:
176,84,3581,5,2,0:0:0:0:
356,172,4181,2,0,L|232:172,1,100,2|0,0:3|0:0,0:0:0:0:
136,192,4781,2,0,L|256:228,2,100,2|0|0,0:0|0:0|0:0,0:0:0:0:
236,192,5681,1,8,0:3:0:0:
356,192,5981,6,0,P|412:132|336:64,1,200,4|4,0:2|0:0,0:0:0:0:
244,68,6881,1,2,0:2:0:0:
124,68,7181,2,0,P|152:148|256:188,1,200,2|0,0:0|0:0,0:0:0:0:
352,188,8081,1,2,0:2:0:0:
256,192,8381,12,8,10481,0:0:0:0:
168,192,10781,6,0,P|256:168|300:72,1,200,4|2,0:2|0:0,0:0:0:0:
200,76,11681,1,0,0:0:0:0:
100,76,11981,2,0,L|20:152,2,100,8|0|2,0:0|0:0|0:0,0:0:0:0:
280,76,13181,6,0,L|344:160,1,100,4|0,0:0|0:0,0:0:0:0:
240,160,13781,2,0,L|144:192,1,100,2|0,0:0|0:0,0:0:0:0:
264,192,14381,1,8,0:0:0:0:
144,192,14681,1,8,0:0:0:0:
288,192,14981,1,2,0:0:0:0:
488,192,15581,6,0,P|416:164|392:92,2,150,6|2|2,0:0|0:2|0:2,0:0:0:0:
388,192,16781,2,0,L|292:248,2,100,8|0|2,0:0|0:0|0:0,0:0:0:0:
276,192,17681,1,0,0:0:0:0:
176,192,17981,6,0,P|96:144|124:56,1,200,8|2,0:0|0:0,0:0:0:0:
228,48,18881,1,0,0:0:0:0:
348,48,19181,1,4,0:0:0:0:
468,48,19481,1,4,0:0:0:0:
368,48,19781,1,2,0:0:0:0:
268,48,20081,1,8,0:0:0:0:
388,140,20381,6,0,P|352:232|264:272,1,200,4|2,0:2|0:0,0:0:0:0:
164,272,21281,1,0,0:0:0:0:
264,271,21581,2,0,L|324:192,2,100,8|0|2,0:0|0:0|0:0,0:0:0:0:
104,192,22781,6,0,L|176:112,1,100,4|0,0:0|0:0,0:0:0:0:
292,120,23381,2,0,L|184:80,1,100,2|0,0:0|0:0,0:0:0:0:
100,84,23981,1,8,0:0:0:0:
220,84,24281,1,8,0:0:0:0:
80,84,24581,1,2,0:0:0:0:
280,84,25181,6,0,P|360:124|376:192,2,150,4|2|2,0:2|0:2|0:2,0:0:0:0:
160,84,26381,2,0,L|60:136,2,100,8|0|2,0:0|0:0|0:0,0:0:0:0:
260,84,27281,1,0,0:0:0:0:
380,84,27581,6,0,L|388:192,1,100,4|0,0:2|0:0,0:0:0:0:
268,192,28181,2,0,L|260:296,1,100,4|0,0:0|0:0,0:0:0:0:
360,292,28781,2,0,L|444:232,2,100,4|8|4,0:2|0:0|0:0,0:0:0:0:
252,292,29681,1,8,0:0:0:0:
132,292,29981,6,0,P|76:232|152:168,1,200,4|8,0:2|0:0,0:0:0:0:
248,168,30881,1,0,0:0:0:0:
128,168,31181,2,0,P|144:96|260:48,1,200,2|8,0:0|0:0,0:0:0:0:
352,48,32081,1,0,0:0:0:0:
232,48,32381,6,0,P|252:116|368:160,1,200,4|8,0:0|0:0,0:0:0:0:
264,168,33281,1,0,0:0:0:0:
164,168,33581,2,0,L|96:256,1,100,8|0,0:0|0:0,0:0:0:0:
224,248,34181,2,0,L|328:248,1,100,8|8,0:0|0:0,0:0:0:0:
204,248,34781,6,0,P|136:232|80:116,1,200,4|8,0:0|0:0,0:0:0:0:
180,124,35681,1,0,0:0:0:0:
300,124,35981,2,0,P|352:148|304:256,1,200,2|8,0:0|0:0,0:0:0:0:
208,256,36881,1,0,0:0:0:0:
328,256,37181,6,0,P|400:240|448:124,1,200,4|8,0:0|0:0,0:0:0:0:
348,132,38081,1,0,0:0:0:0:
248,132,38381,1,4,0:0:0:0:
348,132,38681,1,8,0:0:0:0:
228,132,38981,1,8,0:0:0:0:
348,132,39281,1,8,0:0:0:0:
208,132,39581,6,0,L|120:72,2,100,4|0|8,0:2|0:0|0:3,0:0:0:0:
368,132,40781,2,0,P|444:164|348:292,1,300,4|0,0:3|0:0,0:0:0:0:
228,296,41981,5,8,0:3:0:0:
24,192,42581,1,8,0:3:0:0:
228,192,43181,1,4,0:3:0:0:
348,192,43481,2,0,L|440:152,2,100,0|2|0,0:0|0:3|0:0,0:0:0:0:
256,192,44381,12,0,47981,0:0:0:0:
212,268,49181,6,0,P|172:236|164:176,1,100,4|0,0:0|0:0,0:0:0:0:
264,188,49781,1,4,0:3:0:0:
84,192,50681,1,0,0:0:0:0:
184,192,50981,1,4,0:3:0:0:
342,190,51581,6,0,L|254:138,1,100,2|0,0:3|0:0,0:0:0:0:
156,140,52181,2,0,L|280:140,1,100,4|0,0:3|0:0,0:0:0:0:
356,232,52781,1,8,0:3:0:0:
256,232,53081,1,0,0:0:0:0:
156,232,53381,2,0,L|264:232,1,100,4|0,0:3|0:0,0:0:0:0:
136,232,53981,6,0,P|96:264|88:324,1,100,2|0,0:3|0:0,0:0:0:0:
184,308,54581,1,4,0:3:0:0:
4,308,55481,1,0,0:0:0:0:
104,308,55781,1,4,0:3:0:0:
264,284,56381,6,0,L|176:336,1,100,2|0,0:3|0:0,0:0:0:0:
280,336,56981,2,0,L|404:336,1,100,4|0,0:3|0:0,0:0:0:0:
280,244,57581,1,8,0:3:0:0:
380,244,57881,1,0,0:0:0:0:
264,148,58181,2,0,L|156:148,1,100,4|0,0:3|0:0,0:0:0:0:
284,148,58781,6,0,L|292:40,1,100,4|8,0:2|0:0,0:0:0:0:
192,48,59381,2,0,L|84:48,1,100,0|8,0:0|0:0,0:0:0:0:
192,148,59981,1,0,0:0:0:0:
292,148,60281,1,4,0:0:0:0:
192,148,60581,2,0,L|104:200,1,100,0|8,0:0|0:0,0:0:0:0:
228,200,61181,6,0,L|328:228,1,100,2|8,0:0|0:0,0:0:0:0:
424,228,61781,1,0,0:0:0:0:
324,226,62081,1,8,0:0:0:0:
444,120,62381,1,0,0:0:0:0:
336,120,62681,1,4,0:0:0:0:
224,120,62981,2,0,L|324:120,1,100,0|8,0:0|0:0,0:0:0:0:
444,120,63581,6,0,L|452:240,1,100,2|8,0:2|0:0,0:0:0:0:
332,220,64181,2,0,L|324:328,1,100,0|8,0:0|0:0,0:0:0:0:
444,320,64781,2,0,L|340:320,1,100,4|8,0:2|0:0,0:0:0:0:
224,240,65381,2,0,L|324:240,1,100,0|8,0:0|0:0,0:0:0:0:
256,192,65981,12,4,68381,0:0:0:0:
360,280,77681,5,8,0:0:0:0:
240,280,77981,6,0,P|180:208|240:136,1,200,4|0,0:2|0:0,0:0:0:0:
336,136,78881,1,4,0:3:0:0:
236,136,79181,2,0,B|136:136|136:136|108:240,1,200,4|2,0:3|0:2,0:0:0:0:
212,232,80081,1,0,0:0:0:0:
312,232,80381,6,0,L|320:128,1,100,4|0,0:3|0:0,0:0:0:0:
220,132,80981,2,0,L|120:96,1,100,8|0,0:3|0:0,0:0:0:0:
224,44,81581,2,0,P|292:80|284:192,1,200,4|0,0:3|0:3,0:0:0:0:
184,192,82481,1,8,0:3:0:0:
304,192,82781,6,0,L|400:252,1,100,4|0,0:2|0:0,0:0:0:0:
288,244,83381,2,0,L|176:244,1,100,8|4,0:3|0:3,0:0:0:0:
308,336,83981,1,4,0:2:0:0:
208,336,84281,1,0,0:0:0:0:
308,336,84581,1,4,0:3:0:0:
408,336,84881,1,4,0:3:0:0:
256,192,85181,12,8,87281,0:0:0:0:
272,192,87581,6,0,L|156:168,2,100,4|0|2,0:2|0:0|0:0,0:0:0:0:
372,192,88481,1,0,0:0:0:0:
322,192,88631,1,0,0:0:0:0:
272,192,88781,2,0,L|184:256,1,100,8|0,0:0|0:0,0:0:0:0:
292,248,89381,1,2,0:0:0:0:
372,192,89681,1,0,0:0:0:0:
272,192,89981,6,0,L|256:88,1,100,4|0,0:0|0:0,0:0:0:0:
376,92,90581,2,0,L|472:40,1,100,2|0,0:0|0:0,0:0:0:0:
364,44,91181,1,8,0:0:0:0:
264,44,91481,1,8,0:0:0:0:
364,44,91781,1,2,0:0:0:0:
244,44,92081,1,2,0:2:0:0:
192,44,92231,1,2,0:2:0:0:
144,44,92381,6,0,L|40:44,1,100,4|0,0:0|0:0,0:0:0:0:
164,140,92981,2,0,L|168:240,1,100,2|0,0:0|0:0,0:0:0:0:
308,192,93581,1,8,0:0:0:0:
208,192,93881,1,0,0:0:0:0:
108,192,94181,1,2,0:0:0:0:
208,192,94481,1,0,0:0:0:0:
328,192,94781,6,0,L|344:296,1,100,4|0,0:0|0:0,0:0:0:0:
224,292,95381,2,0,L|128:344,1,100,2|0,0:0|0:0,0:0:0:0:
236,340,95981,1,8,0:0:0:0:
336,340,96281,1,0,0:0:0:0:
216,340,96581,2,0,L|184:284,2,50,2|8|8,0:0|0:0|0:0,0:0:0:0:
336,340,97181,6,0,L|440:304,2,100,4|0|2,0:2|0:0|0:0,0:0:0:0:
236,248,98081,1,0,0:0:0:0:
186,248,98231,1,0,0:0:0:0:
136,248,98381,2,0,L|48:184,1,100,8|0,0:0|0:0,0:0:0:0:
156,192,98981,1,2,0:0:0:0:
236,248,99281,1,0,0:0:0:0:
136,248,99581,6,0,L|236:248,1,100,4|0,0:0|0:0,0:0:0:0:
368,328,100181,2,0,L|268:328,1,100,2|0,0:0|0:0,0:0:0:0:
148,248,100781,1,8,0:0:0:0:
248,248,101081,1,0,0:0:0:0:
116,248,101381,1,2,0:0:0:0:
216,248,101681,1,2,0:2:0:0:
264,248,101831,1,2,0:2:0:0:
312,248,101981,6,0,L|420:248,1,100,4|4,0:2|0:0,0:0:0:0:
300,192,102581,2,0,L|256:92,1,100,0|4,0:0|0:0,0:0:0:0:
392,100,103181,2,0,L|496:100,1,100,4|8,0:2|0:0,0:0:0:0:
392,192,103781,2,0,L|488:248,1,100,0|8,0:0|0:0,0:0:0:0:
348,296,104381,6,0,L|340:188,1,100,4|4,0:2|0:0,0:0:0:0:
216,196,104981,2,0,L|208:92,1,100,4|8,0:2|0:0,0:0:0:0:
88,96,105581,2,0,L|4:156,2,100,4|4|2,0:2|0:0|0:0,0:0:0:0:
136,96,106331,1,8,0:0:0:0:
184,96,106481,1,8,0:0:0:0:
324,96,106781,5,4,0:2:0:0:
240,96,107006,1,0,0:0:0:0:
156,96,107231,1,8,0:0:0:0:
276,192,107681,1,2,0:0:0:0:
326,192,107831,1,0,0:0:0:0:
376,192,107981,2,0,L|440:144,2,75,4|0|8,0:0|0:0|0:0,0:0:0:0:
224,284,108881,1,2,0:0:0:0:
324,280,109181,6,0,L|340:180,1,100,4|0,0:0|0:0,0:0:0:0:
220,180,109781,2,0,L|116:148,1,100,2|0,0:0|0:0,0:0:0:0:
224,80,110381,1,8,0:0:0:0:
124,80,110681,1,0,0:0:0:0:
24,80,110981,1,2,0:0:0:0:
144,176,111281,1,2,0:2:0:0:
196,176,111431,1,2,0:2:0:0:
256,176,111581,6,0,L|316:224,2,75,4|0|8,0:0|0:0|0:0,0:0:0:0:
120,176,112481,1,2,0:0:0:0:
240,176,112781,2,0,L|252:76,1,100,4|0,0:0|0:0,0:0:0:0:
132,176,113381,2,0,L|120:76,1,100,2|0,0:0|0:0,0:0:0:0:
260,76,113981,6,0,L|372:40,1,100,4|0,0:0|0:0,0:0:0:0:
476,104,114581,2,0,L|380:134,1,100,8|0,0:0|0:0,0:0:0:0:
280,136,115181,1,4,0:0:0:0:
180,136,115481,1,0,0:0:0:0:
300,136,115781,2,0,L|332:192,2,50,2|8|8,0:0|0:0|0:0,0:0:0:0:
180,136,116381,6,0,L|76:136,1,100,4|0,0:2|0:0,0:0:0:0:
200,40,116981,1,8,0:3:0:0:
320,40,117281,1,0,0:0:0:0:
200,136,117581,2,0,L|188:248,1,100,4|0,0:3|0:0,0:0:0:0:
290,235,118181,2,0,L|394:235,1,100,8|8,0:3|0:3,0:0:0:0:
280,324,118781,6,0,L|228:236,1,100,4|0,0:0|0:0,0:0:0:0:
108,240,119381,2,0,L|196:192,1,100,8|0,0:3|0:0,0:0:0:0:
308,192,119981,1,4,0:3:0:0:
208,192,120281,1,0,0:0:0:0:
308,192,120581,1,8,0:3:0:0:
428,192,120881,1,2,0:2:0:0:
380,192,121031,1,2,0:2:0:0:
332,192,121181,6,0,L|228:192,1,100,4|0,0:2|0:0,0:0:0:0:
352,104,121781,2,0,L|380:8,1,100,8|4,0:3|0:3,0:0:0:0:
260,8,122381,2,0,L|156:8,1,100,2|0,0:2|0:0,0:0:0:0:
60,96,122981,2,0,L|88:192,1,100,4|4,0:3|0:3,0:0:0:0:
208,192,123581,5,4,0:2:0:0:
308,192,123881,1,0,0:0:0:0:
188,192,124181,1,4,0:2:0:0:
288,192,124481,1,0,0:0:0:0:
408,192,124781,2,0,L|492:136,2,100,4|4|2,0:2|0:0|0:3,0:0:0:0:
356,192,125531,1,8,0:3:0:0:
308,192,125681,1,8,0:3:0:0:
168,192,125981,5,4,0:1:0:0:
256,192,126281,12,0,128381,0:0:0:0:
