osu file format v14

[General]
AudioFilename: audio.mp3
AudioLeadIn: 0
PreviewTime: 10711
Countdown: 0
SampleSet: Soft
StackLeniency: 0.7
Mode: 0
LetterboxInBreaks: 0
WidescreenStoryboard: 1

[Editor]
Bookmarks: 1186,29986,39586,68386,77686,128386
DistanceSpacing: 1.3
BeatDivisor: 4
GridSize: 4
TimelineZoom: 1

[Metadata]
Title:Nadeshiko Sensation
TitleUnicode:Nadeshiko Sensation
Artist:yuki.
ArtistUnicode:yuki.
Creator:Gero
Version:Easy
Source:osu!
Tags:FA Featured Artist Mappers Mappers' Guild MPG High Tempo Beatmap Pack Gremio Lukas [_L_u_k_a_s_] M2Usonek Minorsonek Japanese J-Core UK Hardcore Instrumental Electronic
BeatmapID:2100418
BeatmapSetID:1003554

[Difficulty]
HPDrainRate:3
CircleSize:3
OverallDifficulty:3
ApproachRate:4
SliderMultiplier:0.799999999999999
SliderTickRate:1

[Events]
//Background and Video events
0,0,"Nadeshiko Sensation B.jpg",0,0
//Break Periods
2,30185,38146
2,68586,76246
//Storyboard Layer 0 (Background)
//Storyboard Layer 1 (Fail)
//Storyboard Layer 2 (Pass)
//Storyboard Layer 3 (Foreground)
//Storyboard Layer 4 (Overlay)
//Storyboard Sound Samples

[TimingPoints]
1186,300,4,2,1,50,1,0
1186,-100,4,2,1,50,0,0
5986,-100,4,2,1,60,0,0
9586,-100,4,2,1,30,0,0
10786,-100,4,2,1,80,0,1
20311,-100,4,2,1,80,0,0
20386,-100,4,2,1,80,0,1
29986,-100,4,2,1,65,0,0
49186,-100,4,2,1,50,0,0
58786,-100,4,2,1,55,0,0
86386,-100,4,2,1,30,0,0
87586,-100,4,2,1,80,0,1
97111,-100,4,2,1,80,0,0
97186,-100,4,2,1,80,0,1
106711,-100,4,2,1,80,0,0
106786,-100,4,2,1,80,0,1
116311,-100,4,2,1,80,0,0
116386,-100,4,2,1,80,0,1
125986,-100,4,2,1,70,0,0
126061,-100,4,2,1,5,0,0

[Colours]
Combo1 : 214,101,191
Combo2 : 168,34,131

[HitObjects]
352,80,1186,6,0,B|316:32|316:32|196:32|196:32|160:80,1,240,4|10,0:0|3:0,0:0:0:0:
64,120,2386,2,0,B|56:168|8:192|-21:192|-21:192|8:192|56:216|64:264,1,240,2|0,0:0|0:0,0:0:0:0:
160,304,3586,6,0,B|196:352|196:352|316:352|316:352|352:304,1,240,2|0,0:0|0:0,0:0:0:0:
448,264,4786,2,0,B|456:216|504:192|533:192|533:192|504:192|456:168|448:120,1,240,2|10,0:0|3:0,0:0:0:0:
352,80,5986,5,4,1:0:0:0:
256,124,6286,1,0,1:0:0:0:
160,80,6586,1,0,1:0:0:0:
160,304,7186,1,4,1:0:0:0:
256,260,7486,1,0,1:0:0:0:
352,304,7786,1,0,1:0:0:0:
256,192,8386,12,4,9586,1:0:0:0:
352,304,10786,6,0,B|432:304|432:304|488:247,1,160,4|0,1:0|1:0,0:0:0:0:
400,192,11686,1,0,1:0:0:0:
488,136,11986,2,0,B|432:80|432:80|352:80,1,160,0|0,1:0|1:0,0:0:0:0:
160,80,13186,6,0,B|80:80|80:80|23:136,1,160,0|0,1:0|1:0,0:0:0:0:
112,192,14086,1,0,1:0:0:0:
23,247,14386,2,0,B|80:304|80:304|160:304,1,160,0|0,1:0|1:0,0:0:0:0:
352,304,15586,6,0,P|408:322|464:304,2,120,0|2|0,1:0|0:0|1:0,0:0:0:0:
408,220,16786,2,0,B|408:160|408:160|408:100|456:80,1,160,0|0,1:0|1:0,0:0:0:0:
382,6,17686,1,0,1:0:0:0:
308,80,17986,6,0,B|296:120|256:138|256:138|216:120|204:80,1,160,0|0,1:0|1:0,0:0:0:0:
130,6,18886,1,0,1:0:0:0:
56,80,19186,2,0,B|104:100|104:160|104:160|104:220,1,160,0|0,1:0|1:0,0:0:0:0:
177,293,20086,1,10,3:0:0:0:
256,364,20386,6,0,B|276:300|336:300|336:300|385:300,1,160,4|0,1:0|1:0,0:0:0:0:
448,384,21286,1,0,1:0:0:0:
511,300,21586,2,0,L|385:203,1,160,0|0,1:0|1:0,0:0:0:0:
256,20,22786,6,0,B|236:84|176:84|176:84|126:84,1,160,0|0,1:0|1:0,0:0:0:0:
64,0,23686,1,0,1:0:0:0:
1,84,23986,2,0,L|127:181,1,160,0|0,1:0|1:0,0:0:0:0:
256,364,25186,6,0,B|328:364|328:364|400:364|452:320|452:256|452:256|452:192|452:192|452:128|452:128|452:64|400:20|328:20|328:20|256:20,2,639.999999999999,4|4|4,1:2|1:2|1:0,0:0:0:0:
256,364,39586,5,12,1:2:0:0:
372,192,40186,1,8,1:2:0:0:
488,20,40786,1,8,1:2:0:0:
256,20,41386,1,8,1:2:0:0:
24,20,41986,5,8,1:2:0:0:
140,192,42586,1,8,1:2:0:0:
256,364,43186,1,8,1:2:0:0:
372,192,43786,1,8,1:2:0:0:
488,22,44386,6,0,B|408:-30|340:18|336:22|332:26|264:74|184:22,1,320,12|12,1:2|1:2,0:0:0:0:
24,362,46786,2,0,B|104:414|172:366|176:362|180:358|248:310|328:362,1,320,4|4,1:2|3:0,0:0:0:0:
487,21,49186,6,2,B|432:21|432:21|376:21|346:72,2,160,6|8|2,1:0|1:0|0:1,0:1:0:0:
368,192,50986,1,10,3:0:0:0:
487,363,51586,2,2,B|432:363|432:363|376:363|346:312,2,160,2|8|6,1:0|1:0|3:0,0:1:0:0:
256,363,53386,1,8,1:0:0:0:
25,363,53986,6,2,B|80:363|80:363|136:363|166:312,2,160,6|8|2,1:0|1:0|0:1,0:1:0:0:
144,192,55786,1,10,3:0:0:0:
25,21,56386,2,2,B|80:21|80:21|136:21|166:72,2,160,2|8|6,1:0|1:0|3:0,0:1:0:0:
256,21,58186,1,8,1:0:0:0:
487,21,58786,6,2,B|432:21|432:21|376:21|346:72,1,160,6|0,1:0|1:0,0:1:0:0:
435,125,59686,1,2,1:2:0:0:
346,178,59986,2,0,L|371:254,1,79.9999999999999,0|2,1:0|1:2,0:0:0:0:
266,253,60586,2,0,L|291:329,1,79.9999999999999,0|2,1:0|1:2,0:0:0:0:
186,328,61186,6,2,B|106:328|106:328|49:271,1,160,2|2,1:0|1:2,0:1:0:0:
116,192,62086,1,2,1:2:0:0:
49,112,62386,2,0,B|106:56|106:56|186:56,1,160,2|2,1:2|1:2,0:0:0:0:
256,132,63286,1,10,1:3:0:0:
326,56,63586,6,2,P|256:286|186:56,2,639.999999999999,6|2|4,1:0|1:0|1:0,0:1:0:0:
326,56,77686,5,8,0:0:0:0:
256,132,77986,6,0,B|209:132|209:132|201:136|201:136|201:128|201:128|193:132|193:132|146:132,2,120,6|8|2,1:2|0:0|0:0,0:0:0:0:
326,208,79186,2,0,B|373:208|373:208|381:212|381:212|381:204|381:204|389:208|389:208|436:208,2,120,2|2|2,0:0|0:0|0:0,0:0:0:0:
258,284,80386,6,0,B|223:296|203:339|203:339|183:296|148:284,1,160,2|8,0:0|0:0,0:0:0:0:
80,208,81286,1,2,0:0:0:0:
148,132,81586,2,0,B|170:76|170:76|148:20,2,120,2|2|2,0:0|0:0|0:0,0:0:0:0:
256,132,82786,6,0,B|256:252,2,120,4|0|0,1:2|1:0|1:0,0:0:0:0:
364,132,83986,2,0,B|356:92|384:56|420:56|420:56|444:56|444:56|480:56|508:92|500:132,1,240,4|0,1:2|1:0,0:0:0:0:
432,212,85186,2,0,B|424:216|424:216|416:212|416:212|408:216|408:216|400:212|400:212|392:216|392:216|384:212|384:212|376:216|376:216|368:212|368:212|360:216|360:216|352:212|352:212|344:216|344:216|336:212|336:212|328:216|328:216|320:212|320:212|312:216|312:216|304:212|304:212|296:216|296:216|288:212|288:212|280:216|280:216|272:212|272:212|264:216|264:216|256:212|256:212|248:216|248:216|240:212|240:212|232:216|232:216|224:212|224:212|216:216,1,240,4|0,1:2|1:0,0:0:0:0:
143,288,86386,5,4,1:0:0:0:
143,288,87286,1,10,3:0:0:0:
68,215,87586,6,0,L|1:70,1,160,6|2,1:0|1:0,0:0:0:0:
96,24,88486,1,2,1:2:0:0:
191,71,88786,2,0,P|256:32|321:71,1,160,2|2,1:0|1:0,0:0:0:0:
416,24,89686,1,2,1:2:0:0:
510,70,89986,6,0,L|443:215,1,160,2|2,1:0|1:0,0:0:0:0:
369,288,90886,1,2,1:2:0:0:
295,215,91186,2,0,B|256:170|256:170|217:215,2,120,2|2|2,1:0|0:1|1:0,0:0:0:0:
369,142,92386,6,0,B|369:62|369:62|312:4,1,160,2|2,1:0|1:0,0:0:0:0:
256,92,93286,1,2,1:2:0:0:
199,4,93586,2,0,B|152:4|152:4|92:4|69:67,1,160,2|2,1:0|1:0,0:0:0:0:
69,168,94486,1,2,1:2:0:0:
69,268,94786,6,0,B|101:284|101:284|149:284|149:284|181:268,2,120,2|2|2,1:0|0:1|1:2,0:0:0:0:
69,168,95986,1,2,1:0:0:0:
256,80,96586,1,2,1:0:0:0:
350,124,96886,1,10,3:0:0:0:
444,169,97186,6,0,L|511:314,1,160,6|2,1:0|1:0,0:0:0:0:
416,360,98086,1,2,1:2:0:0:
321,313,98386,2,0,P|256:352|191:313,1,160,2|2,1:0|1:0,0:0:0:0:
96,360,99286,1,2,1:2:0:0:
2,314,99586,6,0,L|69:169,1,160,2|2,1:0|1:0,0:0:0:0:
143,96,100486,1,2,1:2:0:0:
217,169,100786,2,0,B|256:214|256:214|295:169,2,120,2|2|2,1:0|0:1|1:0,0:0:0:0:
143,242,101986,6,0,B|143:322|143:322|200:380,1,160,2|2,1:0|1:0,0:0:0:0:
256,292,102886,1,2,1:2:0:0:
313,380,103186,2,0,B|360:380|360:380|420:380|443:317,1,160,6|2,1:0|1:0,0:0:0:0:
443,216,104086,1,2,1:2:0:0:
443,116,104386,6,0,B|396:116|368:60|368:60|307:60,1,160,6|6,1:0|1:0,0:0:0:0:
256,152,105286,1,2,1:0:0:0:
204,60,105586,2,0,L|204:20,2,40,6|6|6,1:0|1:0|1:0,0:0:0:0:
153,152,106186,2,0,L|152:191,2,40,6|10|10,1:0|3:0|3:0,0:0:0:0:
102,60,106786,6,0,P|54:30|6:60,2,120,6|2|2,1:0|0:1|1:2,0:0:0:0:
204,60,107986,2,0,P|252:30|300:60,2,120,2|2|2,1:0|0:1|1:2,0:0:0:0:
153,152,109186,6,0,B|129:188|145:228|153:228|161:228|177:268|153:304,1,160,2|2,1:0|1:0,0:0:0:0:
256,303,110086,1,2,1:2:0:0:
359,304,110386,2,0,B|391:304|411:329|411:329|431:304|463:304,2,120,2|2|2,1:0|0:1|1:0,0:0:0:0:
411,214,111586,6,0,L|463:106,2,120,2|2|2,1:0|0:1|1:2,0:0:0:0:
360,304,112786,2,0,L|302:154,1,160,2|2,1:0|1:0,0:0:0:0:
256,60,113686,1,2,1:2:0:0:
209,154,113986,6,0,P|137:124|65:154,1,160,2|2,1:0|1:0,0:0:0:0:
18,248,114886,1,2,1:2:0:0:
65,342,115186,1,2,1:0:0:0:
256,264,115786,1,2,1:0:0:0:
447,342,116386,6,0,B|512:268|512:148|472:40|316:24|252:80|232:96|232:96|184:144|184:220|256:260|328:220|328:144|280:96|280:96|260:80|196:24|40:40|0:148|0:268|65:342,2,1280,12|4|4,1:2|1:2|1:0,0:0:0:0:
256,192,126136,12,0,128386,0:0:0:0:
