osu file format v14

[General]
AudioFilename: audio.mp3
AudioLeadIn: 0
PreviewTime: 87571
Countdown: 0
SampleSet: None
StackLeniency: 0.2
Mode: 0
LetterboxInBreaks: 0
WidescreenStoryboard: 1

[Editor]
DistanceSpacing: 1
BeatDivisor: 8
GridSize: 8
TimelineZoom: 2.4

[Metadata]
Title:Nadeshiko Sensation
TitleUnicode:Nadeshiko Sensation
Artist:yuki.
ArtistUnicode:yuki.
Creator:FaiVillager
Version:Blooming Beauty [CS 3]
Source:
Tags:
BeatmapID:1116376
BeatmapSetID:524263

[Difficulty]
HPDrainRate:3.2
CircleSize:3
OverallDifficulty:8.7
ApproachRate:9.6
SliderMultiplier:2.6
SliderTickRate:1

[Events]
//Background and Video events
0,0,"Nadeshiko Sensation B.jpg",0,0
//Break Periods
//Storyboard Layer 0 (Background)
//Storyboard Layer 1 (Fail)
//Storyboard Layer 2 (Pass)
//Storyboard Layer 3 (Foreground)
//Storyboard Sound Samples

[TimingPoints]
-29,300,4,2,1,50,1,0
871,-100,4,2,1,50,0,0
1171,-100,4,2,2,50,0,0
1246,-100,4,2,1,50,0,0
5971,-100,4,2,2,50,0,0
6046,-100,4,2,1,50,0,0
7171,-100,4,2,2,50,0,0
7246,-100,4,2,1,50,0,0
8371,-100,4,2,2,50,0,0
9571,-25,4,2,2,20,0,0
10171,-100,4,2,2,20,0,0
10471,-71.4285714285714,4,2,1,70,0,0
10771,-80,4,2,1,70,0,1
19171,-55.5555555555556,4,2,1,70,0,0
20371,-80,4,2,1,70,0,1
22171,-56.4971751412429,4,2,1,70,0,1
22396,-80,4,2,1,70,0,1
26371,-25,4,2,1,70,0,1
27271,-33.333333,4,2,1,70,0,1
27571,-80,4,2,1,70,0,1
28171,-16.666666,4,2,1,70,0,1
28771,-66.6666666666667,4,2,2,70,0,1
29371,-80,4,2,1,70,0,0
29971,-100,4,2,1,50,0,0
32371,-83.3333333333333,4,2,1,50,0,0
38821,-66.6666666666667,4,2,1,50,0,0
39271,-50,4,2,1,70,0,0
39571,-100,4,2,1,50,0,0
44371,-100,4,2,1,60,0,0
44521,-200,4,2,1,60,0,0
44671,-100,4,2,1,60,0,0
48421,-80,4,2,1,60,0,0
48871,-50,4,2,1,70,0,0
49171,-125,4,2,10,40,0,0
51571,-200,4,2,2,40,0,0
53821,-200,4,2,10,40,0,0
53971,-125,4,2,10,40,0,0
56371,-200,4,2,2,40,0,0
58621,-200,4,2,10,40,0,0
58771,-100,4,2,1,60,0,0
61171,-100,4,2,1,20,0,0
61471,-100,4,2,1,60,0,0
63871,-33.3333333333333,4,2,1,70,0,0
64021,-66.6666666666667,4,2,1,60,0,0
64171,-100,4,2,1,60,0,0
64471,-33.3333333333333,4,2,1,70,0,0
64621,-66.6666666666667,4,2,1,70,0,0
64771,-66.6666666666667,4,2,1,70,0,0
64846,-66.6666666666667,4,2,10,70,0,0
65371,-66.6666666666667,4,2,1,70,0,0
65446,-66.6666666666667,4,2,10,70,0,0
65971,-100,4,2,2,40,0,0
66046,-100,4,2,2,70,0,0
67271,-100,4,2,2,40,0,0
68071,-100,4,2,1,60,0,0
68371,-133.333333333333,4,2,1,60,0,0
68521,-133.333333333333,4,2,1,40,0,0
77971,-100,4,2,1,50,0,0
82771,-100,4,2,2,50,0,0
82846,-100,4,2,1,60,0,0
83971,-100,4,2,2,50,0,0
84046,-100,4,2,1,60,0,0
85171,-16.666666,4,2,1,60,0,0
85771,-13.333333,4,2,1,60,0,0
85921,150,4,2,1,50,1,0
85921,-20,4,2,1,60,0,0
86071,-16.666666,4,2,1,60,0,0
86221,-14.222222,4,2,1,60,0,0
86371,-10,4,2,10,60,0,0
86446,-100,4,2,1,60,0,0
87571,300,4,2,1,50,1,0
87571,-80,4,2,1,70,0,1
90871,-50,4,2,1,70,0,1
91171,-80,4,2,1,70,0,1
95671,-50,4,2,1,70,0,1
95971,-80,4,2,1,70,0,0
97171,-80,4,2,1,70,0,1
100471,-50,4,2,1,70,0,1
100771,-80,4,2,1,70,0,1
103171,-25,4,2,1,70,0,1
104071,-33.333333,4,2,1,70,0,1
104371,-80,4,2,1,70,0,1
104971,-16.666666,4,2,1,70,0,1
105571,-66.6666666666667,4,2,1,70,0,0
105721,-66.6666666666667,4,2,2,70,0,0
106171,-80,4,2,1,70,0,0
106771,-80,4,2,1,70,0,1
110071,-50,4,2,1,70,0,1
110371,-80,4,2,1,70,0,1
114871,-50,4,2,1,70,0,1
115171,-80,4,2,1,70,0,0
116371,-80,4,2,1,70,0,1
119671,-50,4,2,1,70,0,1
119971,-80,4,2,1,70,0,1
124771,-80,4,2,1,70,0,0
126421,-80,4,2,1,60,0,0
126721,-80,4,2,1,50,0,0
127021,-80,4,2,1,40,0,0
127321,-80,4,2,1,30,0,0
127621,-80,4,2,1,20,0,0
127921,-80,4,2,10,20,0,0

[Colours]
Combo1 : 234,28,74
Combo2 : 247,77,255
Combo3 : 253,62,143

[HitObjects]
184,66,871,6,0,L|155:161,1,65
119,272,1021,2,0,L|106:313,3,32.5
186,217,1171,2,0,P|205:280|173:340,1,130,8|8,0:0|0:0,0:0:0:0:
117,121,1471,2,0,P|98:58|130:-2,1,130,2|0,0:0|0:0,0:0:0:0:
442,34,1771,1,8,0:0:0:0:
184,66,1921,1,10,0:0:0:0:
271,23,1996,1,0,0:0:0:0:
271,120,2071,2,0,B|325:161|325:161|401:155,1,130
442,34,2371,5,10,0:0:0:0:
334,263,2521,2,0,B|324:233|324:233|332:199,1,65
418,300,2671,2,0,P|365:351|274:332,1,130,0|10,0:0|0:0,0:0:0:0:
461,147,2971,1,10,0:0:0:0:
461,147,3271,5,0,0:0:0:0:
199,15,3421,1,0,0:0:0:0:
335,195,3571,2,0,P|322:266|243:303,1,130,8|0,0:0|0:0,0:0:0:0:
263,129,3796,1,0,0:0:0:0:
355,97,3871,2,0,P|426:104|465:167,1,130,2|8,0:0|0:0,0:0:0:0:
93,256,4171,1,0,0:0:0:0:
276,32,4321,1,10,0:0:0:0:
263,129,4396,1,0,0:0:0:0:
184,69,4471,2,0,B|116:69|116:69|47:116,1,130,10|0,0:0|0:0,0:0:0:0:
202,309,4771,6,0,P|238:290|289:288,1,65,8|0,0:0|0:0,0:0:0:0:
474,251,4921,2,0,P|443:238|396:237,1,65
134,245,5071,2,0,P|157:223|207:200,1,65,10|0,0:0|0:0,0:0:0:0:
512,178,5221,2,0,P|476:154|437:148,1,65,8|0,0:0|0:0,0:0:0:0:
188,92,5371,6,0,B|138:110|93:92|93:92|135:56|186:69,1,195,4|0,0:0|0:0,0:0:0:0:
273,78,5671,6,0,L|323:177,1,65
384,291,5821,2,0,L|401:322,3,32.5
443,227,5971,2,0,P|356:208|297:290,1,195,8|0,0:0|0:0,0:0:0:0:
333,363,6271,1,2,0:0:0:0:
469,132,6421,2,8,B|447:108|447:108|405:95,1,65
341,22,6571,2,0,B|275:29|275:29|210:86,1,130,2|0,0:0|0:0,0:0:0:0:
76,106,6871,2,0,B|65:171|65:171|103:249,1,130
311,355,7171,6,0,P|317:314|307:289,1,65,8|0,0:0|0:0,0:0:0:0:
175,157,7321,1,0,0:0:0:0:
430,214,7471,1,2,0:0:0:0:
95,233,7621,2,0,P|130:263|166:271,1,65
270,85,7771,2,0,P|197:114|177:205,1,130,2|0,0:0|0:0,0:0:0:0:
423,323,8071,5,12,0:0:0:0:
379,73,8221,2,0,L|396:165,1,65
423,323,8371,5,8,0:0:0:0:
340,225,8521,1,8,0:0:0:0:
216,191,8671,1,0,0:0:0:0:
95,233,8821,1,0,0:0:0:0:
423,323,8971,5,8,0:0:0:0:
388,267,9046,1,2,0:0:0:0:
340,225,9121,1,8,0:0:0:0:
280,199,9196,1,2,0:0:0:0:
216,191,9271,1,0,0:0:0:0:
152,203,9346,1,0,0:0:0:0:
95,233,9421,1,2,0:0:0:0:
49,279,9496,1,0,0:0:0:0:
133,310,9571,6,0,B|225:343|300:299|300:299|233:243|137:271,1,346.666666666667,8|0,0:0|0:0,0:0:0:0:
136,271,9721,2,0,B|233:262|282:190|282:190|198:168|123:233,1,346.666666666667,8|0,0:0|0:0,0:0:0:0:
122,234,9871,2,0,B|206:184|220:98|220:98|134:114|94:205,1,346.666666666667,8|0,0:0|0:0,0:0:0:0:
94,206,10021,2,0,B|149:125|126:41|126:41|55:92|57:192,1,346.666666666667,8|0,0:0|0:0,0:0:0:0:
21,228,10171,6,0,P|102:256|66:335,1,195,8|0,0:0|0:0,0:0:0:0:
49,279,10471,6,0,B|129:291|179:241|179:241|219:253|251:247|251:247|271:223|316:212,1,272.999991668701,4|0,0:0|0:0,0:0:0:0:
397,264,10771,6,0,P|439:267|495:243,1,81.25,8|0,0:0|0:0,0:0:0:0:
266,20,10921,2,0,P|242:54|235:115,1,81.25
426,161,11071,2,0,P|444:131|449:72,1,81.25,2|0,0:0|0:0,0:0:0:0:
137,66,11221,2,0,P|135:113|168:166,1,81.25
312,338,11371,6,0,L|400:386,1,81.25
281,171,11521,1,10,0:0:0:0:
221,93,11596,1,0,0:0:0:0:
182,182,11671,1,2,0:0:0:0:
476,153,11821,2,0,P|497:126|512:72,1,81.25,8|0,0:0|0:0,0:0:0:0:
122,103,11971,6,0,B|57:217|57:217|111:200,1,162.5,8|2,0:0|0:0,0:0:0:0:
182,182,12196,1,8,0:0:0:0:
221,93,12271,2,0,P|189:29|81:12,1,162.5
42,343,12571,2,0,B|74:335|96:313|96:313|130:315|160:335|160:335|211:307|289:316,1,243.75,12|0,0:0|0:0,0:0:0:0:
355,380,12871,2,0,P|374:340|371:292,1,81.25,8|0,0:0|0:0,0:0:0:0:
221,93,13021,2,2,P|202:133|205:181,1,81.25
474,303,13171,5,8,0:0:0:0:
123,119,13321,1,0,0:0:0:0:
447,200,13471,5,2,0:0:0:0:
150,222,13621,1,8,0:0:0:0:
420,97,13771,5,0,0:0:0:0:
177,325,13921,1,2,0:0:0:0:
75,294,13996,2,0,L|130:241,1,40.625
150,222,14071,2,0,L|223:147,1,81.25,2|0,0:0|0:0,0:0:0:0:
420,97,14221,2,0,L|363:155,1,81.25,8|0,0:0|0:0,0:0:0:0:
300,336,14371,5,0,0:0:0:0:
296,76,14521,1,2,0:0:0:0:
300,336,14671,1,8,0:0:0:0:
168,37,14821,1,10,0:0:0:0:
300,336,14971,2,0,P|363:333|440:251,1,162.5,4|0,0:0|0:0,0:0:0:0:
468,177,15196,1,8,0:0:0:0:
375,149,15271,2,0,P|312:152|235:234,1,162.5
197,312,15571,5,12,0:0:0:0:
117,319,15646,1,0,0:0:0:0:
48,278,15721,1,0,0:0:0:0:
18,204,15796,1,0,0:0:0:0:
37,127,15871,1,0,0:0:0:0:
145,195,16021,6,2,B|185:200|185:200|230:188,1,81.25,10|2,0:0|0:0,0:0:0:0:
358,104,16171,2,0,L|288:272,1,162.5,0|2,0:0|0:0,0:0:0:0:
197,312,16396,1,0,0:0:0:0:
197,312,16471,2,0,P|140:323|110:317,1,81.25
107,76,16621,2,0,P|150:89|186:121,1,81.25,8|0,0:0|0:0,0:0:0:0:
24,356,16771,5,0,0:0:0:0:
295,254,16921,1,2,0:0:0:0:
32,190,17071,1,8,0:0:0:0:
344,327,17221,1,10,0:0:0:0:
161,115,17371,2,0,P|183:63|294:36,1,162.5
257,126,17596,1,8,0:0:0:0:
198,203,17671,2,0,L|61:90,1,162.5,0|2,0:0|0:0,0:0:0:0:
421,53,17971,5,8,0:0:0:0:
241,315,18121,1,2,0:0:0:0:
417,350,18271,5,0,0:0:0:0:
308,64,18421,1,0,0:0:0:0:
333,297,18571,5,8,0:0:0:0:
187,158,18721,1,10,0:0:0:0:
114,92,18796,1,0,0:0:0:0:
92,187,18871,1,2,0:0:0:0:
381,101,19021,1,0,0:0:0:0:
137,260,19171,6,0,P|92:291|9:290,1,116.999996429443,8|0,0:0|0:0,0:0:0:0:
0,230,19321,2,0,P|34:187|114:165,1,116.999996429443,8|0,0:0|0:0,0:0:0:0:
91,165,19471,6,0,P|47:131|22:52,1,116.999996429443,2|0,0:0|0:0,0:0:0:0:
77,25,19621,2,0,P|127:44|173:114,1,116.999996429443
166,92,19771,6,0,P|184:40|251:-7,1,116.999996429443,8|0,0:0|0:0,0:0:0:0:
294,35,19921,2,2,P|290:89|238:154,1,116.999996429443
257,140,20071,6,8,P|311:141|378:190,1,116.999996429443,8|0,0:0|0:0,0:0:0:0:
350,244,20221,2,0,P|297:257|219:228,1,116.999996429443,8|0,0:0|0:0,0:0:0:0:
177,180,20371,6,0,L|205:363,1,162.5,12|0,0:0|0:0,0:0:0:0:
481,329,20671,1,2,0:0:0:0:
413,66,20821,1,8,0:0:0:0:
413,66,20896,1,0,0:0:0:0:
413,66,20971,2,0,B|279:86|279:86|321:105,1,162.5,0|2,0:0|0:0,0:0:0:0:
388,147,21196,1,8,0:0:0:0:
302,193,21271,2,0,P|225:153|211:69,1,162.5,2|0,0:0|0:0,0:0:0:0:
480,285,21571,6,0,P|466:324|432:363,1,81.25,8|0,0:0|0:0,0:0:0:0:
144,262,21721,2,0,P|96:247|62:217,1,81.25,2|0,0:0|0:0,0:0:0:0:
390,279,21871,6,0,P|332:287|290:271,1,81.25
142,168,22021,2,0,P|115:130|107:89,1,81.25,10|0,0:0|0:0,0:0:0:0:
319,59,22171,6,0,B|341:36|430:36|430:36|356:88|323:78,1,230.100007460976,12|0,0:0|0:0,0:0:0:0:
240,108,22396,5,0,0:0:0:0:
240,108,22471,2,0,P|227:69|232:23,1,81.25
441,219,22621,2,2,P|426:249|379:283,1,81.25,10|2,0:0|0:0,0:0:0:0:
45,74,22771,5,8,0:0:0:0:
353,185,22921,1,8,0:0:0:0:
0,182,23071,5,2,0:0:0:0:
328,108,23221,2,0,L|422:86,1,81.25,8|0,0:0|0:0,0:0:0:0:
174,34,23371,5,0,0:0:0:0:
182,278,23521,1,10,0:0:0:0:
186,375,23596,2,0,L|235:346,1,40.625
268,323,23671,2,0,L|366:261,1,81.25,10|0,0:0|0:0,0:0:0:0:
428,49,23821,2,0,L|359:92,1,81.25
138,140,23971,5,8,0:0:0:0:
456,239,24121,1,2,0:0:0:0:
205,35,24271,5,8,0:0:0:0:
396,298,24421,1,10,0:0:0:0:
325,32,24571,6,0,B|333:63|308:90|308:90|314:117|329:139|329:139|326:228|247:275,1,243.75,4|0,0:0|0:0,0:0:0:0:
193,183,24871,6,0,P|163:177|92:186,1,81.25
396,298,25021,2,0,P|435:263|450:226,1,81.25,8|0,0:0|0:0,0:0:0:0:
315,178,25171,5,8,0:0:0:0:
284,104,25321,1,8,0:0:0:0:
215,63,25471,1,0,0:0:0:0:
136,73,25621,1,8,0:0:0:0:
396,298,25771,5,8,0:0:0:0:
456,246,25921,2,0,L|496:267,2,40.625
474,168,26071,1,0,0:0:0:0:
440,96,26221,1,8,0:0:0:0:
249,157,26371,6,0,B|211:194|145:179|145:179|155:163|155:163|141:148|141:148|197:107|245:132,1,260
242,130,26521,2,0,B|194:105|188:37|188:37|207:42|207:42|217:24|217:24|273:65|264:118,1,260
264,116,26671,2,0,B|272:62|335:37|335:37|336:55|336:55|356:59|356:59|335:125|281:133,1,260
284,133,26821,2,0,B|337:124|381:176|381:176|363:183|363:183|366:203|366:203|296:204|272:155,1,260
273,157,26971,2,0,B|297:204|261:262|261:262|249:248|249:248|231:256|231:256|209:191|247:153,1,260
261,137,27121,6,0,B|231:115|216:91|216:91|180:93|145:101|145:101|88:48|2:31,1,260
104,72,27271,6,0,B|93:110|47:149|47:149|70:96|104:72,1,195.00000743866,8|0,0:0|0:0,0:0:0:0:
210,90,27421,2,0,B|199:51|217:-5|217:-5|226:51|210:90,1,195.00000743866
86,234,27571,5,12,0:0:0:0:
127,283,27646,1,0,0:0:0:0:
188,304,27721,1,0,0:0:0:0:
252,305,27796,1,0,0:0:0:0:
312,280,27871,1,8,0:0:0:0:
368,247,27946,1,0,0:0:0:0:
432,244,28021,1,0,0:0:0:0:
489,274,28096,1,0,0:0:0:0:
428,324,28171,6,0,B|389:283|409:228|409:228|428:297|515:313,1,195.00000743866,8|0,0:0|0:0,0:0:0:0:
428,324,28246,2,0,B|388:295|389:217|389:217|421:268|453:293,1,195.00000743866
428,324,28321,2,0,B|380:284|368:209|368:209|421:258,1,195.00000743866
428,324,28396,2,0,B|373:283|348:204|348:204|396:237,1,195.00000743866
428,324,28471,2,0,B|365:278|327:202|327:202|393:236,1,195.00000743866,8|0,0:0|0:0,0:0:0:0:
428,324,28546,2,0,B|352:276|307:204|307:204|389:226,1,195.00000743866
428,324,28621,2,0,B|356:290|287:212|287:212|323:204,1,195.00000743866,8|0,0:0|0:0,0:0:0:0:
428,324,28696,2,0,B|425:322|336:292|269:223|269:223|307:218,1,195.00000743866
428,324,28771,6,2,P|313:280|242:227,1,195.00000743866,2|6,0:0|0:0,0:0:0:0:
8,171,29071,2,2,P|108:196|199:262,1,195.00000743866,2|6,0:0|0:0,0:0:0:0:
44,384,29371,5,8,0:0:0:0:
224,92,29521,2,0,P|216:43|231:-5,1,81.25
325,14,29671,2,0,P|333:63|318:111,1,81.25
257,199,29821,5,0,0:0:0:0:
257,199,29896,1,0,0:0:0:0:
257,199,29971,6,0,L|396:176,1,130,12|0,0:0|0:0,0:0:0:0:
264,306,30271,2,0,L|112:275,1,130
325,14,30571,2,0,L|452:39,1,130,8|0,0:0|0:0,0:0:0:0:
305,110,30871,2,0,L|176:131,1,130,8|0,0:0|0:0,0:0:0:0:
25,21,31171,6,0,P|107:23|197:64,1,130,8|0,0:0|0:0,0:0:0:0:
201,305,31471,2,0,P|161:232|152:134,1,130
358,10,31771,2,8,P|315:80|234:137,1,130,8|0,0:0|0:0,0:0:0:0:
15,210,32071,2,0,P|57:139|138:82,1,130,8|0,0:0|0:0,0:0:0:0:
293,201,32371,6,0,B|312:209|312:209|331:198|331:198|389:217|461:193,1,155.999995239258,8|0,0:0|0:0,0:0:0:0:
238,100,32671,2,0,P|185:162|188:248,1,155.999995239258,0|8,0:0|0:0,0:0:0:0:
263,334,32896,1,0,0:0:0:0:
263,334,32971,2,0,B|136:325|136:325|96:301,1,155.999995239258,8|0,0:0|0:0,0:0:0:0:
10,120,33271,2,0,B|13:109|3:99|3:99|61:126|146:103,1,155.999995239258,8|0,0:0|0:0,0:0:0:0:
396,48,33571,6,0,B|450:165|450:165|409:150,1,155.999995239258,8|0,0:0|0:0,0:0:0:0:
255,168,33871,2,0,B|295:45|295:45|315:84,1,155.999995239258,8|0,0:0|0:0,0:0:0:0:
352,228,34171,1,8,0:0:0:0:
433,241,34321,1,2,0:0:0:0:
424,265,34371,1,0,0:0:0:0:
409,286,34421,1,0,0:0:0:0:
388,301,34471,2,0,P|308:297|270:224,1,155.999995239258,2|0,0:0|0:0,0:0:0:0:
345,29,34771,5,14,0:0:0:0:
132,265,34921,1,0,0:0:0:0:
362,118,35071,1,8,0:0:0:0:
101,183,35221,1,8,0:0:0:0:
367,311,35371,5,2,0:0:0:0:
263,51,35521,1,8,0:0:0:0:
209,315,35671,1,8,0:0:0:0:
362,118,35821,1,2,0:0:0:0:
112,35,35971,5,10,0:0:0:0:
296,257,36121,1,0,0:0:0:0:
190,7,36271,1,8,0:0:0:0:
189,243,36421,1,8,0:0:0:0:
23,102,36571,5,2,0:0:0:0:
315,117,36721,1,8,0:0:0:0:
26,212,36871,1,8,0:0:0:0:
274,30,37021,1,2,0:0:0:0:
160,293,37171,5,10,0:0:0:0:
205,99,37321,1,0,0:0:0:0:
352,331,37471,1,8,0:0:0:0:
315,117,37621,1,8,0:0:0:0:
171,187,37771,5,2,0:0:0:0:
463,179,37921,1,8,0:0:0:0:
251,327,38071,1,8,0:0:0:0:
404,108,38221,1,2,0:0:0:0:
205,99,38371,5,2,0:0:0:0:
390,218,38521,2,0,P|387:253|370:301,1,77.999997619629,8|0,0:0|0:0,0:0:0:0:
243,217,38671,2,0,P|246:252|263:300,1,77.999997619629
450,210,38821,2,0,P|438:247|392:312,1,97.50000371933,2|0,0:0|0:0,0:0:0:0:
183,209,38971,2,0,P|195:246|241:311,1,97.50000371933
318,152,39121,5,2,0:0:0:0:
318,152,39171,1,0,0:0:0:0:
318,152,39221,1,0,0:0:0:0:
318,152,39271,2,0,B|346:90|317:26|317:26|286:90|318:152,1,260,2|0,0:0|0:0,0:0:0:0:
315,317,39571,6,0,P|258:382|192:382,1,130,12|2,0:0|0:0,0:0:0:0:
101,259,39796,1,0,0:0:0:0:
101,259,39871,2,0,L|263:305,1,130,10|0,0:0|0:0,0:0:0:0:
318,152,40171,6,0,P|375:217|441:217,1,130,10|2,0:0|0:0,0:0:0:0:
365,57,40396,1,2,0:0:0:0:
365,57,40471,2,0,L|197:88,1,130,8|0,0:0|0:0,0:0:0:0:
41,278,40771,5,8,0:0:0:0:
271,206,40921,2,2,B|304:211|304:211|331:235,1,65
200,266,41071,2,0,P|179:197|204:142,1,130,8|0,0:0|0:0,0:0:0:0:
444,154,41371,1,10,0:0:0:0:
425,297,41521,2,2,L|413:374,1,65
252,63,41671,1,8,0:0:0:0:
271,206,41821,2,0,L|283:283,1,65
361,192,41971,6,0,B|344:81|344:81|318:119,1,130,10|0,0:0|0:0,0:0:0:0:
212,142,42196,1,0,0:0:0:0:
212,142,42271,2,0,P|170:92|177:16,1,130,10|2,0:0|0:0,0:0:0:0:
447,181,42571,2,0,L|317:264,1,130,8|2,0:0|0:0,0:0:0:0:
95,173,42871,2,0,P|169:134|232:153,1,130,10|0,0:0|0:0,0:0:0:0:
175,237,43096,1,0,0:0:0:0:
175,237,43171,6,0,B|149:198|149:198|164:145|164:145|117:71|117:71|126:-10,1,260,10|2,0:0|0:0,0:0:0:0:
200,45,43571,2,0,P|216:61|237:73,1,43.3333333333333,0|2,0:0|0:0,0:0:0:0:
285,60,43671,2,0,P|308:67|331:68,1,43.3333333333333
370,46,43771,2,0,P|452:60|496:98,1,130,2|0,0:0|0:0,0:0:0:0:
396,157,43996,1,0,0:0:0:0:
396,157,44071,2,0,P|391:201|406:246,1,65
234,375,44221,2,0,P|238:342|232:311,1,65
72,136,44371,5,4,0:0:0:0:
147,239,44521,2,2,L|148:190,1,32.5
147,112,44671,1,0,0:0:0:0:
72,214,44821,1,8,0:0:0:0:
192,175,44971,5,4,0:0:0:0:
406,309,45121,1,2,0:0:0:0:
312,74,45271,1,0,0:0:0:0:
251,320,45421,2,0,L|324:258,1,65,8|0,0:0|0:0,0:0:0:0:
444,157,45571,5,8,0:0:0:0:
375,262,45721,1,2,0:0:0:0:
369,135,45871,1,0,0:0:0:0:
447,235,46021,1,2,0:0:0:0:
326,200,46171,5,8,0:0:0:0:
88,27,46321,2,2,L|122:131,1,65
180,309,46471,1,2,0:0:0:0:
271,28,46621,2,8,L|191:92,1,65
32,201,46771,5,8,0:0:0:0:
90,173,46846,1,0,0:0:0:0:
154,167,46921,1,0,0:0:0:0:
216,185,46996,1,0,0:0:0:0:
273,249,47071,5,8,0:0:0:0:
335,266,47146,1,0,0:0:0:0:
399,261,47221,1,0,0:0:0:0:
457,233,47296,1,0,0:0:0:0:
509,166,47371,5,8,0:0:0:0:
481,148,47446,1,0,0:0:0:0:
453,130,47521,1,0,0:0:0:0:
425,112,47596,1,0,0:0:0:0:
404,64,47671,5,8,0:0:0:0:
373,76,47746,1,0,0:0:0:0:
342,88,47821,1,0,0:0:0:0:
311,100,47896,1,0,0:0:0:0:
259,92,47971,5,8,0:0:0:0:
361,191,48121,2,0,P|361:232|351:268,1,65
199,159,48271,2,0,P|175:125|169:94,1,65
393,167,48421,2,0,P|400:216|394:258,1,81.25
187,200,48571,2,0,P|152:167|129:120,1,81.25
287,60,48721,5,0,0:0:0:0:
287,60,48771,1,0,0:0:0:0:
287,60,48821,1,0,0:0:0:0:
287,60,48871,2,0,B|315:122|286:186|286:186|255:122|287:60,1,260
391,47,49171,5,8,0:0:0:0:
447,166,49421,1,8,0:0:0:0:
460,197,49471,2,0,P|462:232|447:284,1,69.3333333333333,8|0,0:0|0:0,0:0:0:0:
361,223,49721,1,8,0:0:0:0:
356,256,49771,2,0,P|340:287|301:324,1,69.3333333333333,8|0,0:0|0:0,0:0:0:0:
254,226,50021,2,8,L|242:242,1,17.3333333333333
233,252,50071,2,0,P|203:271|151:284,1,69.3333333333333,8|0,0:0|0:0,0:0:0:0:
46,164,50321,5,8,0:0:0:0:
33,133,50371,2,0,P|31:98|46:46,1,69.3333333333333,8|0,0:0|0:0,0:0:0:0:
132,107,50621,1,8,0:0:0:0:
137,74,50671,2,0,P|152:42|191:5,1,69.3333333333333,8|0,0:0|0:0,0:0:0:0:
239,104,50921,1,8,0:0:0:0:
260,78,50971,2,0,P|289:58|341:45,1,69.3333333333333,8|0,0:0|0:0,0:0:0:0:
345,180,51571,5,0,0:0:0:0:
136,255,51871,6,0,L|108:266,1,21.6666666666667
275,238,52121,1,0,0:0:0:0:
298,257,52171,2,2,P|354:273|413:239,2,130
163,78,52996,5,0,0:0:0:0:
152,94,53071,2,2,P|147:134|162:170,1,65
171,237,53296,1,2,0:0:0:0:
157,251,53371,2,0,L|242:228,1,65,2|0,0:0|0:0,0:0:0:0:
264,167,53596,1,0,0:0:0:0:
280,156,53671,2,0,P|330:160|354:179,1,65,2|0,0:0|0:0,0:0:0:0:
399,325,53971,5,8,0:0:0:0:
233,213,54221,1,8,0:0:0:0:
212,185,54271,2,0,L|160:109,1,69.3333333333333,8|0,0:0|0:0,0:0:0:0:
175,294,54521,1,8,0:0:0:0:
154,266,54571,2,0,L|102:190,1,69.3333333333333,8|0,0:0|0:0,0:0:0:0:
117,375,54821,2,8,L|99:352,1,17.3333333333333
96,347,54871,2,0,L|44:271,1,69.3333333333333,8|0,0:0|0:0,0:0:0:0:
313,295,55121,5,8,0:0:0:0:
341,275,55171,2,0,P|378:266|415:270,1,69.3333333333333,8|0,0:0|0:0,0:0:0:0:
512,195,55421,1,8,0:0:0:0:
484,175,55471,2,0,P|447:166|410:170,1,69.3333333333333,8|0,0:0|0:0,0:0:0:0:
284,103,55721,1,8,0:0:0:0:
312,83,55771,2,0,P|349:74|386:78,1,69.3333333333333,8|0,0:0|0:0,0:0:0:0:
359,204,56371,5,2,0:0:0:0:
151,288,56671,6,0,L|159:247,1,21.6666666666667
240,209,56921,5,0,0:0:0:0:
227,191,56971,2,2,P|175:165|92:184,2,130
320,286,57796,5,2,0:0:0:0:
330,269,57871,2,2,L|379:195,1,65
415,150,58096,1,2,0:0:0:0:
395,148,58171,2,0,P|352:133|335:117,1,65,2|0,0:0|0:0,0:0:0:0:
325,39,58396,1,0,0:0:0:0:
307,48,58471,2,0,P|248:63|222:58,1,65,2|0,0:0|0:0,0:0:0:0:
92,55,58771,6,0,B|79:49|71:24|71:24|83:95|143:122|143:122|114:138|111:177,1,216.666666666667,4|0,0:0|0:0,0:0:0:0:
29,181,59071,2,0,B|32:205|54:239|89:254|134:246|134:246|113:266|113:266|122:293|122:293|106:318,1,216.666666666667
19,326,59371,2,0,P|39:253|186:260,1,216.666666666667
212,314,59671,2,0,B|211:341|200:359|200:359|245:324|298:328|298:328|308:290|308:290|362:274,1,216.666666666667
426,375,59971,6,0,B|333:283|333:283|363:267|363:267|395:250|400:210,1,216.666666666667
309,202,60271,2,0,B|255:207|255:207|336:162|336:162|307:156|291:121|297:106,1,216.666666666667
335,45,60571,2,0,B|337:35|364:27|364:27|322:18|298:-4|298:-4|275:17|232:27|232:27|258:35|259:45,1,216.666666666667
203,109,60871,2,0,P|142:62|140:7,1,130
397,94,61171,6,0,L|388:112,14,16.25
459,139,61471,2,0,B|425:217|425:217|446:273,1,130
408,337,61696,1,0,0:0:0:0:
346,279,61771,2,0,B|345:234|345:234|286:174,1,130,8|0,0:0|0:0,0:0:0:0:
182,326,62071,2,0,P|115:361|41:338,1,130,8|0,0:0|0:0,0:0:0:0:
106,257,62371,6,0,B|135:85|135:85|159:139,1,216.666666666667
53,150,62671,2,0,P|51:103|206:39,1,216.666666666667
152,123,62971,2,0,B|146:167|146:167|262:322,1,216.666666666667,8|0,0:0|0:0,0:0:0:0:
260,209,63271,2,0,P|200:220|154:280,1,130
341,262,63571,5,8,0:0:0:0:
332,161,63721,1,4,0:0:0:0:
401,87,63871,2,0,B|364:62|356:2|356:2|397:45|401:87,1,195.00000743866
504,75,64021,2,0,B|473:162|473:162|433:175,1,130.000004959107
332,161,64171,5,8,0:0:0:0:
239,117,64321,1,0,0:0:0:0:
136,125,64471,2,0,B|87:108|56:73|56:73|87:108|136:125,1,97.50000371933
51,182,64621,2,0,B|146:171|146:171|188:197,1,130.000004959107
117,236,64771,6,0,P|95:286|102:345,1,97.50000371933,8|0,0:0|0:0,0:0:0:0:
202,261,64921,2,0,P|194:315|156:361,1,97.50000371933,8|0,0:0|0:0,0:0:0:0:
202,261,65071,6,0,P|242:297|301:308,1,97.50000371933,8|0,0:0|0:0,0:0:0:0:
252,187,65221,2,0,P|300:211|333:260,1,97.50000371933,8|0,0:0|0:0,0:0:0:0:
252,187,65371,6,0,P|299:159|328:107,1,97.50000371933,8|0,0:0|0:0,0:0:0:0:
197,116,65521,2,0,P|235:76|292:61,1,97.50000371933,8|0,0:0|0:0,0:0:0:0:
197,116,65671,6,0,P|185:62|145:19,1,97.50000371933,8|0,0:0|0:0,0:0:0:0:
112,146,65821,2,0,P|86:97|89:38,1,97.50000371933,8|0,0:0|0:0,0:0:0:0:
112,146,65971,5,8,0:0:0:0:
140,203,66046,1,0,0:0:0:0:
133,267,66121,1,0,0:0:0:0:
95,318,66196,1,0,0:0:0:0:
60,247,66271,5,0,0:0:0:0:
122,229,66346,1,0,0:0:0:0:
186,238,66421,1,0,0:0:0:0:
241,271,66496,1,0,0:0:0:0:
273,345,66571,5,0,0:0:0:0:
330,314,66646,1,0,0:0:0:0:
387,283,66721,2,0,L|433:260,3,32.5
324,231,66871,5,0,0:0:0:0:
303,170,66946,1,0,0:0:0:0:
318,108,67021,1,0,0:0:0:0:
364,63,67096,1,0,0:0:0:0:
427,51,67171,6,0,P|371:92|221:61,1,216.666666666667
275,4,67471,2,0,P|258:71|123:144,1,216.666666666667
147,65,67771,2,0,P|177:127|120:269,1,216.666666666667
74,208,68071,5,8,0:0:0:0:
397,170,68221,1,8,0:0:0:0:
165,279,68371,6,0,P|176:326|231:368,1,97.50000371933,4|0,0:0|0:0,0:0:0:0:
346,277,68671,2,0,P|291:267|241:295,1,97.50000371933
409,363,68971,2,0,L|447:266,1,97.50000371933
386,191,69196,1,0,0:0:0:0:
386,191,69271,2,0,P|360:132|370:78,1,97.50000371933
469,14,69571,5,0,0:0:0:0:
457,121,69721,1,0,0:0:0:0:
254,28,69871,1,0,0:0:0:0:
289,129,70021,1,0,0:0:0:0:
94,71,70171,2,0,P|35:90|0:173,1,146.250005578995
16,238,70471,5,0,0:0:0:0:
91,166,70621,1,0,0:0:0:0:
174,275,70771,2,0,B|248:260|248:260|229:244,1,97.50000371933
95,254,71071,2,0,P|100:315|132:348,1,97.50000371933
341,316,71371,1,0,0:0:0:0:
230,161,71521,1,0,0:0:0:0:
258,168,71596,1,0,0:0:0:0:
286,175,71671,2,0,L|386:201,1,97.50000371933
263,263,71971,5,0,0:0:0:0:
142,223,72121,1,0,0:0:0:0:
142,97,72271,1,0,0:0:0:0:
263,57,72421,1,0,0:0:0:0:
337,160,72571,1,4,0:0:0:0:
337,160,72871,6,0,L|194:205,1,97.50000371933
148,219,73171,2,0,B|119:267|15:262|15:262|99:198|148:219,1,292.50001115799
284,303,73771,1,0,0:0:0:0:
243,189,73921,1,0,0:0:0:0:
428,137,74071,1,0,0:0:0:0:
387,251,74221,1,0,0:0:0:0:
290,111,74371,6,0,P|293:58|340:24,1,97.50000371933
354,162,74671,2,0,L|239:145,1,97.50000371933
139,62,74971,2,0,B|104:26|104:26|92:147,1,146.250005578995
88,201,75271,5,0,0:0:0:0:
180,134,75421,1,0,0:0:0:0:
142,277,75571,2,0,P|84:296|39:279,1,97.50000371933,8|0,0:0|0:0,0:0:0:0:
180,134,75871,2,0,L|257:200,1,97.50000371933
276,346,76171,1,0,0:0:0:0:
344,210,76321,1,0,0:0:0:0:
359,185,76396,1,0,0:0:0:0:
372,211,76471,1,0,0:0:0:0:
226,274,76621,1,0,0:0:0:0:
356,292,76771,6,0,L|465:306,1,97.50000371933
276,146,77071,2,0,L|179:133,1,97.50000371933
27,276,77371,1,0,0:0:0:0:
99,369,77521,1,0,0:0:0:0:
209,329,77671,2,0,L|207:283,1,32.5000012397767
205,212,77821,1,0,0:0:0:0:
93,180,77971,6,0,P|63:140|81:52,1,130,8|0,0:0|0:0,0:0:0:0:
148,26,78196,1,0,0:0:0:0:
143,111,78271,2,0,P|212:122|273:69,1,130,4|8,0:0|0:0,0:0:0:0:
427,0,78571,1,8,0:0:0:0:
309,174,78721,2,2,B|288:201|288:201|251:205,1,65
260,91,78871,1,0,0:0:0:0:
322,78,78946,1,0,0:0:0:0:
379,107,79021,1,8,0:0:0:0:
404,166,79096,1,0,0:0:0:0:
387,227,79171,6,0,P|384:279|456:340,1,130,8|0,0:0|0:0,0:0:0:0:
365,282,79396,2,0,P|294:277|234:332,1,130,2|0,0:0|0:0,0:0:0:0:
168,279,79621,2,0,P|92:299|46:276,1,130,0|8,0:0|0:0,0:0:0:0:
107,118,79921,5,8,0:0:0:0:
93,95,79996,1,0,0:0:0:0:
38,47,80071,5,10,0:0:0:0:
101,59,80146,1,0,0:0:0:0:
164,71,80221,1,0,0:0:0:0:
227,83,80296,1,0,0:0:0:0:
290,95,80371,6,0,P|338:87|417:35,1,130,8|0,0:0|0:0,0:0:0:0:
512,169,80596,1,0,0:0:0:0:
512,169,80671,2,0,P|445:148|373:159,1,130,4|0,0:0|0:0,0:0:0:0:
291,324,80971,1,8,0:0:0:0:
52,225,81121,1,0,0:0:0:0:
149,217,81196,2,0,L|124:179,1,32.5
95,135,81271,2,2,L|55:71,1,65,2|0,0:0|0:0,0:0:0:0:
108,307,81421,2,0,L|142:362,1,65
296,162,81571,6,0,P|373:134|455:160,1,130,8|2,0:0|0:0,0:0:0:0:
334,215,81796,2,0,P|384:279|385:365,1,130
296,268,82021,2,0,P|250:335|168:363,1,130,0|8,0:0|0:0,0:0:0:0:
234,247,82246,2,0,P|155:224|104:155,1,130,2|0,0:0|0:0,0:0:0:0:
234,182,82471,6,0,L|245:103,1,65
373,93,82621,2,0,L|384:14,1,65
148,103,82771,6,0,P|81:83|30:0,1,130,8|0,0:0|0:0,0:0:0:0:
70,120,82996,2,0,P|53:186|1:236,1,130,8|0,0:0|0:0,0:0:0:0:
89,199,83221,2,0,B|188:196|188:196|222:216,1,130,8|4,0:0|0:0,0:0:0:0:
391,342,83521,1,0,0:0:0:0:
296,365,83596,1,0,0:0:0:0:
321,270,83671,2,0,L|345:178,1,65
474,81,83821,2,0,L|457:143,1,65
260,205,83971,5,8,0:0:0:0:
160,186,84121,1,0,0:0:0:0:
103,103,84271,1,0,0:0:0:0:
122,3,84421,1,0,0:0:0:0:
288,127,84571,5,4,0:0:0:0:
382,89,84721,1,0,0:0:0:0:
474,130,84871,1,0,0:0:0:0:
511,224,85021,1,0,0:0:0:0:
256,280,85171,6,0,B|258:222|241:184|241:184|231:232|243:268|243:268|256:250,1,195.00000743866
256,280,85246,2,0,B|254:222|271:184|271:184|281:232|269:268|269:268|256:250,1,195.00000743866
256,280,85321,2,0,B|250:224|217:182|217:182|224:212|256:281,1,195.00000743866
256,280,85396,2,0,B|262:224|295:182|295:182|288:212|256:281,1,195.00000743866
256,280,85471,2,0,B|235:217|192:179|192:179|218:212|256:223,1,195.00000743866
256,280,85546,2,0,B|277:217|320:179|320:179|294:212|256:223,1,195.00000743866
256,280,85621,2,0,B|226:220|161:180|161:180|206:204|241:208,1,195.00000743866
256,280,85696,2,0,B|286:220|351:180|351:180|306:204|271:208,1,195.00000743866
256,280,85771,6,0,B|185:209|122:189|122:189|176:205|230:203,1,243.750005811453
256,280,85846,2,0,B|327:209|390:189|390:189|336:205|282:203,1,243.750005811453
256,280,85921,2,0,B|181:215|71:207|71:207|122:233|212:197,1,325
256,280,85996,2,0,B|331:215|441:207|441:207|390:233|300:197,1,325
256,280,86071,2,0,B|116:223|26:241|26:241|115:236|209:194,1,390.00001487732
256,280,86146,2,0,B|396:223|486:241|486:241|397:236|303:194,1,390.00001487732
256,280,86221,2,0,B|119:235|-4:288|-4:288|98:328|103:215|191:203,1,457.031246594852
256,280,86296,2,0,B|393:235|516:288|516:288|414:328|409:215|321:203,1,457.031246594852
256,280,86371,6,0,B|206:217|256:10|256:10|309:217|249:389,1,650
256,192,86446,12,2,87271,0:0:0:0:
146,140,87571,6,0,P|166:242|130:326,1,162.5,12|0,0:0|0:0,0:0:0:0:
58,99,87796,1,0,0:0:0:0:
137,43,87871,2,0,P|231:34|321:76,1,162.5,0|10,0:0|0:0,0:0:0:0:
512,230,88171,1,0,0:0:0:0:
225,235,88321,1,8,0:0:0:0:
149,296,88396,1,0,0:0:0:0:
240,331,88471,2,0,P|309:282|311:190,1,162.5,8|2,0:0|0:0,0:0:0:0:
134,198,88771,6,0,B|40:103|40:103|88:108,1,162.5,8|0,0:0|0:0,0:0:0:0:
363,12,88996,2,0,B|352:145|352:145|325:105,1,162.5,10|0,0:0|0:0,0:0:0:0:
239,166,89221,2,0,L|179:16,1,162.5,8|4,0:0|0:0,0:0:0:0:
474,60,89521,1,10,0:0:0:0:
453,155,89596,2,0,L|442:215,1,40.625
432,250,89671,2,0,L|412:348,1,81.25
46,325,89821,2,0,P|78:311|151:318,1,81.25,2|0,0:0|0:0,0:0:0:0:
349,173,89971,6,0,P|278:141|185:152,1,162.5,8|2,0:0|0:0,0:0:0:0:
120,211,90196,1,8,0:0:0:0:
211,243,90271,2,0,P|241:154|209:53,1,162.5,0|10,0:0|0:0,0:0:0:0:
46,325,90571,1,0,0:0:0:0:
312,308,90721,1,2,0:0:0:0:
344,305,90771,1,0,0:0:0:0:
376,302,90821,1,0,0:0:0:0:
408,300,90871,2,0,B|421:240|481:195|481:195|454:264|408:300,1,260,2|8,0:0|0:0,0:0:0:0:
282,311,91171,6,0,L|231:230,1,81.25,8|0,0:0|0:0,0:0:0:0:
140,84,91321,1,2,0:0:0:0:
140,84,91396,2,0,L|239:80,1,81.25,8|0,0:0|0:0,0:0:0:0:
407,74,91546,1,8,0:0:0:0:
407,74,91621,2,0,L|341:201,1,81.25,8|0,0:0|0:0,0:0:0:0:
76,166,91771,2,0,P|36:88|67:9,1,162.5,2|0,0:0|0:0,0:0:0:0:
434,210,92071,2,0,L|320:215,1,81.25,10|0,0:0|0:0,0:0:0:0:
127,306,92221,2,0,L|13:311,1,81.25,2|0,0:0|0:0,0:0:0:0:
251,229,92371,6,0,P|272:318|251:386,1,162.5,8|0,0:0|0:0,0:0:0:0:
127,306,92596,1,8,0:0:0:0:
127,306,92671,2,0,P|106:217|127:149,1,162.5,0|12,0:0|0:0,0:0:0:0:
474,90,92971,2,0,L|445:181,1,81.25,8|0,0:0|0:0,0:0:0:0:
184,93,93121,1,2,0:0:0:0:
254,25,93196,1,2,0:0:0:0:
277,119,93271,1,2,0:0:0:0:
10,43,93421,1,8,0:0:0:0:
82,322,93571,6,0,L|258:277,1,162.5,8|0,0:0|0:0,0:0:0:0:
489,253,93796,2,0,P|432:322|324:347,1,162.5,2|0,0:0|0:0,0:0:0:0:
168,242,94021,2,0,L|261:293,1,81.25,8|0,0:0|0:0,0:0:0:0:
226,107,94171,6,0,P|130:100|51:156,1,162.5,8|0,0:0|0:0,0:0:0:0:
313,225,94396,2,0,B|413:130|413:130|368:135,1,162.5,2|0,0:0|0:0,0:0:0:0:
168,242,94621,2,0,P|178:286|214:332,1,81.25,8|0,0:0|0:0,0:0:0:0:
458,54,94771,6,0,L|269:77,1,162.5,8|2,0:0|0:0,0:0:0:0:
198,87,94996,1,0,0:0:0:0:
294,101,95071,2,0,L|455:120,1,162.5,0|2,0:0|0:0,0:0:0:0:
482,328,95371,2,0,L|377:341,1,81.25,8|0,0:0|0:0,0:0:0:0:
176,357,95521,1,2,0:0:0:0:
176,357,95571,1,0,0:0:0:0:
176,357,95621,1,0,0:0:0:0:
176,357,95671,2,0,B|122:386|48:370|48:370|118:345|176:357,1,260,2|8,0:0|0:0,0:0:0:0:
377,254,95971,6,0,P|409:166|363:57,1,162.5,8|0,0:0|0:0,0:0:0:0:
312,46,96196,1,0,0:0:0:0:
307,143,96271,2,0,P|212:153|147:104,1,162.5,0|2,0:0|0:0,0:0:0:0:
465,59,96571,1,8,0:0:0:0:
415,343,96721,2,0,P|370:345|331:332,1,81.25,2|0,0:0|0:0,0:0:0:0:
85,217,96871,2,0,P|127:204|183:209,1,81.25,2|0,0:0|0:0,0:0:0:0:
486,224,97021,5,8,0:0:0:0:
396,184,97096,1,0,0:0:0:0:
307,143,97171,2,0,B|186:83|186:83|209:127,1,162.5,12|0,0:0|0:0,0:0:0:0:
294,271,97396,1,8,0:0:0:0:
294,271,97471,2,0,P|216:309|124:283,1,162.5,0|10,0:0|0:0,0:0:0:0:
96,37,97771,1,0,0:0:0:0:
376,126,97921,1,8,0:0:0:0:
471,104,97996,1,0,0:0:0:0:
404,32,98071,2,0,P|325:43|280:115,1,162.5,8|2,0:0|0:0,0:0:0:0:
356,271,98371,6,0,P|266:314|183:289,1,162.5,8|0,0:0|0:0,0:0:0:0:
138,99,98596,2,0,P|220:155|240:239,1,162.5,10|0,0:0|0:0,0:0:0:0:
98,373,98821,2,0,P|105:273|168:214,1,162.5,8|4,0:0|0:0,0:0:0:0:
367,51,99121,1,10,0:0:0:0:
270,40,99196,2,0,L|201:33,1,40.625
172,30,99271,2,0,L|42:18,1,81.25
0,214,99421,2,0,L|80:221,1,81.25,2|0,0:0|0:0,0:0:0:0:
228,150,99571,6,0,L|444:174,1,162.5,8|2,0:0|0:0,0:0:0:0:
444,87,99796,1,8,0:0:0:0:
346,79,99871,2,0,P|291:154|323:240,1,162.5,0|10,0:0|0:0,0:0:0:0:
497,357,100171,1,0,0:0:0:0:
278,349,100321,1,2,0:0:0:0:
246,346,100371,1,0,0:0:0:0:
214,343,100421,1,0,0:0:0:0:
182,341,100471,2,0,B|169:281|109:236|109:236|136:305|182:341,1,260,2|8,0:0|0:0,0:0:0:0:
434,203,100771,6,0,L|462:113,1,81.25,8|0,0:0|0:0,0:0:0:0:
308,118,100921,1,2,0:0:0:0:
308,118,100996,2,0,L|308:21,1,81.25,8|0,0:0|0:0,0:0:0:0:
186,207,101146,1,8,0:0:0:0:
186,207,101221,2,0,L|158:117,1,81.25,8|0,0:0|0:0,0:0:0:0:
390,239,101371,2,0,P|302:255|219:232,1,162.5,2|0,0:0|0:0,0:0:0:0:
59,17,101671,2,0,L|32:116,1,81.25,10|0,0:0|0:0,0:0:0:0:
71,291,101821,2,0,L|44:390,1,81.25,2|0,0:0|0:0,0:0:0:0:
310,281,101971,5,8,0:0:0:0:
173,72,102121,2,0,L|188:156,1,81.25,2|0,0:0|0:0,0:0:0:0:
226,351,102271,1,0,0:0:0:0:
320,44,102421,1,8,0:0:0:0:
58,192,102571,5,12,0:0:0:0:
402,200,102721,2,2,L|276:167,1,81.25
106,122,102871,1,2,0:0:0:0:
394,363,103021,1,8,0:0:0:0:
217,153,103171,6,0,B|132:90|168:-8|168:-8|183:29|183:29|170:73,1,260,8|0,0:0|0:0,0:0:0:0:
266,136,103321,2,0,B|299:36|404:40|404:40|373:65|373:65|327:66,1,260
297,179,103471,2,0,B|402:180|430:280|430:280|397:259|397:259|382:216,1,260
266,221,103621,2,0,B|297:321|210:379|210:379|220:341|220:341|257:313,1,260
216,205,103771,2,0,B|130:265|47:201|47:201|87:199|87:199|125:224,1,260,12|0,0:0|0:0,0:0:0:0:
217,153,103921,6,0,B|307:140|307:140|368:172|368:172|447:182|447:182|405:207,1,260
336,276,104071,6,0,B|288:211|306:142|306:142|320:174|310:200,1,195.00000743866
397,34,104221,2,0,B|417:115|382:174|382:174|371:140|388:112,1,195.00000743866
444,314,104371,5,8,0:0:0:0:
394,376,104446,1,0,0:0:0:0:
316,390,104521,1,0,0:0:0:0:
247,350,104596,1,0,0:0:0:0:
203,282,104671,1,0,0:0:0:0:
134,242,104746,1,0,0:0:0:0:
56,256,104821,1,0,0:0:0:0:
11,318,104896,1,0,0:0:0:0:
94,333,104971,6,0,B|59:295|10:318|10:318|62:259|50:216,1,195.00000743866,8|0,0:0|0:0,0:0:0:0:
94,333,105046,2,0,B|71:305|17:300|17:300|68:262|71:193,1,195.00000743866
94,333,105121,2,0,B|69:296|29:285|29:285|77:264|92:157,1,195.00000743866,8|0,0:0|0:0,0:0:0:0:
94,333,105196,2,0,B|87:312|43:262|43:262|101:251|106:152,1,195.00000743866
94,333,105271,2,0,B|93:303|57:260|57:260|119:204|138:146,1,195.00000743866,8|0,0:0|0:0,0:0:0:0:
94,333,105346,2,0,B|95:291|77:252|77:252|132:207|170:150,1,195.00000743866
94,333,105421,2,0,B|108:286|100:251|100:251|160:211|189:162,1,195.00000743866,8|0,0:0|0:0,0:0:0:0:
94,333,105496,2,0,B|123:296|125:260|125:260|179:232|225:182,1,195.00000743866
94,333,105571,6,0,P|156:268|280:215,1,195.00000743866,8|4,0:0|0:0,0:0:0:0:
275,60,105871,2,0,P|434:70|519:108,1,195.00000743866,0|4,0:0|0:0,0:0:0:0:
456,357,106171,5,0,0:0:0:0:
227,361,106321,2,0,P|216:324|218:270,1,81.25
308,361,106471,2,0,P|319:324|317:270,1,81.25
255,85,106621,1,0,0:0:0:0:
255,85,106696,1,0,0:0:0:0:
255,85,106771,6,0,B|132:61|132:61|76:80,1,162.5,12|0,0:0|0:0,0:0:0:0:
10,117,106996,1,2,0:0:0:0:
92,169,107071,1,0,0:0:0:0:
362,0,107221,2,8,P|392:83|353:184,1,162.5
137,346,107521,1,0,0:0:0:0:
65,279,107596,2,0,L|119:263,1,40.625,2|0,0:0|0:0,0:0:0:0:
158,250,107671,1,2,0:0:0:0:
421,309,107821,1,8,0:0:0:0:
86,183,107971,6,0,P|70:84|112:17,1,162.5,8|0,0:0|0:0,0:0:0:0:
288,166,108196,2,0,B|281:201|256:241|256:241|234:202|233:159,1,162.5,2|0,0:0|0:0,0:0:0:0:
421,55,108421,2,8,P|437:154|395:221,1,162.5,8|12,0:0|0:0,0:0:0:0:
131,308,108721,1,0,0:0:0:0:
228,313,108796,1,2,0:0:0:0:
325,318,108871,2,0,L|479:328,1,81.25,2|0,0:0|0:0,0:0:0:0:
184,226,109021,2,0,L|102:220,1,81.25,8|0,0:0|0:0,0:0:0:0:
280,46,109171,6,0,B|421:55|421:55|395:74,1,162.5,8|0,0:0|0:0,0:0:0:0:
318,115,109396,1,2,0:0:0:0:
401,165,109471,1,0,0:0:0:0:
145,10,109621,1,8,0:0:0:0:
228,313,109771,1,8,0:0:0:0:
50,175,109921,1,2,0:0:0:0:
82,180,109971,1,0,0:0:0:0:
114,185,110021,1,0,0:0:0:0:
146,190,110071,2,0,B|161:212|161:212|266:208|266:208|169:176|169:176|145:190,1,260,2|0,0:0|0:0,0:0:0:0:
27,32,110371,6,0,L|118:47,1,81.25,8|0,0:0|0:0,0:0:0:0:
89,274,110521,1,2,0:0:0:0:
186,291,110596,2,0,L|277:306,1,81.25,10|0,0:0|0:0,0:0:0:0:
202,64,110746,1,0,0:0:0:0:
299,81,110821,2,0,L|390:96,1,81.25,10|0,0:0|0:0,0:0:0:0:
512,235,110971,2,0,L|284:195,1,162.5,8|0,0:0|0:0,0:0:0:0:
87,94,111271,2,0,P|70:47|72:-2,1,81.25
214,303,111421,2,2,P|202:357|178:393,1,81.25,10|0,0:0|0:0,0:0:0:0:
39,163,111571,6,0,P|117:109|197:121,1,162.5,12|0,0:0|0:0,0:0:0:0:
256,175,111796,1,2,0:0:0:0:
273,79,111871,1,0,0:0:0:0:
140,224,112021,2,8,P|133:306|181:367,1,162.5
442,113,112321,1,0,0:0:0:0:
370,48,112396,2,0,L|356:121,1,40.625,2|0,0:0|0:0,0:0:0:0:
350,144,112471,2,0,L|330:238,1,81.25,2|0,0:0|0:0,0:0:0:0:
481,384,112621,2,0,L|497:304,1,81.25,10|0,0:0|0:0,0:0:0:0:
442,113,112771,6,0,P|381:51|277:70,1,162.5,8|2,0:0|0:0,0:0:0:0:
207,205,112996,2,0,B|248:332|248:332|260:270,1,162.5,2|0,0:0|0:0,0:0:0:0:
273,79,113221,2,0,P|231:51|165:50,1,81.25,8|0,0:0|0:0,0:0:0:0:
0,201,113371,6,0,L|56:372,1,162.5,8|2,0:0|0:0,0:0:0:0:
324,228,113596,2,0,P|230:204|150:266,1,162.5,2|0,0:0|0:0,0:0:0:0:
461,355,113821,2,0,L|508:219,1,81.25,8|0,0:0|0:0,0:0:0:0:
289,83,113971,6,0,P|285:179|362:245,1,162.5,8|0,0:0|0:0,0:0:0:0:
417,260,114196,1,2,0:0:0:0:
398,164,114271,1,0,0:0:0:0:
159,355,114421,2,8,L|357:357,1,162.5
491,196,114721,1,2,0:0:0:0:
491,196,114771,1,0,0:0:0:0:
491,196,114821,1,0,0:0:0:0:
491,196,114871,2,0,B|505:183|505:183|515:72|515:72|484:178|484:178|491:196,1,260,2|8,0:0|0:0,0:0:0:0:
230,191,115171,6,0,P|166:126|172:36,1,162.5,8|0,0:0|0:0,0:0:0:0:
301,124,115396,1,2,0:0:0:0:
323,219,115471,2,0,P|276:298|191:316,1,162.5,0|8,0:0|0:0,0:0:0:0:
75,115,115771,5,8,0:0:0:0:
401,124,115921,2,0,P|411:83|406:32,1,81.25,2|0,0:0|0:0,0:0:0:0:
301,124,116071,2,0,P|291:83|296:32,1,81.25,2|0,0:0|0:0,0:0:0:0:
459,262,116221,1,0,0:0:0:0:
459,262,116296,1,0,0:0:0:0:
459,262,116371,6,0,B|344:337|344:337|347:297,1,162.5,12|0,0:0|0:0,0:0:0:0:
371,216,116596,1,2,0:0:0:0:
277,243,116671,1,0,0:0:0:0:
271,4,116821,1,8,0:0:0:0:
182,267,116971,1,8,0:0:0:0:
33,70,117121,1,0,0:0:0:0:
130,79,117196,2,0,L|189:85,1,40.625,2|0,0:0|0:0,0:0:0:0:
227,88,117271,2,0,L|372:101,1,81.25,2|0,0:0|0:0,0:0:0:0:
80,292,117421,2,0,L|0:284,1,81.25,10|0,0:0|0:0,0:0:0:0:
259,193,117571,6,0,P|286:283|243:357,1,162.5,8|2,0:0|0:0,0:0:0:0:
76,139,117796,2,0,B|33:70|33:70|120:78,1,162.5,2|0,0:0|0:0,0:0:0:0:
259,193,118021,2,8,B|381:244|381:244|367:214,1,162.5,10|12,0:0|0:0,0:0:0:0:
37,245,118321,1,8,0:0:0:0:
37,342,118396,1,2,0:0:0:0:
121,293,118471,1,2,0:0:0:0:
185,8,118621,1,8,0:0:0:0:
283,307,118771,6,0,P|367:348|454:305,1,162.5,8|0,0:0|0:0,0:0:0:0:
479,245,118996,1,2,0:0:0:0:
381,243,119071,1,0,0:0:0:0:
182,320,119221,2,8,P|98:361|11:318,1,162.5
0,70,119521,1,2,0:0:0:0:
30,80,119571,1,0,0:0:0:0:
60,89,119621,1,0,0:0:0:0:
90,99,119671,2,0,B|107:125|212:137|212:137|120:91|90:99,1,260,2|8,0:0|0:0,0:0:0:0:
36,341,119971,6,0,L|140:326,1,81.25,8|0,0:0|0:0,0:0:0:0:
160,201,120121,1,2,0:0:0:0:
254,223,120196,2,0,L|356:244,1,81.25,2|0,0:0|0:0,0:0:0:0:
336,95,120346,1,0,0:0:0:0:
417,147,120421,2,0,L|506:202,1,81.25,8|0,0:0|0:0,0:0:0:0:
119,275,120571,2,0,P|76:204|116:127,1,162.5,8|2,0:0|0:0,0:0:0:0:
417,147,120871,2,0,P|431:110|426:62,1,81.25
203,295,121021,2,2,P|213:332|252:377,1,81.25,10|2,0:0|0:0,0:0:0:0:
336,95,121171,5,8,0:0:0:0:
47,224,121321,1,2,0:0:0:0:
251,21,121471,1,0,0:0:0:0:
349,309,121621,1,2,0:0:0:0:
90,93,121771,5,8,0:0:0:0:
348,187,121921,1,8,0:0:0:0:
439,216,121996,1,2,0:0:0:0:
418,121,122071,1,2,0:0:0:0:
177,346,122221,1,8,0:0:0:0:
180,45,122371,6,0,P|195:74|200:139,1,81.25,8|0,0:0|0:0,0:0:0:0:
283,90,122521,2,0,P|284:122|261:183,1,81.25,0|0,0:0|0:0,3:0:0:0:
362,174,122671,2,2,P|349:204|302:249,1,81.25,2|0,0:0|0:0,0:0:0:0:
393,281,122821,2,0,P|368:302|307:324,1,81.25,8|0,0:0|0:0,3:0:0:0:
0,235,122971,6,0,P|31:228|95:240,1,81.25,8|0,0:0|0:0,0:0:0:0:
70,147,123121,2,0,P|101:154|154:192,1,81.25,2|0,0:0|0:0,3:0:0:0:
171,92,123271,2,0,P|196:111|228:168,1,81.25
283,90,123421,2,0,P|298:118|303:183,1,81.25,2|0,0:0|0:0,3:0:0:0:
489,183,123571,5,8,0:0:0:0:
497,263,123646,1,0,0:0:0:0:
446,326,123721,1,0,0:0:0:0:
365,339,123796,1,0,0:0:0:0:
296,295,123871,1,0,0:0:0:0:
222,259,123946,1,0,0:0:0:0:
140,254,124021,1,0,0:0:0:0:
65,287,124096,1,0,0:0:0:0:
15,351,124171,5,8,0:0:0:0:
89,318,124246,1,0,0:0:0:0:
140,254,124321,1,0,0:0:0:0:
143,172,124396,1,0,0:0:0:0:
171,95,124471,1,8,0:0:0:0:
236,46,124546,1,0,0:0:0:0:
316,39,124621,1,0,0:0:0:0:
388,75,124696,1,0,0:0:0:0:
416,151,124771,5,8,0:0:0:0:
67,190,124921,1,2,0:0:0:0:
466,88,125071,1,8,0:0:0:0:
250,368,125221,1,2,0:0:0:0:
164,17,125371,5,12,0:0:0:0:
317,169,125521,6,0,P|310:208|286:253,1,81.25
195,169,125671,2,0,P|202:208|220:245,1,81.25
255,89,125821,5,0,0:0:0:0:
255,89,125896,1,0,0:0:0:0:
255,89,125971,1,4,0:0:0:0:
256,192,126046,12,0,128371,0:0:0:0:
