osu file format v14

[General]
AudioFilename: audio.mp3
AudioLeadIn: 0
PreviewTime: 87571
Countdown: 1
SampleSet: Soft
StackLeniency: 0.7
Mode: 1
LetterboxInBreaks: 0
WidescreenStoryboard: 0

[Editor]
DistanceSpacing: 0.8
BeatDivisor: 4
GridSize: 8
TimelineZoom: 3.599998

[Metadata]
Title:Nadeshiko Sensation
TitleUnicode:Nadeshiko Sensation
Artist:yuki.
ArtistUnicode:yuki.
Creator:Don Omar
Version:inner oni.
Source:
Tags:
BeatmapID:1247318
BeatmapSetID:589236

[Difficulty]
HPDrainRate:6.9
CircleSize:5
OverallDifficulty:7.5
ApproachRate:5
SliderMultiplier:1.4
SliderTickRate:1

[Events]
//Background and Video events
0,0,"wallup-221200.jpg",0,0
//Break Periods
//Storyboard Layer 0 (Background)
//Storyboard Layer 1 (Fail)
//Storyboard Layer 2 (Pass)
//Storyboard Layer 3 (Foreground)
//Storyboard Sound Samples

[TimingPoints]
1189,300,4,2,0,100,1,0
29539,-62.5,4,2,0,100,0,0
29690,-100,4,2,0,100,0,0
68389,-111.111111111111,4,2,0,100,0,0
77989,-100,4,2,0,100,0,0
82789,-95.2380952380952,4,2,0,100,0,0
87289,-62.5,4,2,0,100,0,0
87589,-90.9090909090909,4,2,0,100,0,1
97189,-90.9090909090909,4,2,0,100,0,0
106339,-62.5,4,2,0,100,0,0
106789,-83.3333333333333,4,2,0,100,0,1
125539,-55.5555555555556,4,2,0,100,0,1
125989,-100,4,2,0,100,0,0

[HitObjects]
160,192,871,5,8,0:0:0:0:
144,184,1021,1,8,0:0:0:0:
256,184,1189,1,4,0:0:0:0:
280,184,1489,1,8,0:0:0:0:
280,184,1639,1,0,0:0:0:0:
280,184,1789,1,0,0:0:0:0:
280,184,1939,1,8,0:0:0:0:
280,184,1989,1,0,0:0:0:0:
280,184,2039,1,0,0:0:0:0:
288,192,2089,1,8,0:0:0:0:
288,184,2239,1,8,0:0:0:0:
288,192,2389,1,0,0:0:0:0:
288,192,2539,1,0,0:0:0:0:
288,192,2689,1,8,0:0:0:0:
296,192,2839,1,0,0:0:0:0:
296,192,2989,1,8,0:0:0:0:
304,184,3289,1,8,0:0:0:0:
320,192,3439,1,0,0:0:0:0:
328,192,3589,1,0,0:0:0:0:
320,184,3889,1,8,0:0:0:0:
352,184,4039,1,0,0:0:0:0:
368,176,4189,1,8,0:0:0:0:
336,176,4339,1,0,0:0:0:0:
344,184,4389,1,8,0:0:0:0:
344,184,4439,1,8,0:0:0:0:
360,184,4489,1,0,0:0:0:0:
344,176,4639,1,0,0:0:0:0:
344,184,4789,1,8,0:0:0:0:
344,168,4939,1,0,0:0:0:0:
344,176,5089,1,0,0:0:0:0:
344,176,5239,1,0,0:0:0:0:
344,184,5389,1,8,0:0:0:0:
360,176,5689,1,8,0:0:0:0:
368,176,5839,1,0,0:0:0:0:
360,168,5989,1,4,0:0:0:0:
368,168,6139,1,0,0:0:0:0:
368,168,6214,1,0,0:0:0:0:
368,168,6289,1,8,0:0:0:0:
384,168,6439,1,0,0:0:0:0:
368,168,6589,1,8,0:0:0:0:
376,176,6739,1,0,0:0:0:0:
376,176,6814,1,0,0:0:0:0:
384,176,6889,1,8,0:0:0:0:
384,176,7039,1,8,0:0:0:0:
376,176,7114,1,8,0:0:0:0:
384,168,7189,1,0,0:0:0:0:
408,176,7339,1,0,0:0:0:0:
392,176,7489,1,8,0:0:0:0:
400,176,7639,1,0,0:0:0:0:
416,168,7789,1,8,0:0:0:0:
408,176,8089,1,8,0:0:0:0:
408,176,8239,1,0,0:0:0:0:
416,168,8389,1,4,0:0:0:0:
440,168,8539,1,8,0:0:0:0:
424,176,8689,1,0,0:0:0:0:
432,176,8839,1,8,0:0:0:0:
416,176,8989,1,0,0:0:0:0:
440,176,9064,1,8,0:0:0:0:
440,176,9139,1,8,0:0:0:0:
440,176,9214,1,8,0:0:0:0:
432,176,9289,1,0,0:0:0:0:
408,176,9364,1,0,0:0:0:0:
416,184,9439,1,8,0:0:0:0:
432,176,9514,1,8,0:0:0:0:
432,184,9589,1,0,0:0:0:0:
432,176,9739,1,0,0:0:0:0:
424,176,9889,1,8,0:0:0:0:
424,184,10039,1,0,0:0:0:0:
432,184,10189,1,8,0:0:0:0:
432,176,10489,1,8,0:0:0:0:
256,192,10789,1,12,0:0:0:0:
256,192,10939,1,0,0:0:0:0:
264,192,11089,1,8,0:0:0:0:
264,184,11239,1,0,0:0:0:0:
264,192,11389,1,8,0:0:0:0:
272,184,11539,1,0,0:0:0:0:
264,192,11589,1,8,0:0:0:0:
264,192,11639,1,8,0:0:0:0:
272,192,11689,1,0,0:0:0:0:
256,192,11839,1,0,0:0:0:0:
264,192,11989,1,8,0:0:0:0:
272,184,12139,1,0,0:0:0:0:
272,184,12289,1,0,0:0:0:0:
272,184,12439,1,0,0:0:0:0:
272,192,12589,1,8,0:0:0:0:
256,200,12739,1,0,0:0:0:0:
264,192,12814,1,0,0:0:0:0:
256,192,12889,1,8,0:0:0:0:
288,184,13039,1,0,0:0:0:0:
280,184,13189,1,8,0:0:0:0:
280,184,13339,1,0,0:0:0:0:
256,184,13489,1,8,0:0:0:0:
272,184,13639,1,0,0:0:0:0:
256,192,13789,1,8,0:0:0:0:
288,184,13939,1,8,0:0:0:0:
288,184,13989,1,8,0:0:0:0:
288,184,14039,1,8,0:0:0:0:
296,184,14089,1,0,0:0:0:0:
320,176,14239,1,0,0:0:0:0:
272,176,14389,1,8,0:0:0:0:
304,176,14539,1,8,0:0:0:0:
304,176,14689,1,0,0:0:0:0:
312,168,14839,1,0,0:0:0:0:
320,176,14989,1,8,0:0:0:0:
288,184,15139,1,0,0:0:0:0:
288,184,15214,1,8,0:0:0:0:
288,184,15289,1,0,0:0:0:0:
296,176,15439,1,0,0:0:0:0:
280,176,15589,1,12,0:0:0:0:
264,176,15739,1,0,0:0:0:0:
272,176,15814,1,0,0:0:0:0:
280,168,15889,1,8,0:0:0:0:
280,168,16039,1,8,0:0:0:0:
272,176,16339,1,8,0:0:0:0:
280,176,16489,1,0,0:0:0:0:
280,176,16639,1,0,0:0:0:0:
296,176,16789,1,8,0:0:0:0:
304,184,16939,1,0,0:0:0:0:
296,176,17089,1,0,0:0:0:0:
296,176,17239,1,0,0:0:0:0:
304,176,17389,1,8,0:0:0:0:
304,176,17539,1,8,0:0:0:0:
288,184,17614,1,0,0:0:0:0:
296,176,17689,1,0,0:0:0:0:
304,168,17839,1,0,0:0:0:0:
296,176,17989,1,8,0:0:0:0:
304,168,18139,1,0,0:0:0:0:
296,168,18289,1,0,0:0:0:0:
296,168,18439,1,0,0:0:0:0:
304,176,18589,1,8,0:0:0:0:
312,160,18739,1,8,0:0:0:0:
304,168,18789,1,0,0:0:0:0:
304,168,18839,1,0,0:0:0:0:
336,160,18889,1,8,0:0:0:0:
328,168,19039,1,8,0:0:0:0:
336,168,19189,1,0,0:0:0:0:
328,168,19339,1,0,0:0:0:0:
328,168,19489,1,8,0:0:0:0:
336,168,19639,1,0,0:0:0:0:
336,168,19789,1,8,0:0:0:0:
344,168,19939,1,4,0:0:0:0:
344,168,20089,1,4,0:0:0:0:
344,168,20239,1,0,0:0:0:0:
344,160,20389,1,8,0:0:0:0:
344,160,20539,1,0,0:0:0:0:
344,160,20689,1,0,0:0:0:0:
344,160,20839,1,0,0:0:0:0:
352,160,20989,1,8,0:0:0:0:
344,152,21139,1,0,0:0:0:0:
344,152,21189,1,0,0:0:0:0:
344,152,21239,1,0,0:0:0:0:
336,152,21289,1,8,0:0:0:0:
352,152,21439,1,0,0:0:0:0:
344,152,21589,1,8,0:0:0:0:
336,144,21739,1,8,0:0:0:0:
344,152,21889,1,0,0:0:0:0:
344,152,22039,1,0,0:0:0:0:
344,128,22189,1,8,0:0:0:0:
336,144,22339,1,8,0:0:0:0:
360,160,22414,1,0,0:0:0:0:
352,152,22489,1,0,0:0:0:0:
344,144,22639,1,0,0:0:0:0:
360,152,22789,1,8,0:0:0:0:
360,152,22939,1,0,0:0:0:0:
352,144,23089,1,8,0:0:0:0:
344,136,23239,1,8,0:0:0:0:
352,144,23389,1,8,0:0:0:0:
344,144,23539,1,0,0:0:0:0:
360,144,23589,1,8,0:0:0:0:
336,144,23639,1,8,0:0:0:0:
344,144,23689,1,0,0:0:0:0:
352,144,23839,1,0,0:0:0:0:
352,136,23989,1,8,0:0:0:0:
352,144,24139,1,0,0:0:0:0:
352,144,24289,1,8,0:0:0:0:
352,144,24439,1,8,0:0:0:0:
360,144,24589,1,8,0:0:0:0:
352,136,24739,1,0,0:0:0:0:
352,136,24814,1,0,0:0:0:0:
352,136,24889,1,0,0:0:0:0:
352,128,25039,1,0,0:0:0:0:
344,128,25189,1,12,0:0:0:0:
264,160,25339,1,0,0:0:0:0:
264,160,25489,1,0,0:0:0:0:
264,160,25639,1,0,0:0:0:0:
272,160,25789,1,8,0:0:0:0:
344,128,25939,1,0,0:0:0:0:
240,176,26014,1,0,0:0:0:0:
264,152,26089,1,0,0:0:0:0:
264,152,26239,1,0,0:0:0:0:
272,144,26389,1,12,0:0:0:0:
280,160,26539,1,0,0:0:0:0:
264,160,26614,1,0,0:0:0:0:
264,160,26689,1,0,0:0:0:0:
240,176,26839,1,0,0:0:0:0:
320,168,26989,1,8,0:0:0:0:
304,208,27139,1,0,0:0:0:0:
296,176,27289,1,0,0:0:0:0:
288,200,27439,1,8,0:0:0:0:
256,184,27589,5,8,0:0:0:0:
272,184,27664,1,8,0:0:0:0:
304,192,27739,1,0,0:0:0:0:
304,192,27814,1,0,0:0:0:0:
272,192,27889,1,8,0:0:0:0:
304,192,27964,1,0,0:0:0:0:
272,192,28039,1,8,0:0:0:0:
304,192,28114,1,0,0:0:0:0:
440,248,28189,1,8,0:0:0:0:
304,192,28264,1,8,0:0:0:0:
304,184,28339,1,0,0:0:0:0:
296,184,28414,1,0,0:0:0:0:
296,184,28489,1,8,0:0:0:0:
304,192,28564,1,0,0:0:0:0:
304,184,28639,1,8,0:0:0:0:
304,192,28714,1,0,0:0:0:0:
304,184,28789,1,8,0:0:0:0:
312,192,28939,1,8,0:0:0:0:
312,192,29089,1,8,0:0:0:0:
312,192,29239,1,8,0:0:0:0:
312,192,29389,1,8,0:0:0:0:
320,192,29539,1,4,0:0:0:0:
320,192,29689,1,4,0:0:0:0:
312,168,29989,1,12,0:0:0:0:
312,176,30139,1,0,0:0:0:0:
320,168,30289,1,8,0:0:0:0:
320,168,30439,1,0,0:0:0:0:
320,168,30589,1,0,0:0:0:0:
320,168,30739,1,0,0:0:0:0:
320,168,30889,1,8,0:0:0:0:
320,160,31039,1,0,0:0:0:0:
312,168,31189,1,12,0:0:0:0:
320,168,31339,1,0,0:0:0:0:
304,168,31489,1,8,0:0:0:0:
304,168,31639,1,0,0:0:0:0:
328,168,31789,1,0,0:0:0:0:
312,160,31939,1,0,0:0:0:0:
312,152,32089,1,8,0:0:0:0:
312,152,32239,1,0,0:0:0:0:
320,160,32389,1,12,0:0:0:0:
320,152,32539,1,0,0:0:0:0:
328,152,32689,1,8,0:0:0:0:
328,144,32839,1,0,0:0:0:0:
352,144,32989,1,0,0:0:0:0:
344,152,33139,1,0,0:0:0:0:
336,152,33289,1,8,0:0:0:0:
352,152,33439,1,0,0:0:0:0:
328,136,33589,1,12,0:0:0:0:
344,144,33739,1,0,0:0:0:0:
352,160,33889,1,8,0:0:0:0:
344,144,34039,1,0,0:0:0:0:
336,144,34189,1,8,0:0:0:0:
336,160,34339,1,8,0:0:0:0:
352,152,34389,1,0,0:0:0:0:
352,152,34439,1,0,0:0:0:0:
352,152,34489,1,8,0:0:0:0:
352,160,34639,1,0,0:0:0:0:
312,168,34789,1,12,0:0:0:0:
312,176,34939,1,0,0:0:0:0:
320,168,35089,1,8,0:0:0:0:
320,168,35239,1,0,0:0:0:0:
320,168,35389,1,0,0:0:0:0:
320,168,35539,1,0,0:0:0:0:
320,168,35689,1,8,0:0:0:0:
320,160,35839,1,0,0:0:0:0:
312,168,35989,1,12,0:0:0:0:
320,168,36139,1,0,0:0:0:0:
304,168,36289,1,8,0:0:0:0:
304,168,36439,1,0,0:0:0:0:
328,168,36589,1,0,0:0:0:0:
312,160,36739,1,0,0:0:0:0:
312,152,36889,1,8,0:0:0:0:
312,152,37039,1,0,0:0:0:0:
320,160,37189,1,12,0:0:0:0:
320,152,37339,1,0,0:0:0:0:
328,152,37489,1,8,0:0:0:0:
328,144,37639,1,0,0:0:0:0:
352,144,37789,1,0,0:0:0:0:
344,152,37939,1,0,0:0:0:0:
336,152,38089,1,8,0:0:0:0:
352,152,38239,1,0,0:0:0:0:
328,136,38389,1,12,0:0:0:0:
344,144,38539,1,0,0:0:0:0:
352,160,38689,1,12,0:0:0:0:
344,144,38839,1,12,0:0:0:0:
336,144,38989,1,12,0:0:0:0:
248,176,39139,1,0,0:0:0:0:
256,176,39189,1,8,0:0:0:0:
256,176,39239,1,8,0:0:0:0:
256,184,39289,1,0,0:0:0:0:
352,160,39439,1,0,0:0:0:0:
248,168,39589,1,4,0:0:0:0:
240,168,39889,1,0,0:0:0:0:
240,168,40189,1,0,0:0:0:0:
232,168,40489,1,0,0:0:0:0:
256,176,40789,1,12,0:0:0:0:
232,176,41089,1,0,0:0:0:0:
232,176,41389,1,0,0:0:0:0:
232,176,41689,1,0,0:0:0:0:
232,240,41989,1,8,0:0:0:0:
248,184,42289,1,0,0:0:0:0:
256,240,42589,1,8,0:0:0:0:
160,176,42889,1,0,0:0:0:0:
256,232,43189,1,8,0:0:0:0:
160,192,43489,1,0,0:0:0:0:
160,192,43589,1,8,0:0:0:0:
160,192,43689,1,8,0:0:0:0:
152,184,43789,1,0,0:0:0:0:
152,184,44089,1,0,0:0:0:0:
272,168,44389,1,8,0:0:0:0:
288,168,44539,1,0,0:0:0:0:
288,168,44689,1,8,0:0:0:0:
296,160,44839,1,0,0:0:0:0:
312,160,44989,1,8,0:0:0:0:
312,160,45139,1,0,0:0:0:0:
304,160,45289,1,0,0:0:0:0:
304,160,45439,1,0,0:0:0:0:
320,168,45589,1,8,0:0:0:0:
320,160,45739,1,0,0:0:0:0:
320,160,45889,1,8,0:0:0:0:
320,160,46039,1,0,0:0:0:0:
320,160,46189,1,8,0:0:0:0:
344,160,46339,1,0,0:0:0:0:
320,160,46489,1,0,0:0:0:0:
352,168,46639,1,0,0:0:0:0:
208,208,46789,1,8,0:0:0:0:
192,200,46864,1,8,0:0:0:0:
216,208,46939,1,0,0:0:0:0:
208,208,47014,1,0,0:0:0:0:
216,208,47089,1,8,0:0:0:0:
224,208,47164,1,0,0:0:0:0:
216,208,47239,1,8,0:0:0:0:
200,216,47314,1,0,0:0:0:0:
176,216,47389,1,8,0:0:0:0:
208,208,47464,1,8,0:0:0:0:
208,208,47539,1,0,0:0:0:0:
248,200,47614,1,0,0:0:0:0:
256,232,47689,1,8,0:0:0:0:
240,192,47764,1,0,0:0:0:0:
216,200,47839,1,8,0:0:0:0:
232,216,47914,1,0,0:0:0:0:
248,200,47989,1,0,0:0:0:0:
248,192,48139,1,8,0:0:0:0:
248,192,48289,1,8,0:0:0:0:
248,192,48439,1,8,0:0:0:0:
248,192,48589,1,8,0:0:0:0:
256,200,48739,1,0,0:0:0:0:
280,208,48789,1,8,0:0:0:0:
280,208,48839,1,8,0:0:0:0:
200,200,48889,1,0,0:0:0:0:
256,200,49039,1,0,0:0:0:0:
208,208,49189,1,8,0:0:0:0:
264,112,49414,1,0,0:0:0:0:
264,112,49489,1,8,0:0:0:0:
272,112,49714,1,8,0:0:0:0:
272,112,49789,1,8,0:0:0:0:
256,264,49989,1,8,0:0:0:0:
256,264,50039,1,8,0:0:0:0:
256,264,50089,1,8,0:0:0:0:
216,176,50314,1,0,0:0:0:0:
224,168,50389,1,8,0:0:0:0:
216,176,50614,1,8,0:0:0:0:
192,176,50689,1,0,0:0:0:0:
208,168,50914,1,0,0:0:0:0:
208,168,50989,1,0,0:0:0:0:
368,208,51289,1,0,0:0:0:0:
224,152,51589,1,4,0:0:0:0:
224,144,51889,1,8,0:0:0:0:
224,128,52114,1,8,0:0:0:0:
224,128,52189,1,8,0:0:0:0:
240,136,52489,1,0,0:0:0:0:
240,144,52789,1,8,0:0:0:0:
240,144,53014,1,0,0:0:0:0:
240,144,53089,1,8,0:0:0:0:
248,152,53314,1,8,0:0:0:0:
256,144,53389,1,0,0:0:0:0:
160,128,53614,1,0,0:0:0:0:
160,128,53689,1,0,0:0:0:0:
288,144,53989,1,8,0:0:0:0:
392,144,54214,1,0,0:0:0:0:
416,128,54289,1,8,0:0:0:0:
400,112,54514,1,8,0:0:0:0:
400,112,54589,1,8,0:0:0:0:
152,208,54814,1,8,0:0:0:0:
160,208,54851,1,8,0:0:0:0:
160,200,54889,1,0,0:0:0:0:
440,184,55114,1,0,0:0:0:0:
448,184,55189,1,8,0:0:0:0:
384,200,55414,1,8,0:0:0:0:
384,200,55489,1,0,0:0:0:0:
392,160,55714,1,8,0:0:0:0:
392,160,55789,1,8,0:0:0:0:
264,168,56089,1,0,0:0:0:0:
272,160,56389,1,4,0:0:0:0:
304,160,56689,1,8,0:0:0:0:
296,168,56914,1,8,0:0:0:0:
296,168,56989,1,8,0:0:0:0:
328,168,57289,1,8,0:0:0:0:
288,168,57589,1,4,0:0:0:0:
320,176,57814,1,8,0:0:0:0:
320,176,57889,1,8,0:0:0:0:
376,144,58114,1,0,0:0:0:0:
384,128,58189,1,8,0:0:0:0:
384,144,58414,1,8,0:0:0:0:
392,152,58489,1,0,0:0:0:0:
312,184,58789,1,4,0:0:0:0:
104,168,59014,1,0,0:0:0:0:
104,160,59089,1,8,0:0:0:0:
104,168,59314,1,8,0:0:0:0:
96,160,59389,1,0,0:0:0:0:
216,160,59589,1,0,0:0:0:0:
216,160,59639,1,0,0:0:0:0:
232,160,59689,1,8,0:0:0:0:
344,144,59914,1,8,0:0:0:0:
360,144,59989,1,0,0:0:0:0:
320,232,60214,1,8,0:0:0:0:
360,232,60289,1,0,0:0:0:0:
360,232,60514,1,0,0:0:0:0:
360,232,60589,1,8,0:0:0:0:
352,192,60889,1,0,0:0:0:0:
296,128,61189,1,4,0:0:0:0:
400,136,61489,1,8,0:0:0:0:
464,168,61714,1,0,0:0:0:0:
416,192,61789,1,8,0:0:0:0:
408,216,62089,1,0,0:0:0:0:
336,192,62389,1,8,0:0:0:0:
416,120,62614,1,8,0:0:0:0:
432,144,62689,1,0,0:0:0:0:
376,192,62914,1,8,0:0:0:0:
400,184,62989,1,0,0:0:0:0:
416,224,63214,1,8,0:0:0:0:
432,264,63289,1,0,0:0:0:0:
256,176,63589,1,0,0:0:0:0:
256,176,63739,1,0,0:0:0:0:
256,168,63889,1,8,0:0:0:0:
328,88,64039,1,0,0:0:0:0:
264,184,64089,1,0,0:0:0:0:
240,176,64139,1,0,0:0:0:0:
256,184,64189,1,8,0:0:0:0:
256,200,64339,1,8,0:0:0:0:
304,96,64389,1,8,0:0:0:0:
336,176,64439,1,8,0:0:0:0:
368,176,64489,1,0,0:0:0:0:
320,208,64639,1,0,0:0:0:0:
424,104,64714,1,0,0:0:0:0:
432,96,64789,1,8,0:0:0:0:
280,224,64939,1,0,0:0:0:0:
440,248,65014,1,8,0:0:0:0:
448,248,65089,1,0,0:0:0:0:
280,224,65239,1,0,0:0:0:0:
272,192,65314,1,0,0:0:0:0:
296,192,65389,1,8,0:0:0:0:
224,72,65539,1,0,0:0:0:0:
416,192,65689,1,8,0:0:0:0:
352,128,65839,1,0,0:0:0:0:
104,104,65989,1,8,0:0:0:0:
304,248,66064,1,0,0:0:0:0:
304,248,66139,1,0,0:0:0:0:
304,248,66214,1,0,0:0:0:0:
216,112,66289,1,8,0:0:0:0:
304,248,66364,1,0,0:0:0:0:
304,248,66439,1,8,0:0:0:0:
208,112,66514,1,0,0:0:0:0:
208,112,66589,1,8,0:0:0:0:
304,248,66664,1,0,0:0:0:0:
368,136,66739,1,8,0:0:0:0:
368,136,66789,1,8,0:0:0:0:
368,136,66839,1,8,0:0:0:0:
224,104,66889,1,0,0:0:0:0:
232,216,66964,1,8,0:0:0:0:
232,216,67039,1,8,0:0:0:0:
232,216,67114,1,8,0:0:0:0:
232,208,67189,1,0,0:0:0:0:
376,208,67414,1,0,0:0:0:0:
392,192,67489,1,8,0:0:0:0:
376,216,67714,1,0,0:0:0:0:
376,224,67789,1,8,0:0:0:0:
312,160,68014,1,8,0:0:0:0:
312,168,68089,1,0,0:0:0:0:
304,120,68239,1,0,0:0:0:0:
296,128,68389,1,4,0:0:0:0:
176,176,68539,1,0,0:0:0:0:
168,176,68689,1,8,0:0:0:0:
176,152,68839,1,0,0:0:0:0:
168,160,68989,1,0,0:0:0:0:
168,160,69139,1,8,0:0:0:0:
312,232,69189,1,8,0:0:0:0:
248,208,69239,1,8,0:0:0:0:
168,160,69289,1,0,0:0:0:0:
384,248,69439,1,0,0:0:0:0:
384,248,69589,1,8,0:0:0:0:
224,168,69739,1,0,0:0:0:0:
224,168,69889,1,0,0:0:0:0:
224,168,70039,1,0,0:0:0:0:
240,176,70189,1,8,0:0:0:0:
368,144,70489,1,8,0:0:0:0:
376,144,70639,1,0,0:0:0:0:
376,144,70789,1,8,0:0:0:0:
384,144,70939,1,0,0:0:0:0:
384,144,71089,1,0,0:0:0:0:
384,136,71239,1,0,0:0:0:0:
376,144,71389,1,8,0:0:0:0:
384,144,71539,1,0,0:0:0:0:
376,144,71589,1,0,0:0:0:0:
376,136,71639,1,0,0:0:0:0:
384,136,71689,1,8,0:0:0:0:
384,136,71839,1,0,0:0:0:0:
408,136,71989,1,8,0:0:0:0:
432,120,72139,1,0,0:0:0:0:
400,128,72289,1,0,0:0:0:0:
400,128,72439,1,0,0:0:0:0:
416,128,72589,1,8,0:0:0:0:
280,208,72889,1,8,0:0:0:0:
272,208,73039,1,0,0:0:0:0:
272,208,73189,1,0,0:0:0:0:
280,208,73639,1,8,0:0:0:0:
280,208,73789,1,8,0:0:0:0:
288,208,73939,1,0,0:0:0:0:
288,208,74089,1,8,0:0:0:0:
296,208,74239,1,0,0:0:0:0:
296,208,74389,1,8,0:0:0:0:
304,208,74539,1,0,0:0:0:0:
304,208,74689,1,8,0:0:0:0:
304,208,74839,1,8,0:0:0:0:
304,208,74989,1,8,0:0:0:0:
200,144,75289,1,8,0:0:0:0:
200,144,75439,1,0,0:0:0:0:
200,152,75589,1,8,0:0:0:0:
216,152,75739,1,0,0:0:0:0:
216,144,75889,1,0,0:0:0:0:
216,144,76039,1,0,0:0:0:0:
216,144,76189,1,8,0:0:0:0:
272,136,76339,1,8,0:0:0:0:
272,136,76389,1,0,0:0:0:0:
272,136,76439,1,0,0:0:0:0:
264,144,76489,1,8,0:0:0:0:
288,144,76639,1,0,0:0:0:0:
280,136,76789,1,8,0:0:0:0:
280,136,76939,1,8,0:0:0:0:
280,136,77089,1,8,0:0:0:0:
280,136,77239,1,0,0:0:0:0:
288,136,77389,1,8,0:0:0:0:
288,136,77539,1,8,0:0:0:0:
280,136,77689,1,0,0:0:0:0:
288,136,77839,1,0,0:0:0:0:
304,136,77989,1,4,0:0:0:0:
304,136,78214,1,0,0:0:0:0:
296,136,78289,1,8,0:0:0:0:
296,136,78439,1,8,0:0:0:0:
296,128,78589,1,0,0:0:0:0:
296,136,78664,1,0,0:0:0:0:
304,136,78739,1,8,0:0:0:0:
264,144,78814,1,0,0:0:0:0:
304,136,78889,1,8,0:0:0:0:
304,136,78964,1,0,0:0:0:0:
304,136,79039,1,0,0:0:0:0:
304,136,79114,1,0,0:0:0:0:
304,128,79189,1,8,0:0:0:0:
304,128,79414,1,0,0:0:0:0:
296,136,79489,1,8,0:0:0:0:
296,136,79639,1,8,0:0:0:0:
224,184,79789,1,8,0:0:0:0:
248,192,79864,1,8,0:0:0:0:
240,192,79939,1,0,0:0:0:0:
240,192,80014,1,0,0:0:0:0:
264,176,80089,1,8,0:0:0:0:
240,192,80164,1,0,0:0:0:0:
240,184,80239,1,0,0:0:0:0:
280,168,80314,1,0,0:0:0:0:
256,184,80389,1,8,0:0:0:0:
240,184,80614,1,0,0:0:0:0:
256,192,80689,1,8,0:0:0:0:
256,192,80839,1,8,0:0:0:0:
272,192,80914,1,0,0:0:0:0:
272,192,80989,1,0,0:0:0:0:
304,168,81139,1,8,0:0:0:0:
304,168,81189,1,0,0:0:0:0:
304,168,81239,1,0,0:0:0:0:
304,168,81289,1,0,0:0:0:0:
320,168,81439,1,0,0:0:0:0:
328,176,81589,1,8,0:0:0:0:
336,176,81814,1,0,0:0:0:0:
336,184,81889,1,8,0:0:0:0:
336,176,82039,1,0,0:0:0:0:
336,176,82114,1,0,0:0:0:0:
336,184,82189,1,8,0:0:0:0:
200,192,82264,1,8,0:0:0:0:
328,184,82339,1,0,0:0:0:0:
328,184,82414,1,8,0:0:0:0:
328,184,82489,1,0,0:0:0:0:
336,192,82564,1,0,0:0:0:0:
336,192,82639,1,0,0:0:0:0:
336,192,82789,1,4,0:0:0:0:
320,200,82939,1,8,0:0:0:0:
304,200,83089,1,0,0:0:0:0:
336,200,83239,1,8,0:0:0:0:
328,200,83389,1,0,0:0:0:0:
336,192,83539,1,8,0:0:0:0:
336,192,83614,1,8,0:0:0:0:
336,192,83689,1,8,0:0:0:0:
336,200,83839,1,0,0:0:0:0:
336,200,83989,1,12,0:0:0:0:
248,184,84139,1,0,0:0:0:0:
248,184,84214,1,0,0:0:0:0:
248,184,84289,1,0,0:0:0:0:
264,184,84439,1,0,0:0:0:0:
232,176,84589,1,8,0:0:0:0:
256,184,84739,1,0,0:0:0:0:
256,184,84814,1,0,0:0:0:0:
256,184,84889,1,8,0:0:0:0:
416,184,85039,1,0,0:0:0:0:
264,184,85189,1,8,0:0:0:0:
272,184,85264,1,0,0:0:0:0:
272,184,85339,1,0,0:0:0:0:
272,184,85414,1,0,0:0:0:0:
264,184,85489,1,8,0:0:0:0:
264,184,85564,1,0,0:0:0:0:
272,176,85639,1,0,0:0:0:0:
264,184,85714,1,8,0:0:0:0:
272,176,85789,1,0,0:0:0:0:
272,176,85864,1,8,0:0:0:0:
336,168,85939,1,0,0:0:0:0:
336,160,85989,1,0,0:0:0:0:
336,160,86039,1,0,0:0:0:0:
352,160,86089,1,8,0:0:0:0:
344,144,86239,1,0,0:0:0:0:
392,176,86389,1,12,0:0:0:0:
392,176,86539,1,8,0:0:0:0:
392,168,86689,1,0,0:0:0:0:
392,168,86839,1,0,0:0:0:0:
416,168,86989,1,8,0:0:0:0:
192,160,87289,1,4,0:0:0:0:
256,104,87589,1,4,0:0:0:0:
232,216,87814,1,0,0:0:0:0:
240,216,87889,1,8,0:0:0:0:
64,208,88039,1,0,0:0:0:0:
192,144,88339,1,0,0:0:0:0:
192,144,88414,1,0,0:0:0:0:
232,144,88489,1,8,0:0:0:0:
368,192,88639,1,8,0:0:0:0:
272,104,88789,1,0,0:0:0:0:
136,240,89014,1,0,0:0:0:0:
200,248,89089,1,8,0:0:0:0:
184,128,89239,1,0,0:0:0:0:
360,176,89539,1,8,0:0:0:0:
368,176,89614,1,0,0:0:0:0:
368,168,89689,1,0,0:0:0:0:
288,160,89839,1,0,0:0:0:0:
440,104,89989,1,8,0:0:0:0:
376,264,90214,1,8,0:0:0:0:
384,272,90289,1,0,0:0:0:0:
168,224,90439,1,0,0:0:0:0:
184,224,90589,1,8,0:0:0:0:
296,144,90739,1,8,0:0:0:0:
304,136,90789,1,0,0:0:0:0:
304,136,90839,1,0,0:0:0:0:
304,136,90889,1,0,0:0:0:0:
400,224,91039,1,0,0:0:0:0:
448,144,91189,1,8,0:0:0:0:
384,136,91414,1,0,0:0:0:0:
408,144,91489,1,8,0:0:0:0:
152,168,91639,1,8,0:0:0:0:
152,168,91714,1,0,0:0:0:0:
152,168,91789,1,8,0:0:0:0:
240,176,91864,1,8,0:0:0:0:
240,184,91939,1,0,0:0:0:0:
408,280,92089,1,8,0:0:0:0:
400,248,92239,1,0,0:0:0:0:
424,160,92389,1,4,0:0:0:0:
312,88,92614,1,0,0:0:0:0:
312,80,92689,1,8,0:0:0:0:
128,128,92839,1,8,0:0:0:0:
344,224,93139,1,8,0:0:0:0:
344,224,93189,1,0,0:0:0:0:
352,216,93239,1,0,0:0:0:0:
344,224,93289,1,0,0:0:0:0:
232,200,93439,1,0,0:0:0:0:
368,120,93589,1,8,0:0:0:0:
168,120,93814,1,0,0:0:0:0:
184,112,93889,1,8,0:0:0:0:
184,112,94039,1,8,0:0:0:0:
184,112,94189,1,8,0:0:0:0:
224,144,94414,1,8,0:0:0:0:
232,112,94489,1,0,0:0:0:0:
344,168,94639,1,0,0:0:0:0:
312,160,94789,1,4,0:0:0:0:
384,96,95014,1,0,0:0:0:0:
368,112,95089,1,8,0:0:0:0:
408,168,95239,1,0,0:0:0:0:
440,96,95389,1,8,0:0:0:0:
248,88,95539,1,8,0:0:0:0:
248,88,95589,1,8,0:0:0:0:
248,88,95639,1,8,0:0:0:0:
232,136,95689,1,0,0:0:0:0:
232,136,95839,1,0,0:0:0:0:
296,216,95989,1,8,0:0:0:0:
408,176,96214,1,0,0:0:0:0:
480,176,96289,1,8,0:0:0:0:
352,128,96439,1,0,0:0:0:0:
384,96,96589,1,8,0:0:0:0:
120,104,96739,1,4,0:0:0:0:
120,112,96889,1,4,0:0:0:0:
272,176,97039,1,0,0:0:0:0:
392,184,97189,1,12,0:0:0:0:
264,96,97414,1,0,0:0:0:0:
264,88,97489,1,8,0:0:0:0:
184,80,97639,1,0,0:0:0:0:
136,192,97939,1,8,0:0:0:0:
136,192,98014,1,8,0:0:0:0:
112,168,98089,1,0,0:0:0:0:
184,192,98239,1,0,0:0:0:0:
248,184,98389,1,8,0:0:0:0:
304,200,98614,1,0,0:0:0:0:
280,200,98689,1,8,0:0:0:0:
400,192,98839,1,8,0:0:0:0:
168,128,99139,1,8,0:0:0:0:
176,120,99189,1,0,0:0:0:0:
176,120,99239,1,0,0:0:0:0:
160,120,99289,1,8,0:0:0:0:
168,120,99439,1,8,0:0:0:0:
152,120,99589,1,0,0:0:0:0:
320,120,99814,1,0,0:0:0:0:
368,112,99889,1,8,0:0:0:0:
288,248,100039,1,8,0:0:0:0:
200,200,100189,1,0,0:0:0:0:
472,200,100339,1,8,0:0:0:0:
472,200,100389,1,8,0:0:0:0:
472,200,100439,1,8,0:0:0:0:
472,200,100489,1,0,0:0:0:0:
336,160,100639,1,0,0:0:0:0:
392,112,100789,1,8,0:0:0:0:
152,80,101014,1,0,0:0:0:0:
168,88,101089,1,8,0:0:0:0:
144,192,101239,1,0,0:0:0:0:
144,192,101314,1,0,0:0:0:0:
144,192,101389,1,8,0:0:0:0:
152,192,101464,1,8,0:0:0:0:
144,192,101539,1,8,0:0:0:0:
152,192,101689,1,8,0:0:0:0:
320,120,101839,1,0,0:0:0:0:
320,120,101989,1,4,0:0:0:0:
368,232,102139,1,8,0:0:0:0:
184,160,102289,1,0,0:0:0:0:
336,160,102439,1,0,0:0:0:0:
504,160,102589,1,8,0:0:0:0:
224,64,102739,1,8,0:0:0:0:
224,64,102789,1,8,0:0:0:0:
224,64,102839,1,8,0:0:0:0:
208,48,102889,1,0,0:0:0:0:
224,64,103039,1,0,0:0:0:0:
272,184,103189,1,12,0:0:0:0:
120,160,103339,1,0,0:0:0:0:
120,168,103414,1,0,0:0:0:0:
120,152,103489,1,8,0:0:0:0:
128,160,103639,1,0,0:0:0:0:
136,152,103789,1,8,0:0:0:0:
200,128,103939,1,0,0:0:0:0:
200,128,104014,1,0,0:0:0:0:
256,136,104089,1,8,0:0:0:0:
256,136,104239,1,0,0:0:0:0:
264,40,104389,1,8,0:0:0:0:
264,40,104464,1,0,0:0:0:0:
256,40,104539,1,8,0:0:0:0:
232,56,104614,1,0,0:0:0:0:
232,56,104689,1,8,0:0:0:0:
256,64,104764,1,0,0:0:0:0:
248,64,104839,1,0,0:0:0:0:
248,64,104914,1,0,0:0:0:0:
248,64,104989,1,8,0:0:0:0:
248,48,105064,1,0,0:0:0:0:
248,48,105139,1,0,0:0:0:0:
240,48,105189,1,0,0:0:0:0:
224,88,105239,1,0,0:0:0:0:
240,40,105289,1,8,0:0:0:0:
256,176,105364,1,0,0:0:0:0:
256,176,105439,1,0,0:0:0:0:
256,176,105514,1,0,0:0:0:0:
248,160,105589,1,8,0:0:0:0:
176,200,105739,1,8,0:0:0:0:
176,200,105889,1,8,0:0:0:0:
176,200,106039,1,8,0:0:0:0:
176,200,106189,1,8,0:0:0:0:
304,192,106339,1,4,0:0:0:0:
304,192,106489,1,4,0:0:0:0:
296,112,106789,1,8,0:0:0:0:
296,112,107014,1,0,0:0:0:0:
288,104,107089,1,8,0:0:0:0:
296,112,107239,1,8,0:0:0:0:
224,256,107389,1,8,0:0:0:0:
224,256,107464,1,0,0:0:0:0:
224,256,107539,1,0,0:0:0:0:
224,256,107614,1,0,0:0:0:0:
240,248,107689,1,8,0:0:0:0:
240,248,107839,1,8,0:0:0:0:
240,248,107989,1,0,0:0:0:0:
240,248,108214,1,0,0:0:0:0:
248,264,108289,1,8,0:0:0:0:
248,264,108439,1,8,0:0:0:0:
224,168,108589,1,8,0:0:0:0:
224,168,108664,1,8,0:0:0:0:
248,160,108739,1,0,0:0:0:0:
240,160,108889,1,0,0:0:0:0:
240,160,109039,1,0,0:0:0:0:
248,160,109189,1,8,0:0:0:0:
248,160,109414,1,0,0:0:0:0:
256,152,109489,1,8,0:0:0:0:
256,152,109639,1,8,0:0:0:0:
264,160,109789,1,0,0:0:0:0:
296,80,109939,1,0,0:0:0:0:
304,80,109989,1,8,0:0:0:0:
304,80,110039,1,8,0:0:0:0:
304,80,110089,1,0,0:0:0:0:
312,80,110239,1,0,0:0:0:0:
312,80,110389,1,8,0:0:0:0:
280,184,110614,1,0,0:0:0:0:
288,176,110689,1,8,0:0:0:0:
288,184,110839,1,8,0:0:0:0:
288,184,110914,1,0,0:0:0:0:
288,184,110989,1,8,0:0:0:0:
280,184,111064,1,0,0:0:0:0:
272,168,111139,1,8,0:0:0:0:
320,208,111289,1,0,0:0:0:0:
296,200,111439,1,0,0:0:0:0:
320,200,111589,1,8,0:0:0:0:
32,96,111814,1,0,0:0:0:0:
40,88,111889,1,8,0:0:0:0:
248,136,112039,1,8,0:0:0:0:
152,216,112339,1,8,0:0:0:0:
152,216,112389,1,8,0:0:0:0:
152,216,112439,1,8,0:0:0:0:
160,216,112489,1,0,0:0:0:0:
48,112,112639,1,0,0:0:0:0:
128,120,112789,1,8,0:0:0:0:
280,152,113014,1,0,0:0:0:0:
280,152,113089,1,8,0:0:0:0:
280,152,113239,1,0,0:0:0:0:
360,240,113389,1,8,0:0:0:0:
240,216,113539,1,8,0:0:0:0:
240,216,113614,1,0,0:0:0:0:
240,216,113689,1,0,0:0:0:0:
256,192,113839,1,0,0:0:0:0:
320,136,113989,1,8,0:0:0:0:
288,144,114214,1,0,0:0:0:0:
216,152,114289,1,8,0:0:0:0:
344,224,114439,1,8,0:0:0:0:
272,296,114589,1,8,0:0:0:0:
448,144,114739,1,8,0:0:0:0:
432,136,114789,1,0,0:0:0:0:
432,136,114839,1,0,0:0:0:0:
424,128,114889,1,8,0:0:0:0:
232,152,115039,1,0,0:0:0:0:
272,152,115189,1,8,0:0:0:0:
384,168,115414,1,8,0:0:0:0:
392,176,115489,1,0,0:0:0:0:
392,176,115639,1,0,0:0:0:0:
440,176,115789,1,8,0:0:0:0:
264,160,115939,1,4,0:0:0:0:
272,152,116089,1,4,0:0:0:0:
248,224,116239,1,0,0:0:0:0:
368,240,116389,1,12,0:0:0:0:
184,176,116614,1,0,0:0:0:0:
400,136,116689,1,8,0:0:0:0:
464,224,116839,1,8,0:0:0:0:
336,176,116989,1,0,0:0:0:0:
328,176,117064,1,0,0:0:0:0:
328,168,117139,1,8,0:0:0:0:
272,168,117214,1,0,0:0:0:0:
304,176,117289,1,0,0:0:0:0:
320,200,117364,1,0,0:0:0:0:
400,176,117439,1,8,0:0:0:0:
408,104,117589,1,4,0:0:0:0:
264,184,117814,1,0,0:0:0:0:
272,184,117889,1,8,0:0:0:0:
320,200,118039,1,0,0:0:0:0:
272,112,118189,1,8,0:0:0:0:
464,152,118339,1,8,0:0:0:0:
456,152,118414,1,0,0:0:0:0:
456,152,118489,1,0,0:0:0:0:
272,192,118564,1,8,0:0:0:0:
448,152,118639,1,0,0:0:0:0:
248,168,118714,1,0,0:0:0:0:
472,136,118789,1,8,0:0:0:0:
336,176,119014,1,0,0:0:0:0:
320,168,119089,1,8,0:0:0:0:
360,168,119239,1,0,0:0:0:0:
352,160,119389,1,8,0:0:0:0:
160,192,119539,1,8,0:0:0:0:
160,192,119589,1,8,0:0:0:0:
160,192,119639,1,8,0:0:0:0:
176,192,119689,1,0,0:0:0:0:
176,192,119839,1,0,0:0:0:0:
192,192,119989,1,8,0:0:0:0:
280,128,120214,1,0,0:0:0:0:
264,128,120289,1,8,0:0:0:0:
272,128,120439,1,0,0:0:0:0:
280,128,120589,1,0,0:0:0:0:
272,216,120664,1,8,0:0:0:0:
272,216,120739,1,8,0:0:0:0:
392,144,120814,1,8,0:0:0:0:
392,136,120889,1,0,0:0:0:0:
384,232,121039,1,8,0:0:0:0:
480,216,121189,1,4,0:0:0:0:
240,144,121339,1,0,0:0:0:0:
240,128,121489,1,8,0:0:0:0:
232,144,121639,1,0,0:0:0:0:
248,136,121789,1,8,0:0:0:0:
344,208,121939,1,0,0:0:0:0:
344,208,121989,1,0,0:0:0:0:
360,200,122039,1,0,0:0:0:0:
352,200,122089,1,8,0:0:0:0:
384,80,122239,1,0,0:0:0:0:
408,128,122389,1,12,0:0:0:0:
416,160,122539,1,8,0:0:0:0:
400,144,122614,1,0,0:0:0:0:
400,144,122689,1,0,0:0:0:0:
88,120,122839,1,0,0:0:0:0:
80,112,122989,1,8,0:0:0:0:
432,104,123139,1,8,0:0:0:0:
408,96,123214,1,0,0:0:0:0:
432,96,123289,1,0,0:0:0:0:
72,224,123439,1,0,0:0:0:0:
256,176,123589,5,8,0:0:0:0:
256,176,123664,1,8,0:0:0:0:
264,184,123739,1,0,0:0:0:0:
272,184,123814,1,0,0:0:0:0:
272,176,123889,1,8,0:0:0:0:
272,176,123964,1,0,0:0:0:0:
272,176,124039,1,8,0:0:0:0:
272,176,124114,1,0,0:0:0:0:
272,176,124189,1,8,0:0:0:0:
280,176,124239,1,0,0:0:0:0:
296,176,124289,1,0,0:0:0:0:
280,176,124339,1,8,0:0:0:0:
280,176,124414,1,0,0:0:0:0:
280,184,124489,1,8,0:0:0:0:
280,184,124564,1,0,0:0:0:0:
280,184,124639,1,0,0:0:0:0:
280,184,124714,1,0,0:0:0:0:
288,168,124789,1,8,0:0:0:0:
280,176,124939,1,0,0:0:0:0:
280,176,125089,1,0,0:0:0:0:
280,176,125239,1,0,0:0:0:0:
280,176,125389,1,0,0:0:0:0:
280,184,125539,1,12,0:0:0:0:
272,168,125689,1,12,0:0:0:0:
256,192,125989,12,0,127189,0:0:0:0:
