osu file format v14

[General]
AudioFilename: audio.mp3
AudioLeadIn: 0
PreviewTime: 74645
Countdown: 0
SampleSet: Normal
StackLeniency: 0.7
Mode: 1
LetterboxInBreaks: 0
WidescreenStoryboard: 0

[Editor]
DistanceSpacing: 1.2
BeatDivisor: 4
GridSize: 32
TimelineZoom: 2.199999

[Metadata]
Title:Be Your Light
TitleUnicode:Be Your Light
Artist:yuki.
ArtistUnicode:yuki.
Creator:davidminh0111
Version:Kantan
Source:osu!
Tags:featured artist fa electronic instrumental Ayyri eiri-
BeatmapID:2337092
BeatmapSetID:1118896

[Difficulty]
HPDrainRate:7
CircleSize:2
OverallDifficulty:3
ApproachRate:10
SliderMultiplier:1.4
SliderTickRate:1

[Events]
//Background and Video events
0,0,"BG.jpg",0,-55
//Break Periods
//Storyboard Layer 0 (Background)
//Storyboard Layer 1 (Fail)
//Storyboard Layer 2 (Pass)
//Storyboard Layer 3 (Foreground)
//Storyboard Layer 4 (Overlay)
//Storyboard Sound Samples

[TimingPoints]
1312,333.333333333333,4,1,0,60,1,0
1312,-100,4,1,0,60,0,0
6645,-100,4,1,0,65,0,0
7978,-100,4,1,0,70,0,0
33311,-100,4,1,0,60,0,0
54645,-100,4,1,0,70,0,0
75978,-100,4,1,0,75,0,1
96978,-100,4,1,0,75,0,0
97311,-100,4,1,0,75,0,1
117311,-100,4,1,0,75,0,0

[HitObjects]
256,192,1312,5,4,0:0:0:0:
256,192,2645,1,0,0:0:0:0:
256,192,3311,1,8,0:0:0:0:
256,192,3978,1,0,0:0:0:0:
256,192,5311,1,0,0:0:0:0:
256,192,5978,1,8,0:0:0:0:
256,192,6311,1,8,0:0:0:0:
256,192,6645,1,4,0:0:0:0:
256,192,7311,1,0,0:0:0:0:
256,192,7645,1,8,0:0:0:0:
256,192,7978,1,4,0:0:0:0:
256,192,8645,1,0,0:0:0:0:
256,192,9311,1,4,0:0:0:0:
256,192,9645,1,8,0:0:0:0:
256,192,9978,1,4,0:0:0:0:
256,192,10311,1,8,0:0:0:0:
256,192,10645,1,8,0:0:0:0:
256,192,11645,1,8,0:0:0:0:
256,192,11978,1,4,0:0:0:0:
256,192,12311,1,0,0:0:0:0:
256,192,12645,1,0,0:0:0:0:
256,192,13311,1,8,0:0:0:0:
256,192,13645,1,8,0:0:0:0:
256,192,13978,1,0,0:0:0:0:
256,192,14311,1,8,0:0:0:0:
256,192,14978,1,8,0:0:0:0:
256,192,15645,1,8,0:0:0:0:
256,192,15978,1,0,0:0:0:0:
256,192,16978,1,8,0:0:0:0:
256,192,17311,1,0,0:0:0:0:
256,192,17978,1,8,0:0:0:0:
256,192,18645,1,8,0:0:0:0:
256,192,18978,1,0,0:0:0:0:
256,192,19311,1,8,0:0:0:0:
256,192,19978,1,0,0:0:0:0:
256,192,20645,1,8,0:0:0:0:
256,192,21311,1,0,0:0:0:0:
256,192,22311,1,8,0:0:0:0:
256,192,22645,1,4,0:0:0:0:
256,192,23311,1,8,0:0:0:0:
256,192,23978,1,0,0:0:0:0:
256,192,24978,1,8,0:0:0:0:
256,192,25311,1,0,0:0:0:0:
256,192,25978,1,8,0:0:0:0:
256,192,26645,1,0,0:0:0:0:
256,192,27645,1,8,0:0:0:0:
256,192,27978,1,4,0:0:0:0:
256,192,28645,1,0,0:0:0:0:
256,192,28978,1,8,0:0:0:0:
256,192,29311,1,4,0:0:0:0:
256,192,29978,1,0,0:0:0:0:
256,192,30311,1,8,0:0:0:0:
256,192,30645,1,4,0:0:0:0:
256,192,31311,1,4,0:0:0:0:
256,192,31978,1,4,0:0:0:0:
256,192,32978,1,12,0:0:0:0:
256,192,33311,1,4,0:0:0:0:
256,192,33978,1,8,0:0:0:0:
256,192,34645,1,0,0:0:0:0:
256,192,35145,1,0,0:0:0:0:
256,192,35645,1,0,0:0:0:0:
256,192,36311,1,8,0:0:0:0:
256,192,36645,1,8,0:0:0:0:
256,192,37311,1,8,0:0:0:0:
256,192,38311,1,8,0:0:0:0:
256,192,38645,1,0,0:0:0:0:
256,192,39311,1,8,0:0:0:0:
256,192,39978,1,0,0:0:0:0:
256,192,40478,1,0,0:0:0:0:
256,192,40978,1,0,0:0:0:0:
256,192,41645,1,8,0:0:0:0:
256,192,41978,1,8,0:0:0:0:
256,192,42311,1,0,0:0:0:0:
256,192,42645,1,8,0:0:0:0:
256,192,43645,1,8,0:0:0:0:
256,192,43978,1,4,0:0:0:0:
256,192,44645,1,8,0:0:0:0:
256,192,45311,1,0,0:0:0:0:
256,192,45811,1,0,0:0:0:0:
256,192,46311,1,0,0:0:0:0:
256,192,46978,1,8,0:0:0:0:
256,192,47311,1,8,0:0:0:0:
256,192,47978,1,8,0:0:0:0:
256,192,48978,1,8,0:0:0:0:
256,192,49311,1,0,0:0:0:0:
256,192,49978,1,8,0:0:0:0:
256,192,50645,1,0,0:0:0:0:
256,192,51145,1,0,0:0:0:0:
256,192,51645,1,0,0:0:0:0:
256,192,52311,1,8,0:0:0:0:
256,192,52645,1,8,0:0:0:0:
256,192,52978,1,0,0:0:0:0:
256,192,53311,1,12,0:0:0:0:
256,192,54311,1,8,0:0:0:0:
256,192,54645,1,4,0:0:0:0:
256,192,55978,1,0,0:0:0:0:
256,192,56645,1,0,0:0:0:0:
256,192,56978,1,8,0:0:0:0:
256,192,57311,1,0,0:0:0:0:
256,192,58645,1,0,0:0:0:0:
256,192,59311,1,8,0:0:0:0:
256,192,59645,1,8,0:0:0:0:
256,192,59978,1,0,0:0:0:0:
256,192,61311,1,0,0:0:0:0:
256,192,61978,1,0,0:0:0:0:
256,192,62311,1,8,0:0:0:0:
256,192,62645,1,0,0:0:0:0:
256,192,63978,1,0,0:0:0:0:
256,192,64645,1,8,0:0:0:0:
256,192,64978,1,8,0:0:0:0:
256,192,65311,1,4,0:0:0:0:
256,192,65978,1,0,0:0:0:0:
256,192,66645,1,0,0:0:0:0:
256,192,67311,1,0,0:0:0:0:
256,192,67978,1,4,0:0:0:0:
256,192,68645,1,0,0:0:0:0:
256,192,69311,1,0,0:0:0:0:
256,192,70645,1,4,0:0:0:0:
256,192,70978,1,0,0:0:0:0:
256,192,71311,1,0,0:0:0:0:
256,192,71978,1,4,0:0:0:0:
256,192,72311,1,0,0:0:0:0:
256,192,72645,1,0,0:0:0:0:
256,192,73311,1,4,0:0:0:0:
256,192,73645,1,8,0:0:0:0:
256,192,73978,1,4,0:0:0:0:
256,192,74645,1,4,0:0:0:0:
256,192,75645,1,4,0:0:0:0:
256,192,75978,1,4,0:0:0:0:
256,192,76645,1,8,0:0:0:0:
256,192,77311,1,0,0:0:0:0:
256,192,77978,1,0,0:0:0:0:
256,192,78311,1,8,0:0:0:0:
256,192,78645,1,0,0:0:0:0:
256,192,79311,1,8,0:0:0:0:
256,192,79978,1,0,0:0:0:0:
256,192,80978,1,8,0:0:0:0:
256,192,81311,1,0,0:0:0:0:
256,192,81978,1,8,0:0:0:0:
256,192,82645,1,0,0:0:0:0:
256,192,83311,1,8,0:0:0:0:
256,192,83645,1,8,0:0:0:0:
256,192,83978,1,0,0:0:0:0:
256,192,84978,1,8,0:0:0:0:
256,192,85311,1,0,0:0:0:0:
256,192,85978,1,8,0:0:0:0:
256,192,86311,1,8,0:0:0:0:
256,192,86645,1,4,0:0:0:0:
256,192,87311,1,8,0:0:0:0:
256,192,87978,1,0,0:0:0:0:
256,192,88645,1,0,0:0:0:0:
256,192,88978,1,8,0:0:0:0:
256,192,89311,1,0,0:0:0:0:
256,192,89978,1,8,0:0:0:0:
256,192,90645,1,0,0:0:0:0:
256,192,91645,1,8,0:0:0:0:
256,192,91978,1,4,0:0:0:0:
256,192,92645,1,8,0:0:0:0:
256,192,93311,1,4,0:0:0:0:
256,192,93978,1,8,0:0:0:0:
256,192,94311,1,8,0:0:0:0:
256,192,94645,1,4,0:0:0:0:
256,192,95311,1,4,0:0:0:0:
256,192,95978,1,4,0:0:0:0:
256,192,96978,1,8,0:0:0:0:
256,192,97311,1,4,0:0:0:0:
256,192,97645,1,8,0:0:0:0:
256,192,97978,1,0,0:0:0:0:
256,192,98645,1,0,0:0:0:0:
256,192,99645,1,8,0:0:0:0:
256,192,99978,1,0,0:0:0:0:
256,192,100311,1,8,0:0:0:0:
256,192,100645,1,0,0:0:0:0:
256,192,101311,1,0,0:0:0:0:
256,192,101978,1,0,0:0:0:0:
256,192,102311,1,8,0:0:0:0:
256,192,102645,1,0,0:0:0:0:
256,192,102978,1,8,0:0:0:0:
256,192,103311,1,0,0:0:0:0:
256,192,103978,1,0,0:0:0:0:
256,192,104978,1,8,0:0:0:0:
256,192,105311,1,0,0:0:0:0:
256,192,105645,1,8,0:0:0:0:
256,192,105978,1,0,0:0:0:0:
256,192,106645,1,0,0:0:0:0:
256,192,107645,1,8,0:0:0:0:
256,192,107978,1,4,0:0:0:0:
256,192,108311,1,0,0:0:0:0:
256,192,108645,1,0,0:0:0:0:
256,192,108978,1,8,0:0:0:0:
256,192,109311,1,0,0:0:0:0:
256,192,110311,1,8,0:0:0:0:
256,192,110645,1,0,0:0:0:0:
256,192,110978,1,8,0:0:0:0:
256,192,111311,1,8,0:0:0:0:
256,192,111645,1,0,0:0:0:0:
256,192,111978,1,0,0:0:0:0:
256,192,112978,1,8,0:0:0:0:
256,192,113311,1,4,0:0:0:0:
256,192,113645,1,0,0:0:0:0:
256,192,113978,1,0,0:0:0:0:
256,192,114645,1,4,0:0:0:0:
256,192,114978,1,0,0:0:0:0:
256,192,115311,1,8,0:0:0:0:
256,192,115645,1,0,0:0:0:0:
256,192,115978,1,4,0:0:0:0:
256,192,116645,1,4,0:0:0:0:
256,192,116978,1,8,0:0:0:0:
256,192,117311,1,4,0:0:0:0:
256,192,117645,1,8,0:0:0:0:
256,192,118311,1,8,0:0:0:0:
256,192,118645,1,12,0:0:0:0:
