osu file format v14

[General]
AudioFilename: audio.mp3
AudioLeadIn: 0
PreviewTime: 74645
Countdown: 0
SampleSet: Normal
StackLeniency: 0.7
Mode: 1
LetterboxInBreaks: 0
WidescreenStoryboard: 0

[Editor]
DistanceSpacing: 1
BeatDivisor: 4
GridSize: 32
TimelineZoom: 1.400003

[Metadata]
Title:Be Your Light
TitleUnicode:Be Your Light
Artist:yuki.
ArtistUnicode:yuki.
Creator:Rhytoly
Version:Muzukashii
Source:osu!
Tags:白雪 fa featured artist electro
BeatmapID:1837013
BeatmapSetID:878344

[Difficulty]
HPDrainRate:6
CircleSize:5
OverallDifficulty:5
ApproachRate:5
SliderMultiplier:1.4
SliderTickRate:1

[Events]
//Background and Video events
0,0,"ok neputi.jpg",0,-50
//Break Periods
//Storyboard Layer 0 (Background)
//Storyboard Layer 1 (Fail)
//Storyboard Layer 2 (Pass)
//Storyboard Layer 3 (Foreground)
//Storyboard Sound Samples

[TimingPoints]
1312.35747971388,333.333333333333,4,1,0,80,1,0
75979,-95.2380952380952,4,1,0,80,0,1
95979,-95.2380952380952,4,1,0,80,0,0
97312,-90.9090909090909,4,1,0,80,0,1
117312,-90.9090909090909,4,1,0,80,0,0
117979,-95.2380952380952,4,1,0,80,0,0
118145,-96.3855421686747,4,1,0,80,0,0
118312,-97.5609756097561,4,1,0,80,0,0
118645,-100,4,1,0,80,0,0

[HitObjects]
266,103,1312,5,4,0:0:0:0:
175,119,1479,1,8,0:0:0:0:
19,152,1979,1,0,0:0:0:0:
190,123,2229,1,8,0:0:0:0:
190,123,2479,1,0,0:0:0:0:
214,110,2645,1,0,0:0:0:0:
214,110,2812,1,8,0:0:0:0:
214,110,3062,1,8,0:0:0:0:
217,72,3312,1,0,0:0:0:0:
217,72,3812,1,8,0:0:0:0:
217,72,3979,1,0,0:0:0:0:
183,133,4479,1,0,0:0:0:0:
237,137,4729,1,8,0:0:0:0:
237,137,4979,1,8,0:0:0:0:
174,152,5145,1,8,0:0:0:0:
191,137,5312,1,0,0:0:0:0:
359,112,5479,1,8,0:0:0:0:
359,112,5729,1,0,0:0:0:0:
148,100,5979,1,8,0:0:0:0:
314,63,6645,1,4,0:0:0:0:
247,124,6812,1,8,0:0:0:0:
149,121,7062,1,8,0:0:0:0:
174,112,7312,1,0,0:0:0:0:
174,112,7562,1,8,0:0:0:0:
174,112,7812,1,0,0:0:0:0:
174,112,7979,1,4,0:0:0:0:
346,78,8145,1,8,0:0:0:0:
149,121,8395,5,8,0:0:0:0:
174,112,8645,1,0,0:0:0:0:
174,112,8895,1,8,0:0:0:0:
174,112,9145,1,8,0:0:0:0:
174,112,9312,1,4,0:0:0:0:
338,134,9645,5,8,0:0:0:0:
247,66,9812,1,0,0:0:0:0:
62,52,9979,1,8,0:0:0:0:
160,128,10062,1,8,0:0:0:0:
209,64,10145,1,8,0:0:0:0:
309,98,10312,1,8,0:0:0:0:
309,98,10479,1,0,0:0:0:0:
293,99,10645,1,12,0:0:0:0:
442,64,11145,1,8,0:0:0:0:
398,124,11312,1,0,0:0:0:0:
398,124,11645,1,8,0:0:0:0:
398,124,11979,1,4,0:0:0:0:
221,128,12312,1,8,0:0:0:0:
384,95,12645,1,0,0:0:0:0:
342,95,12812,1,0,0:0:0:0:
225,130,12979,1,8,0:0:0:0:
368,95,13312,1,8,0:0:0:0:
368,95,13479,1,0,0:0:0:0:
280,127,13645,1,8,0:0:0:0:
280,127,13729,1,8,0:0:0:0:
414,100,13812,1,8,0:0:0:0:
410,195,13979,1,0,0:0:0:0:
410,195,14312,1,8,0:0:0:0:
413,67,14479,1,8,0:0:0:0:
123,65,14645,1,0,0:0:0:0:
419,253,15145,1,0,0:0:0:0:
206,108,15312,1,8,0:0:0:0:
206,108,15645,1,0,0:0:0:0:
235,108,15812,1,0,0:0:0:0:
366,100,15979,1,8,0:0:0:0:
303,68,16312,1,0,0:0:0:0:
213,77,16479,1,0,0:0:0:0:
219,44,16645,1,8,0:0:0:0:
272,47,16812,1,0,0:0:0:0:
391,190,16895,1,0,0:0:0:0:
207,79,16979,1,0,0:0:0:0:
307,139,17145,1,8,0:0:0:0:
144,85,17312,1,0,0:0:0:0:
411,228,17812,1,0,0:0:0:0:
178,122,17979,1,8,0:0:0:0:
384,198,18145,1,0,0:0:0:0:
178,122,18312,1,8,0:0:0:0:
321,78,18645,1,8,0:0:0:0:
423,187,18812,1,0,0:0:0:0:
382,128,18979,1,8,0:0:0:0:
382,128,19062,1,8,0:0:0:0:
382,128,19145,1,8,0:0:0:0:
382,128,19312,1,0,0:0:0:0:
425,285,19645,1,8,0:0:0:0:
425,285,19812,1,8,0:0:0:0:
347,84,19979,1,0,0:0:0:0:
181,14,20479,1,0,0:0:0:0:
368,115,20645,1,8,0:0:0:0:
272,117,20979,1,0,0:0:0:0:
261,102,21145,1,0,0:0:0:0:
375,137,21312,1,8,0:0:0:0:
376,137,21645,1,8,0:0:0:0:
376,137,21812,1,8,0:0:0:0:
376,137,21979,1,0,0:0:0:0:
203,63,22145,1,8,0:0:0:0:
376,137,22229,1,8,0:0:0:0:
177,135,22312,1,8,0:0:0:0:
183,91,22479,1,8,0:0:0:0:
137,125,22645,1,4,0:0:0:0:
426,207,22979,1,8,0:0:0:0:
231,127,23145,1,0,0:0:0:0:
231,127,23229,1,0,0:0:0:0:
231,127,23312,1,0,0:0:0:0:
186,124,23479,1,8,0:0:0:0:
186,124,23645,1,8,0:0:0:0:
231,127,23812,1,0,0:0:0:0:
186,124,23979,1,8,0:0:0:0:
275,129,24312,1,8,0:0:0:0:
275,129,24479,1,0,0:0:0:0:
275,129,24562,1,0,0:0:0:0:
234,130,24645,1,0,0:0:0:0:
384,172,24812,1,0,0:0:0:0:
350,117,24979,1,8,0:0:0:0:
395,168,25145,1,8,0:0:0:0:
332,188,25312,1,0,0:0:0:0:
140,80,25812,1,0,0:0:0:0:
126,129,25979,1,8,0:0:0:0:
160,96,26145,1,0,0:0:0:0:
166,129,26312,1,8,0:0:0:0:
380,132,26395,1,8,0:0:0:0:
169,43,26479,1,8,0:0:0:0:
359,109,26645,1,0,0:0:0:0:
359,109,26979,1,8,0:0:0:0:
287,124,27145,1,8,0:0:0:0:
404,233,27312,1,0,0:0:0:0:
404,233,27479,1,0,0:0:0:0:
404,102,27562,1,0,0:0:0:0:
287,124,27645,1,0,0:0:0:0:
299,84,27812,1,8,0:0:0:0:
326,102,27979,1,4,0:0:0:0:
357,113,28312,1,0,0:0:0:0:
409,145,28479,1,0,0:0:0:0:
409,145,28645,1,8,0:0:0:0:
256,128,28812,1,0,0:0:0:0:
409,145,28979,1,8,0:0:0:0:
409,145,29145,1,8,0:0:0:0:
258,63,29312,1,4,0:0:0:0:
357,113,29645,1,8,0:0:0:0:
409,145,29812,1,0,0:0:0:0:
409,145,29979,1,8,0:0:0:0:
409,145,30145,1,8,0:0:0:0:
409,145,30312,1,0,0:0:0:0:
409,145,30479,1,8,0:0:0:0:
190,17,30645,1,4,0:0:0:0:
357,117,30979,1,8,0:0:0:0:
357,117,31145,1,0,0:0:0:0:
357,117,31312,1,8,0:0:0:0:
357,117,31395,1,8,0:0:0:0:
357,117,31479,1,8,0:0:0:0:
357,117,31645,1,0,0:0:0:0:
357,117,31812,1,8,0:0:0:0:
357,117,31979,1,4,0:0:0:0:
375,157,32479,1,8,0:0:0:0:
406,174,32645,1,0,0:0:0:0:
406,174,32979,1,8,0:0:0:0:
276,63,33312,1,4,0:0:0:0:
95,131,33479,1,0,0:0:0:0:
163,110,33645,1,8,0:0:0:0:
379,193,33979,1,8,0:0:0:0:
309,118,34312,1,0,0:0:0:0:
276,102,34645,1,0,0:0:0:0:
351,107,34979,1,8,0:0:0:0:
351,107,35145,1,0,0:0:0:0:
351,107,35645,1,8,0:0:0:0:
276,63,35979,1,0,0:0:0:0:
95,131,36145,1,0,0:0:0:0:
163,110,36312,1,8,0:0:0:0:
379,193,36646,1,8,0:0:0:0:
309,118,36979,1,0,0:0:0:0:
276,102,37312,1,8,0:0:0:0:
351,107,37645,1,8,0:0:0:0:
351,107,37812,1,8,0:0:0:0:
351,107,38312,1,8,0:0:0:0:
276,63,38645,1,0,0:0:0:0:
319,101,38812,1,0,0:0:0:0:
163,110,38979,1,8,0:0:0:0:
379,193,39312,1,8,0:0:0:0:
309,118,39645,1,0,0:0:0:0:
276,102,39978,1,0,0:0:0:0:
351,107,40312,1,8,0:0:0:0:
351,107,40478,1,0,0:0:0:0:
351,107,40978,1,8,0:0:0:0:
276,63,41312,1,0,0:0:0:0:
95,131,41478,1,0,0:0:0:0:
163,110,41645,1,8,0:0:0:0:
379,193,41979,1,8,0:0:0:0:
309,118,42312,1,0,0:0:0:0:
276,102,42645,1,8,0:0:0:0:
376,158,42979,1,8,0:0:0:0:
351,107,43145,1,8,0:0:0:0:
280,83,43478,1,0,0:0:0:0:
351,107,43645,1,8,0:0:0:0:
221,55,43979,1,4,0:0:0:0:
319,101,44145,1,0,0:0:0:0:
212,52,44312,1,8,0:0:0:0:
379,193,44645,1,8,0:0:0:0:
309,118,44978,1,0,0:0:0:0:
276,102,45311,1,0,0:0:0:0:
351,107,45645,1,8,0:0:0:0:
351,107,45811,1,0,0:0:0:0:
351,107,46311,1,8,0:0:0:0:
280,83,46478,1,8,0:0:0:0:
276,63,46645,1,0,0:0:0:0:
95,131,46811,1,0,0:0:0:0:
163,110,46978,1,8,0:0:0:0:
379,193,47312,1,8,0:0:0:0:
309,118,47645,1,0,0:0:0:0:
276,102,47978,1,8,0:0:0:0:
351,107,48311,1,8,0:0:0:0:
351,107,48478,1,8,0:0:0:0:
351,107,48978,1,8,0:0:0:0:
351,107,49145,1,0,0:0:0:0:
276,63,49311,1,0,0:0:0:0:
319,101,49478,1,0,0:0:0:0:
163,110,49645,1,8,0:0:0:0:
379,193,49978,1,8,0:0:0:0:
309,118,50311,1,0,0:0:0:0:
276,102,50644,1,0,0:0:0:0:
351,107,50978,1,8,0:0:0:0:
351,107,51144,1,0,0:0:0:0:
351,107,51644,1,8,0:0:0:0:
280,83,51811,1,8,0:0:0:0:
276,63,51978,1,0,0:0:0:0:
95,131,52144,1,0,0:0:0:0:
163,110,52311,1,8,0:0:0:0:
379,193,52645,1,8,0:0:0:0:
309,118,52978,1,0,0:0:0:0:
276,102,53311,1,12,0:0:0:0:
426,198,53645,1,0,0:0:0:0:
351,107,53811,1,8,0:0:0:0:
351,107,54311,1,8,0:0:0:0:
31,94,54645,1,4,0:0:0:0:
173,115,54812,1,8,0:0:0:0:
17,148,55312,1,0,0:0:0:0:
188,119,55562,1,8,0:0:0:0:
188,119,55812,1,0,0:0:0:0:
212,106,55978,1,0,0:0:0:0:
212,106,56145,1,8,0:0:0:0:
212,106,56395,1,8,0:0:0:0:
215,68,56645,1,0,0:0:0:0:
215,68,57145,1,8,0:0:0:0:
215,68,57312,1,0,0:0:0:0:
181,129,57812,1,0,0:0:0:0:
235,133,58062,1,8,0:0:0:0:
235,133,58312,1,8,0:0:0:0:
172,148,58479,1,8,0:0:0:0:
189,133,58645,1,0,0:0:0:0:
357,108,58812,1,8,0:0:0:0:
357,108,59062,1,0,0:0:0:0:
146,96,59312,1,8,0:0:0:0:
160,109,59979,1,0,0:0:0:0:
173,115,60145,1,8,0:0:0:0:
17,148,60645,1,0,0:0:0:0:
188,119,60895,1,8,0:0:0:0:
188,119,61145,1,0,0:0:0:0:
212,106,61311,1,0,0:0:0:0:
212,106,61478,1,8,0:0:0:0:
212,106,61728,1,8,0:0:0:0:
215,68,61978,1,0,0:0:0:0:
215,68,62478,1,8,0:0:0:0:
215,68,62645,1,0,0:0:0:0:
181,129,63145,1,0,0:0:0:0:
235,133,63395,1,8,0:0:0:0:
235,133,63645,1,8,0:0:0:0:
172,148,63811,1,8,0:0:0:0:
189,133,63978,1,0,0:0:0:0:
357,108,64145,1,8,0:0:0:0:
357,108,64395,1,0,0:0:0:0:
146,96,64645,1,8,0:0:0:0:
312,59,65312,1,4,0:0:0:0:
344,74,65478,1,8,0:0:0:0:
172,108,65978,1,0,0:0:0:0:
172,108,66228,1,8,0:0:0:0:
172,108,66479,1,0,0:0:0:0:
172,108,66645,1,0,0:0:0:0:
344,74,66812,1,8,0:0:0:0:
147,117,67062,1,8,0:0:0:0:
172,108,67312,1,0,0:0:0:0:
172,108,67812,1,0,0:0:0:0:
172,108,67979,1,4,0:0:0:0:
344,74,68145,1,8,0:0:0:0:
172,108,68645,1,0,0:0:0:0:
172,108,68895,1,8,0:0:0:0:
172,108,69146,1,0,0:0:0:0:
172,108,69312,1,0,0:0:0:0:
344,74,69479,1,8,0:0:0:0:
147,117,69729,1,8,0:0:0:0:
172,108,69979,1,0,0:0:0:0:
172,108,70479,1,0,0:0:0:0:
172,108,70645,1,4,0:0:0:0:
349,192,70812,1,8,0:0:0:0:
210,87,71062,1,8,0:0:0:0:
188,158,71312,1,0,0:0:0:0:
188,158,71479,1,8,0:0:0:0:
252,107,71729,1,8,0:0:0:0:
274,124,71979,5,4,0:0:0:0:
349,192,72145,1,8,0:0:0:0:
210,87,72395,1,8,0:0:0:0:
188,158,72645,1,0,0:0:0:0:
188,158,72812,1,8,0:0:0:0:
252,107,73062,1,8,0:0:0:0:
236,118,73312,1,4,0:0:0:0:
351,196,73646,1,0,0:0:0:0:
179,163,73812,1,8,0:0:0:0:
212,91,73979,1,0,0:0:0:0:
190,162,74146,1,0,0:0:0:0:
190,162,74229,1,0,0:0:0:0:
254,111,74312,1,0,0:0:0:0:
254,111,74479,1,8,0:0:0:0:
293,129,74645,1,4,0:0:0:0:
399,182,75145,1,8,0:0:0:0:
120,117,75312,1,0,0:0:0:0:
399,182,75645,1,12,0:0:0:0:
312,127,75979,1,4,0:0:0:0:
339,95,76312,1,8,0:0:0:0:
339,95,76479,1,8,0:0:0:0:
345,207,76645,1,0,0:0:0:0:
245,31,76895,1,8,0:0:0:0:
399,194,77145,1,0,0:0:0:0:
188,130,77312,1,8,0:0:0:0:
383,207,77395,1,8,0:0:0:0:
208,128,77479,1,8,0:0:0:0:
191,59,77645,1,0,0:0:0:0:
343,114,77812,1,8,0:0:0:0:
208,128,77979,1,0,0:0:0:0:
208,128,78229,1,8,0:0:0:0:
311,110,78479,1,8,0:0:0:0:
405,245,78645,1,0,0:0:0:0:
404,140,79145,1,8,0:0:0:0:
257,74,79312,1,0,0:0:0:0:
404,140,79645,1,8,0:0:0:0:
247,120,79812,1,8,0:0:0:0:
341,220,79979,5,0,0:0:0:0:
381,173,80145,1,8,0:0:0:0:
356,202,80479,1,0,0:0:0:0:
191,95,80645,1,8,0:0:0:0:
191,95,80812,1,8,0:0:0:0:
191,95,80895,1,8,0:0:0:0:
191,95,80979,1,8,0:0:0:0:
153,127,81312,1,0,0:0:0:0:
157,127,81645,1,8,0:0:0:0:
339,95,81812,1,8,0:0:0:0:
345,207,81979,1,0,0:0:0:0:
399,194,82229,1,8,0:0:0:0:
399,194,82479,1,0,0:0:0:0:
188,130,82646,1,8,0:0:0:0:
410,214,82729,1,8,0:0:0:0:
208,128,82813,1,8,0:0:0:0:
75,58,82979,1,0,0:0:0:0:
208,128,83145,1,8,0:0:0:0:
208,128,83312,1,0,0:0:0:0:
208,128,83563,1,8,0:0:0:0:
256,64,83812,1,8,0:0:0:0:
405,245,83979,1,0,0:0:0:0:
404,140,84479,1,8,0:0:0:0:
367,172,84645,1,0,0:0:0:0:
218,18,84979,5,8,0:0:0:0:
404,140,85145,1,0,0:0:0:0:
197,117,85313,1,0,0:0:0:0:
128,128,85479,1,8,0:0:0:0:
451,301,85812,1,0,0:0:0:0:
191,95,85979,1,8,0:0:0:0:
191,95,86146,1,8,0:0:0:0:
199,38,86229,1,8,0:0:0:0:
191,95,86312,1,8,0:0:0:0:
268,47,86479,1,8,0:0:0:0:
312,127,86645,1,4,0:0:0:0:
339,95,86979,1,8,0:0:0:0:
339,95,87145,1,8,0:0:0:0:
345,207,87311,1,0,0:0:0:0:
399,194,87561,1,8,0:0:0:0:
399,194,87811,1,0,0:0:0:0:
188,130,87978,1,8,0:0:0:0:
212,46,88062,1,8,0:0:0:0:
208,128,88145,1,8,0:0:0:0:
102,45,88312,1,0,0:0:0:0:
208,128,88479,1,8,0:0:0:0:
208,128,88645,1,0,0:0:0:0:
208,128,88895,1,8,0:0:0:0:
243,56,89145,1,8,0:0:0:0:
405,245,89311,1,0,0:0:0:0:
404,140,89811,1,8,0:0:0:0:
339,111,89979,1,0,0:0:0:0:
404,140,90312,1,8,0:0:0:0:
404,140,90479,1,8,0:0:0:0:
197,117,90645,1,0,0:0:0:0:
101,112,90812,1,8,0:0:0:0:
155,62,91145,1,0,0:0:0:0:
191,95,91311,1,8,0:0:0:0:
191,95,91479,1,8,0:0:0:0:
169,99,91562,1,8,0:0:0:0:
191,95,91645,1,8,0:0:0:0:
153,127,91978,1,4,0:0:0:0:
339,95,92312,1,8,0:0:0:0:
339,95,92479,1,8,0:0:0:0:
345,207,92645,1,0,0:0:0:0:
154,90,92812,1,0,0:0:0:0:
399,194,92979,1,8,0:0:0:0:
188,130,93312,1,4,0:0:0:0:
208,128,93645,1,8,0:0:0:0:
223,124,93812,1,8,0:0:0:0:
208,128,93979,1,0,0:0:0:0:
243,56,94145,1,8,0:0:0:0:
208,128,94312,1,8,0:0:0:0:
405,245,94645,1,4,0:0:0:0:
404,140,94979,1,0,0:0:0:0:
73,119,95145,1,0,0:0:0:0:
404,140,95312,1,12,0:0:0:0:
404,140,95645,1,8,0:0:0:0:
404,140,95811,1,8,0:0:0:0:
197,117,95979,1,4,0:0:0:0:
118,109,96479,1,0,0:0:0:0:
191,95,96645,1,8,0:0:0:0:
191,95,96979,1,12,0:0:0:0:
312,127,97312,1,4,0:0:0:0:
339,95,97645,1,8,0:0:0:0:
339,95,97812,1,8,0:0:0:0:
345,207,97978,1,0,0:0:0:0:
245,31,98228,1,8,0:0:0:0:
113,52,98312,1,0,0:0:0:0:
399,194,98478,1,0,0:0:0:0:
188,130,98645,1,8,0:0:0:0:
383,207,98728,1,8,0:0:0:0:
208,128,98812,1,8,0:0:0:0:
191,59,98978,1,0,0:0:0:0:
343,114,99145,1,8,0:0:0:0:
208,128,99312,1,0,0:0:0:0:
208,128,99562,1,8,0:0:0:0:
314,98,99645,1,0,0:0:0:0:
311,110,99812,1,8,0:0:0:0:
405,245,99978,1,0,0:0:0:0:
421,218,100479,1,8,0:0:0:0:
257,74,100645,1,0,0:0:0:0:
404,140,100979,1,8,0:0:0:0:
292,45,101145,1,8,0:0:0:0:
341,220,101312,5,0,0:0:0:0:
381,173,101479,1,8,0:0:0:0:
356,202,101812,1,0,0:0:0:0:
191,95,101978,1,8,0:0:0:0:
191,95,102145,1,8,0:0:0:0:
191,95,102228,1,8,0:0:0:0:
191,95,102312,1,8,0:0:0:0:
153,127,102645,1,0,0:0:0:0:
157,127,102978,1,8,0:0:0:0:
339,95,103145,1,8,0:0:0:0:
345,207,103312,1,0,0:0:0:0:
399,194,103562,1,8,0:0:0:0:
396,206,103645,1,0,0:0:0:0:
399,194,103812,1,0,0:0:0:0:
188,130,103979,1,8,0:0:0:0:
410,214,104062,1,8,0:0:0:0:
208,128,104146,1,8,0:0:0:0:
75,58,104312,1,0,0:0:0:0:
208,128,104478,1,8,0:0:0:0:
208,128,104645,1,0,0:0:0:0:
208,128,104896,1,8,0:0:0:0:
356,157,104979,1,0,0:0:0:0:
256,64,105145,1,8,0:0:0:0:
405,245,105312,1,0,0:0:0:0:
404,140,105812,1,8,0:0:0:0:
367,172,105979,1,0,0:0:0:0:
218,18,106312,5,8,0:0:0:0:
197,117,106478,1,0,0:0:0:0:
404,140,106646,1,0,0:0:0:0:
128,128,106812,1,8,0:0:0:0:
271,52,107145,1,0,0:0:0:0:
191,95,107312,1,8,0:0:0:0:
191,95,107479,1,8,0:0:0:0:
199,38,107562,1,8,0:0:0:0:
191,95,107645,1,8,0:0:0:0:
268,47,107812,1,8,0:0:0:0:
312,127,107978,1,4,0:0:0:0:
339,95,108312,1,8,0:0:0:0:
339,95,108478,1,8,0:0:0:0:
345,207,108644,1,0,0:0:0:0:
399,194,108894,1,8,0:0:0:0:
416,220,108979,1,0,0:0:0:0:
399,194,109144,1,0,0:0:0:0:
188,130,109311,1,8,0:0:0:0:
212,46,109395,1,8,0:0:0:0:
208,128,109478,1,8,0:0:0:0:
102,45,109645,1,0,0:0:0:0:
208,128,109812,1,8,0:0:0:0:
208,128,109978,1,0,0:0:0:0:
208,128,110228,1,8,0:0:0:0:
369,162,110312,1,0,0:0:0:0:
243,56,110478,1,8,0:0:0:0:
405,245,110644,1,0,0:0:0:0:
404,140,111145,1,8,0:0:0:0:
404,140,111312,1,0,0:0:0:0:
197,117,111645,1,8,0:0:0:0:
404,140,111812,1,8,0:0:0:0:
308,77,111979,1,0,0:0:0:0:
345,103,112145,1,8,0:0:0:0:
155,62,112478,1,0,0:0:0:0:
191,95,112644,1,8,0:0:0:0:
191,95,112812,1,8,0:0:0:0:
169,99,112895,1,8,0:0:0:0:
191,95,112978,1,8,0:0:0:0:
153,127,113311,1,4,0:0:0:0:
339,95,113645,1,8,0:0:0:0:
339,95,113812,1,8,0:0:0:0:
345,207,113978,1,0,0:0:0:0:
154,90,114145,1,0,0:0:0:0:
399,194,114312,1,8,0:0:0:0:
246,67,114479,1,8,0:0:0:0:
188,130,114645,1,4,0:0:0:0:
208,128,114978,1,8,0:0:0:0:
223,124,115145,1,8,0:0:0:0:
208,128,115312,1,0,0:0:0:0:
243,56,115478,1,8,0:0:0:0:
208,128,115645,1,8,0:0:0:0:
105,93,115812,1,8,0:0:0:0:
405,245,115978,1,4,0:0:0:0:
404,140,116312,1,0,0:0:0:0:
73,119,116478,1,0,0:0:0:0:
404,140,116645,1,12,0:0:0:0:
162,121,116812,1,0,0:0:0:0:
170,120,116895,1,0,0:0:0:0:
170,120,116979,1,0,0:0:0:0:
404,140,117145,1,8,0:0:0:0:
197,117,117312,1,4,0:0:0:0:
191,95,117979,1,8,0:0:0:0:
54,55,118145,1,8,0:0:0:0:
191,95,118312,1,8,0:0:0:0:
312,127,118645,1,4,0:0:0:0:
