osu file format v14

[General]
AudioFilename: audio.mp3
AudioLeadIn: 0
PreviewTime: 74645
Countdown: 0
SampleSet: Normal
StackLeniency: 0.7
Mode: 1
LetterboxInBreaks: 0
WidescreenStoryboard: 1

[Editor]
DistanceSpacing: 1
BeatDivisor: 4
GridSize: 32
TimelineZoom: 1.000003

[Metadata]
Title:Be Your Light
TitleUnicode:Be Your Light
Artist:yuki.
ArtistUnicode:yuki.
Creator:Rhytoly
Version:Futsuu
Source:osu!
Tags:白雪 fa featured artist electro
BeatmapID:1837011
BeatmapSetID:878344

[Difficulty]
HPDrainRate:6.5
CircleSize:5
OverallDifficulty:4.5
ApproachRate:5
SliderMultiplier:1.4
SliderTickRate:1

[Events]
//Background and Video events
0,0,"ok neputi.jpg",0,-50
//Break Periods
//Storyboard Layer 0 (Background)
//Storyboard Layer 1 (Fail)
//Storyboard Layer 2 (Pass)
//Storyboard Layer 3 (Foreground)
//Storyboard Sound Samples

[TimingPoints]
1312.35747971388,333.333333333333,4,1,0,80,1,0
75979,-100,4,1,0,80,0,1
95979,-100,4,1,0,80,0,0
97312,-95.2380952380952,4,1,0,80,0,1
117312,-95.2380952380952,4,1,0,80,0,0
117979,-97.5609756097561,4,1,0,80,0,0
118312,-98.7654320987654,4,1,0,80,0,0
118645,-100,4,1,0,80,0,0

[HitObjects]
266,103,1312,5,4,0:0:0:0:
19,152,1979,1,0,0:0:0:0:
190,123,2479,1,0,0:0:0:0:
214,110,2645,1,8,0:0:0:0:
217,72,3312,1,0,0:0:0:0:
217,72,3812,1,8,0:0:0:0:
217,72,3979,1,0,0:0:0:0:
226,52,4479,5,8,0:0:0:0:
237,137,4979,1,8,0:0:0:0:
191,137,5312,1,0,0:0:0:0:
148,100,5979,1,8,0:0:0:0:
314,63,6645,1,4,0:0:0:0:
174,112,7312,1,0,0:0:0:0:
174,112,7645,1,8,0:0:0:0:
174,112,7979,1,4,0:0:0:0:
174,112,8645,1,8,0:0:0:0:
174,112,8979,1,8,0:0:0:0:
174,112,9312,1,4,0:0:0:0:
338,134,9645,1,8,0:0:0:0:
62,52,9979,1,8,0:0:0:0:
209,64,10145,1,8,0:0:0:0:
309,98,10312,1,8,0:0:0:0:
293,99,10645,1,12,0:0:0:0:
398,124,11312,1,0,0:0:0:0:
248,76,11645,1,8,0:0:0:0:
398,124,11979,1,4,0:0:0:0:
332,99,12312,1,8,0:0:0:0:
384,95,12645,1,0,0:0:0:0:
410,195,12812,1,0,0:0:0:0:
225,130,12979,1,8,0:0:0:0:
368,95,13312,1,8,0:0:0:0:
141,91,13645,1,0,0:0:0:0:
413,67,13812,1,8,0:0:0:0:
414,100,13979,1,0,0:0:0:0:
410,195,14312,1,8,0:0:0:0:
131,61,14645,1,0,0:0:0:0:
206,108,15312,1,8,0:0:0:0:
206,108,15645,1,0,0:0:0:0:
235,108,15812,1,0,0:0:0:0:
366,100,15979,1,8,0:0:0:0:
80,83,16312,1,0,0:0:0:0:
307,139,16645,1,8,0:0:0:0:
207,79,16979,1,0,0:0:0:0:
307,139,17145,1,8,0:0:0:0:
131,87,17312,1,0,0:0:0:0:
178,122,17979,1,8,0:0:0:0:
178,122,18145,1,0,0:0:0:0:
178,122,18312,1,8,0:0:0:0:
321,78,18645,1,0,0:0:0:0:
291,72,18979,1,8,0:0:0:0:
425,285,19145,1,8,0:0:0:0:
382,128,19312,1,0,0:0:0:0:
425,285,19645,1,8,0:0:0:0:
347,84,19979,1,0,0:0:0:0:
368,115,20645,1,8,0:0:0:0:
272,117,20979,1,0,0:0:0:0:
261,102,21145,1,0,0:0:0:0:
375,137,21312,1,8,0:0:0:0:
451,270,21645,1,0,0:0:0:0:
376,137,21979,1,8,0:0:0:0:
177,135,22312,1,8,0:0:0:0:
171,88,22479,1,8,0:0:0:0:
137,125,22645,1,4,0:0:0:0:
231,127,23312,1,0,0:0:0:0:
186,124,23645,1,8,0:0:0:0:
186,124,23812,1,0,0:0:0:0:
186,124,23979,1,8,0:0:0:0:
275,129,24312,1,8,0:0:0:0:
234,130,24645,1,0,0:0:0:0:
347,155,24979,1,8,0:0:0:0:
236,113,25145,1,8,0:0:0:0:
350,117,25312,1,0,0:0:0:0:
126,129,25979,1,8,0:0:0:0:
166,129,26312,1,0,0:0:0:0:
150,76,26645,1,0,0:0:0:0:
160,96,26812,1,0,0:0:0:0:
359,109,26979,1,8,0:0:0:0:
359,109,27312,1,8,0:0:0:0:
181,78,27645,1,0,0:0:0:0:
181,78,27812,1,8,0:0:0:0:
326,102,27979,1,4,0:0:0:0:
397,108,28312,1,8,0:0:0:0:
409,145,28645,1,0,0:0:0:0:
256,128,28812,1,0,0:0:0:0:
409,145,28979,1,8,0:0:0:0:
258,63,29312,1,4,0:0:0:0:
357,113,29645,1,8,0:0:0:0:
409,145,29979,1,8,0:0:0:0:
409,145,30145,1,0,0:0:0:0:
409,145,30312,1,8,0:0:0:0:
190,17,30645,1,4,0:0:0:0:
357,117,30979,1,0,0:0:0:0:
357,117,31145,1,0,0:0:0:0:
357,117,31312,1,12,0:0:0:0:
100,64,31645,1,8,0:0:0:0:
169,28,31812,1,8,0:0:0:0:
357,117,31979,1,4,0:0:0:0:
406,174,32645,1,0,0:0:0:0:
406,174,32979,1,8,0:0:0:0:
276,63,33312,1,4,0:0:0:0:
434,290,33645,1,8,0:0:0:0:
379,193,33979,1,8,0:0:0:0:
276,102,34645,1,0,0:0:0:0:
351,107,35145,1,8,0:0:0:0:
276,63,35645,1,0,0:0:0:0:
388,173,35979,1,0,0:0:0:0:
163,110,36312,1,8,0:0:0:0:
379,193,36646,1,8,0:0:0:0:
276,102,37312,1,8,0:0:0:0:
351,107,37812,1,0,0:0:0:0:
280,83,38312,1,8,0:0:0:0:
416,233,38645,1,0,0:0:0:0:
163,110,38979,1,8,0:0:0:0:
379,193,39312,1,8,0:0:0:0:
276,102,39978,1,0,0:0:0:0:
351,107,40479,1,8,0:0:0:0:
351,107,40979,1,0,0:0:0:0:
276,63,41312,1,0,0:0:0:0:
163,110,41645,1,8,0:0:0:0:
379,193,41979,1,8,0:0:0:0:
276,102,42645,1,8,0:0:0:0:
376,158,43145,1,0,0:0:0:0:
280,83,43645,1,8,0:0:0:0:
221,55,43979,1,4,0:0:0:0:
379,193,44645,1,8,0:0:0:0:
309,118,44978,1,0,0:0:0:0:
276,102,45311,1,0,0:0:0:0:
351,107,45812,1,8,0:0:0:0:
351,107,46312,1,0,0:0:0:0:
276,63,46645,1,0,0:0:0:0:
163,110,46978,1,8,0:0:0:0:
379,193,47312,1,8,0:0:0:0:
309,118,47645,1,0,0:0:0:0:
276,102,47978,1,8,0:0:0:0:
351,107,48479,1,0,0:0:0:0:
280,83,48979,1,8,0:0:0:0:
276,63,49311,1,0,0:0:0:0:
379,193,49978,1,8,0:0:0:0:
309,118,50311,1,0,0:0:0:0:
276,102,50644,1,0,0:0:0:0:
351,107,51145,1,8,0:0:0:0:
351,107,51645,1,0,0:0:0:0:
276,63,51978,1,0,0:0:0:0:
163,110,52311,1,8,0:0:0:0:
379,193,52645,1,8,0:0:0:0:
309,118,52978,1,0,0:0:0:0:
276,102,53311,1,12,0:0:0:0:
319,101,54645,1,4,0:0:0:0:
19,152,55312,1,0,0:0:0:0:
214,110,55812,1,0,0:0:0:0:
190,123,55978,1,8,0:0:0:0:
217,72,56645,1,0,0:0:0:0:
217,72,57145,1,8,0:0:0:0:
217,72,57312,1,0,0:0:0:0:
237,137,57812,1,8,0:0:0:0:
237,137,58312,1,8,0:0:0:0:
191,137,58645,1,0,0:0:0:0:
148,100,59312,1,8,0:0:0:0:
162,113,59979,1,0,0:0:0:0:
19,152,60645,1,0,0:0:0:0:
190,123,61145,1,0,0:0:0:0:
214,110,61311,1,8,0:0:0:0:
217,72,61978,1,0,0:0:0:0:
217,72,62478,1,8,0:0:0:0:
217,72,62645,1,0,0:0:0:0:
237,137,63145,1,8,0:0:0:0:
237,137,63645,1,8,0:0:0:0:
191,137,63978,1,0,0:0:0:0:
148,100,64645,1,8,0:0:0:0:
314,63,65311,1,4,0:0:0:0:
174,112,65978,1,8,0:0:0:0:
174,112,66312,1,8,0:0:0:0:
174,112,66645,1,0,0:0:0:0:
174,112,67312,1,8,0:0:0:0:
174,112,67645,1,8,0:0:0:0:
174,112,67978,1,4,0:0:0:0:
174,112,68645,1,8,0:0:0:0:
174,112,68979,1,8,0:0:0:0:
174,112,69312,1,0,0:0:0:0:
174,112,69979,1,8,0:0:0:0:
174,112,70312,1,8,0:0:0:0:
174,112,70645,1,4,0:0:0:0:
284,51,70979,1,8,0:0:0:0:
190,162,71312,1,8,0:0:0:0:
142,127,71479,1,0,0:0:0:0:
254,111,71645,1,8,0:0:0:0:
276,128,71979,1,4,0:0:0:0:
351,196,72312,1,8,0:0:0:0:
179,163,72645,1,8,0:0:0:0:
190,162,72812,1,0,0:0:0:0:
254,111,72979,1,8,0:0:0:0:
216,55,73312,1,4,0:0:0:0:
179,163,73646,1,8,0:0:0:0:
351,196,73812,1,0,0:0:0:0:
212,91,73979,1,12,0:0:0:0:
126,92,74312,1,0,0:0:0:0:
159,51,74479,1,8,0:0:0:0:
293,129,74645,1,4,0:0:0:0:
120,117,75312,1,0,0:0:0:0:
399,182,75645,1,12,0:0:0:0:
312,127,75979,1,4,0:0:0:0:
55,79,76312,1,0,0:0:0:0:
282,98,76479,1,8,0:0:0:0:
345,207,76645,1,0,0:0:0:0:
245,31,76979,1,8,0:0:0:0:
80,97,77312,1,0,0:0:0:0:
141,44,77479,1,8,0:0:0:0:
343,114,77812,1,8,0:0:0:0:
208,128,77979,1,0,0:0:0:0:
208,128,78312,1,8,0:0:0:0:
405,245,78645,1,0,0:0:0:0:
257,74,79312,1,0,0:0:0:0:
404,140,79645,1,8,0:0:0:0:
197,117,79979,1,0,0:0:0:0:
161,113,80145,1,8,0:0:0:0:
419,191,80479,1,0,0:0:0:0:
191,95,80645,1,8,0:0:0:0:
191,95,80812,1,8,0:0:0:0:
191,95,80979,1,0,0:0:0:0:
153,127,81312,1,0,0:0:0:0:
444,270,81645,1,0,0:0:0:0:
339,95,81812,1,8,0:0:0:0:
345,207,81979,1,0,0:0:0:0:
399,194,82312,1,8,0:0:0:0:
188,130,82646,1,0,0:0:0:0:
208,128,82812,1,8,0:0:0:0:
326,93,83145,1,8,0:0:0:0:
208,128,83312,1,0,0:0:0:0:
208,128,83645,1,8,0:0:0:0:
405,245,83979,1,0,0:0:0:0:
367,172,84645,1,0,0:0:0:0:
404,140,84979,1,8,0:0:0:0:
197,117,85313,1,0,0:0:0:0:
128,128,85479,1,8,0:0:0:0:
191,95,85812,1,8,0:0:0:0:
356,115,85979,1,0,0:0:0:0:
191,95,86146,1,0,0:0:0:0:
191,95,86312,1,8,0:0:0:0:
312,127,86645,1,4,0:0:0:0:
335,114,86979,1,0,0:0:0:0:
339,95,87145,1,8,0:0:0:0:
345,207,87311,1,0,0:0:0:0:
399,194,87645,1,8,0:0:0:0:
188,130,87978,1,0,0:0:0:0:
208,128,88145,1,8,0:0:0:0:
208,128,88479,1,8,0:0:0:0:
208,128,88645,1,0,0:0:0:0:
208,128,88979,1,8,0:0:0:0:
405,245,89311,1,0,0:0:0:0:
339,111,89979,1,0,0:0:0:0:
197,117,90311,1,8,0:0:0:0:
404,140,90645,1,0,0:0:0:0:
404,140,90812,1,8,0:0:0:0:
308,77,91145,1,0,0:0:0:0:
191,95,91311,1,8,0:0:0:0:
191,95,91479,1,8,0:0:0:0:
191,95,91645,1,0,0:0:0:0:
153,127,91978,1,4,0:0:0:0:
339,95,92312,1,8,0:0:0:0:
345,207,92645,1,0,0:0:0:0:
154,103,92812,1,0,0:0:0:0:
399,194,92979,1,8,0:0:0:0:
188,130,93312,1,4,0:0:0:0:
208,128,93645,1,8,0:0:0:0:
208,128,93979,1,8,0:0:0:0:
195,72,94145,1,0,0:0:0:0:
208,128,94312,1,8,0:0:0:0:
405,245,94645,1,4,0:0:0:0:
404,140,94979,1,0,0:0:0:0:
275,103,95145,1,0,0:0:0:0:
404,140,95312,1,12,0:0:0:0:
404,140,95645,1,8,0:0:0:0:
404,140,95811,1,8,0:0:0:0:
197,117,95979,1,4,0:0:0:0:
191,95,96645,1,8,0:0:0:0:
191,95,96979,1,12,0:0:0:0:
312,127,97312,1,4,0:0:0:0:
55,79,97645,1,0,0:0:0:0:
282,98,97812,1,8,0:0:0:0:
345,207,97978,1,0,0:0:0:0:
245,31,98312,1,8,0:0:0:0:
80,97,98645,1,0,0:0:0:0:
141,44,98812,1,8,0:0:0:0:
343,114,99145,1,8,0:0:0:0:
208,128,99312,1,0,0:0:0:0:
208,128,99645,1,8,0:0:0:0:
452,329,99812,1,8,0:0:0:0:
405,245,99978,1,0,0:0:0:0:
257,74,100645,1,0,0:0:0:0:
404,140,100978,1,8,0:0:0:0:
197,117,101312,1,0,0:0:0:0:
161,113,101478,1,8,0:0:0:0:
419,191,101812,1,0,0:0:0:0:
191,95,101978,1,8,0:0:0:0:
191,95,102145,1,8,0:0:0:0:
191,95,102312,1,0,0:0:0:0:
153,127,102645,1,0,0:0:0:0:
444,270,102978,1,0,0:0:0:0:
339,95,103145,1,8,0:0:0:0:
345,207,103312,1,0,0:0:0:0:
399,194,103645,1,8,0:0:0:0:
188,130,103979,1,0,0:0:0:0:
208,128,104145,1,8,0:0:0:0:
326,93,104478,1,8,0:0:0:0:
208,128,104645,1,0,0:0:0:0:
208,128,104978,1,8,0:0:0:0:
219,42,105145,1,8,0:0:0:0:
405,245,105312,1,0,0:0:0:0:
367,172,105978,1,0,0:0:0:0:
404,140,106312,1,8,0:0:0:0:
197,117,106646,1,0,0:0:0:0:
128,128,106812,1,8,0:0:0:0:
191,95,107145,1,8,0:0:0:0:
356,115,107312,1,0,0:0:0:0:
191,95,107479,1,0,0:0:0:0:
191,95,107645,1,8,0:0:0:0:
312,127,107978,1,4,0:0:0:0:
335,114,108312,1,0,0:0:0:0:
339,95,108478,1,8,0:0:0:0:
345,207,108644,1,0,0:0:0:0:
399,194,108978,1,8,0:0:0:0:
188,130,109311,1,0,0:0:0:0:
208,128,109478,1,8,0:0:0:0:
208,128,109812,1,8,0:0:0:0:
208,128,109978,1,0,0:0:0:0:
208,128,110312,1,8,0:0:0:0:
316,114,110479,1,8,0:0:0:0:
405,245,110644,1,0,0:0:0:0:
339,111,111312,1,0,0:0:0:0:
197,117,111644,1,8,0:0:0:0:
404,140,111978,1,0,0:0:0:0:
404,140,112145,1,8,0:0:0:0:
308,77,112478,1,0,0:0:0:0:
191,95,112644,1,8,0:0:0:0:
191,95,112812,1,8,0:0:0:0:
191,95,112978,1,0,0:0:0:0:
153,127,113311,1,4,0:0:0:0:
339,95,113645,1,8,0:0:0:0:
345,207,113978,1,0,0:0:0:0:
154,103,114145,1,0,0:0:0:0:
399,194,114312,1,8,0:0:0:0:
188,130,114645,1,4,0:0:0:0:
208,128,114978,1,8,0:0:0:0:
208,128,115312,1,8,0:0:0:0:
195,72,115478,1,0,0:0:0:0:
208,128,115645,1,8,0:0:0:0:
405,245,115978,1,4,0:0:0:0:
404,140,116312,1,0,0:0:0:0:
121,37,116479,1,0,0:0:0:0:
404,140,116645,1,12,0:0:0:0:
404,140,116978,1,8,0:0:0:0:
404,140,117144,1,8,0:0:0:0:
197,117,117312,1,4,0:0:0:0:
191,95,117979,1,8,0:0:0:0:
191,95,118312,1,8,0:0:0:0:
312,127,118645,1,4,0:0:0:0:
