osu file format v14

[General]
AudioFilename: yuki. - Be Your Light.mp3
AudioLeadIn: 0
PreviewTime: 75979
Countdown: 0
SampleSet: Soft
StackLeniency: 0.7
Mode: 0
LetterboxInBreaks: 0
WidescreenStoryboard: 1

[Editor]
Bookmarks: 6645,9312,9979,10645,11979,22645,27979,30645,31979,33312,54645,65312,70645,75979,86645,97312,113312,115979,117312,118645
DistanceSpacing: 1.8
BeatDivisor: 4
GridSize: 4
TimelineZoom: 1.5

[Metadata]
Title:Be Your Light
TitleUnicode:Be Your Light
Artist:yuki.
ArtistUnicode:白雪
Creator:- AzRaeL -
Version:ICY's Extra
Source:osu!
Tags:Featured Artists Electronic J-Core ゆき. ユキ. ice08311 leo16834
BeatmapID:1331504
BeatmapSetID:627154

[Difficulty]
HPDrainRate:7
CircleSize:4.2
OverallDifficulty:9
ApproachRate:9.2
SliderMultiplier:2.4
SliderTickRate:1

[Events]
//Background and Video events
0,0,"BG.png",0,0
//Break Periods
2,54845,64742
//Storyboard Layer 0 (Background)
//Storyboard Layer 1 (Fail)
//Storyboard Layer 2 (Pass)
//Storyboard Layer 3 (Foreground)
//Storyboard Sound Samples

[TimingPoints]
-21,333.333333333333,4,2,1,50,1,0
1312,-166.666666666667,4,2,1,50,0,0
5978,-166.666666666667,4,2,1,55,0,0
5979,-166.666666666667,4,2,1,55,0,0
6145,-166.666666666667,4,2,1,60,0,0
6312,-125,4,2,1,65,0,0
6478,-125,4,2,1,70,0,0
6479,-125,4,2,1,70,0,0
6645,-111.111111111111,4,1,1,75,0,0
10645,-111.111111111111,4,2,1,50,0,0
11978,-111.111111111111,4,2,1,75,0,0
11979,-100,4,2,1,75,0,0
15645,-66.6666666666667,4,1,1,75,0,0
15978,-66.6666666666667,4,2,1,75,0,0
15979,-100,4,2,1,75,0,0
17312,-100,4,2,1,75,0,0
18645,-100,4,2,1,75,0,0
19979,-100,4,2,1,75,0,0
20978,-66.6666666666667,4,1,1,75,0,0
21312,-100,4,2,1,75,0,0
22312,-66.6666666666667,4,2,1,75,0,0
22645,-83.3333333333333,4,2,1,75,0,0
27978,-83.3333333333333,4,1,1,75,0,0
27979,-83.3333333333333,4,1,1,75,0,0
32645,-83.3333333333333,4,2,1,75,0,0
32978,-166.666666666667,4,2,1,75,0,0
33312,-133.333333333333,4,2,1,50,0,0
43978,-133.333333333333,4,2,1,60,0,0
53312,-133.333333333333,4,1,1,80,0,0
53395,-133.333333333333,4,2,1,60,0,0
54645,-133.333333333333,4,1,1,80,0,0
65312,-133.333333333333,4,2,1,30,0,0
67978,-133.333333333333,4,2,1,40,0,0
67979,-133.333333333333,4,2,1,40,0,0
70645,-133.333333333333,4,2,1,50,0,0
71145,-133.333333333333,4,1,1,50,0,0
71312,-133.333333333333,4,2,1,50,0,0
71812,-133.333333333333,4,1,1,50,0,0
71978,-133.333333333333,4,2,1,60,0,0
71979,-133.333333333333,4,2,1,60,0,0
72478,-133.333333333333,4,1,1,60,0,0
72479,-133.333333333333,4,1,1,60,0,0
72645,-133.333333333333,4,2,1,60,0,0
73145,-133.333333333333,4,1,1,60,0,0
73312,-133.333333333333,4,1,1,70,0,0
73979,-133.333333333333,4,1,1,70,0,0
74645,-133.333333333333,4,1,1,100,0,0
74978,-166.666666666667,4,1,1,100,0,0
75312,-133.333333333333,4,1,1,100,0,0
75978,-83.3333333333333,4,1,1,90,0,1
80645,-66.6666666666667,4,1,1,90,0,1
81312,-83.3333333333333,4,1,1,90,0,1
85978,-66.6666666666667,4,1,1,90,0,0
86645,-83.3333333333333,4,1,1,90,0,1
91312,-66.6666666666667,4,1,1,90,0,1
91979,-83.3333333333333,4,1,1,90,0,1
95979,-74.0740740740741,4,1,1,90,0,1
96979,-58.8235294117647,4,1,1,90,0,1
97312,-100,4,2,1,100,0,0
97395,-100,4,2,1,80,0,0
107978,-100,4,2,1,100,0,0
107979,-100,4,2,1,100,0,0
108062,-100,4,2,1,80,0,0
113312,-100,4,1,1,100,0,0
113395,-100,4,1,1,80,0,0
114645,-100,4,1,1,100,0,0
114728,-100,4,1,1,80,0,0
114729,-100,4,1,1,80,0,0
115978,-100,4,1,1,100,0,0
115979,-100,4,1,1,100,0,0
116062,-100,4,1,1,80,0,0
117312,-100,4,1,1,100,0,0
117395,-100,4,2,1,80,0,0
118645,-100,4,1,1,100,0,0
118728,-100,4,2,1,80,0,0
118729,-100,4,2,1,80,0,0
118978,-100,4,2,1,70,0,0
118979,-100,4,2,1,70,0,0
119312,-100,4,2,1,60,0,0
119645,-100,4,2,1,50,0,0
119978,-100,4,2,1,40,0,0
119979,-100,4,2,1,40,0,0
120312,-100,4,2,1,30,0,0
120645,-100,4,2,1,20,0,0
120978,-100,4,2,1,10,0,0
120979,-100,4,2,1,10,0,0
121312,-100,4,2,1,5,0,0

[Colours]
Combo1 : 255,170,170
Combo2 : 155,205,255
Combo3 : 192,192,192
Combo4 : 134,255,255

[HitObjects]
462,200,1312,6,0,L|466:236,2,35.9999989013672,4|0|0,0:0|0:0|0:0,0:0:0:0:
393,272,1645,1,0,0:0:0:0:
393,272,1728,2,0,P|359:281|323:277,1,71.9999978027345,0|0,0:0|0:0,0:0:0:0:
289,255,1978,2,0,P|234:242|211:244,1,71.9999978027344,0|0,0:0|0:0,0:0:0:0:
184,253,2228,2,0,L|190:181,1,71.9999978027344,0|0,0:0|0:0,0:0:0:0:
195,145,2478,1,0,0:0:0:0:
289,255,2645,6,0,L|286:290,1,35.9999989013672,0|0,0:0|0:0,0:0:0:0:
230,337,2812,2,0,P|195:328|159:327,1,71.9999978027345,0|0,0:0|0:0,0:0:0:0:
126,341,3062,2,0,P|90:339|55:330,1,71.9999978027345,0|0,0:0|0:0,0:0:0:0:
28,306,3312,1,0,0:0:0:0:
88,244,3478,1,0,0:0:0:0:
88,244,3562,2,0,L|78:172,1,71.9999978027344,0|0,0:0|0:0,0:0:0:0:
69,100,3812,1,0,0:0:0:0:
222,201,3979,6,0,P|257:206|293:203,1,71.9999978027344,0|0,0:0|0:0,0:0:0:0:
325,187,4228,2,0,P|360:183|396:188,1,71.9999978027345,0|0,0:0|0:0,0:0:0:0:
421,215,4478,1,0,0:0:0:0:
442,320,4645,1,0,0:0:0:0:
442,320,4729,2,0,P|407:323|374:310,1,71.9999978027345,0|0,0:0|0:0,0:0:0:0:
342,291,4979,1,0,0:0:0:0:
243,348,5145,1,0,0:0:0:0:
151,278,5312,6,0,L|146:242,2,35.9999989013672,0|0|0,0:0|0:0|0:0,0:0:0:0:
246,209,5645,1,0,0:0:0:0:
246,209,5728,2,0,P|245:173|251:137,1,71.9999978027344,0|0,0:0|0:0,0:0:0:0:
392,182,5979,6,0,P|409:185|427:184,1,35.9999989013672,2|0,0:0|0:0,0:0:0:0:
432,79,6145,2,0,P|414:75|396:76,1,35.9999989013672,2|0,0:0|0:0,0:0:0:0:
385,197,6312,2,0,P|408:201|432:198,1,48,2|0,0:0|0:0,0:0:0:0:
440,69,6478,2,0,P|416:64|392:67,1,48,2|0,0:0|0:0,0:0:0:0:
245,136,6645,6,0,L|242:189,2,53.9999983520508,4|0|0,0:0|0:0|0:0,0:0:0:0:
164,65,6979,1,0,0:0:0:0:
164,65,7062,2,0,L|156:172,1,107.999996704102,0|0,0:0|0:0,0:0:0:0:
76,189,7312,2,0,L|68:296,1,107.999996704102,0|0,0:0|0:0,0:0:0:0:
138,337,7562,1,0,0:0:0:0:
138,337,7645,2,0,P|163:346|190:346,1,53.9999983520508,0|0,0:0|0:0,0:0:0:0:
246,287,7812,2,0,P|271:277|298:277,1,53.9999983520508,0|0,0:0|0:0,0:0:0:0:
410,323,7978,6,0,L|414:376,2,53.9999983520508,4|0|0,0:0|0:0|0:0,0:0:0:0:
458,233,8312,1,0,0:0:0:0:
458,233,8395,2,0,P|444:182|445:128,1,107.999996704102,0|0,0:0|0:0,0:0:0:0:
363,121,8645,2,0,P|364:67|349:15,1,107.999996704102,0|0,0:0|0:0,0:0:0:0:
274,47,8895,1,0,0:0:0:0:
273,47,8978,2,0,P|246:48|220:47,1,53.9999983520508,0|0,0:0|0:0,0:0:0:0:
147,126,9145,2,0,P|173:123|200:126,1,53.9999983520508,0|0,0:0|0:0,0:0:0:0:
276,169,9312,5,2,0:0:0:0:
160,226,9478,1,0,0:0:0:0:
281,271,9645,1,0,0:0:0:0:
129,216,9812,1,0,0:0:0:0:
292,154,9978,6,0,L|239:151,1,53.9999983520508,2|0,0:0|0:0,0:0:0:0:
103,208,10145,2,0,L|156:205,1,53.9999983520508,0|0,0:0|0:0,0:0:0:0:
293,256,10312,2,0,L|240:253,1,53.9999983520508,0|0,0:0|0:0,0:0:0:0:
82,199,10478,2,0,L|135:196,1,53.9999983520508,0|0,0:0|0:0,0:0:0:0:
300,143,10645,5,4,0:0:0:0:
300,143,10978,1,0,0:0:0:0:
355,236,11145,1,0,0:0:0:0:
386,64,11312,1,0,0:0:0:0:
386,64,11395,1,0,0:0:0:0:
386,64,11478,1,0,0:0:0:0:
300,143,11645,6,0,B|272:149|272:149|248:139,1,53.9999983520508,0|0,0:0|0:0,0:0:0:0:
151,130,11812,2,0,B|127:120|127:120|99:126,1,53.9999983520508,0|0,0:0|0:0,0:0:0:0:
38,200,11978,5,6,0:0:0:0:
197,254,12145,1,0,0:0:0:0:
204,85,12312,1,2,0:0:0:0:
317,172,12478,1,0,0:0:0:0:
317,172,12562,1,0,0:0:0:0:
317,172,12645,1,2,0:0:0:0:
226,91,12812,1,0,0:0:0:0:
226,91,12895,1,0,0:0:0:0:
226,91,12978,1,2,0:0:0:0:
392,64,13145,1,0,0:0:0:0:
325,217,13312,5,2,0:0:0:0:
251,123,13478,1,0,0:0:0:0:
372,109,13645,1,2,0:0:0:0:
371,124,13728,1,0,0:0:0:0:
371,139,13811,1,0,0:0:0:0:
370,154,13895,1,0,0:0:0:0:
369,169,13978,1,2,0:0:0:0:
201,179,14145,1,0,0:0:0:0:
201,193,14228,1,0,0:0:0:0:
202,207,14312,2,0,P|172:209|142:206,1,60,2|0,0:0|0:0,0:0:0:0:
36,124,14478,2,0,P|65:121|95:124,1,60,0|0,0:0|0:0,0:0:0:0:
265,108,14645,6,0,B|266:78|266:78|251:51,2,60,2|0|0,0:0|0:0|0:0,0:0:0:0:
242,250,14978,1,2,0:0:0:0:
242,250,15061,1,0,0:0:0:0:
242,250,15144,1,0,0:0:0:0:
183,112,15311,1,2,0:0:0:0:
183,112,15394,1,0,0:0:0:0:
183,112,15478,1,0,0:0:0:0:
361,179,15645,6,0,P|317:190|272:189,1,90.0000034332277,2|0,0:0|0:0,0:0:0:0:
96,231,15812,2,0,P|139:219|184:220,1,90.0000034332277,0|0,0:0|0:0,0:0:0:0:
339,309,15978,5,2,0:0:0:0:
339,309,16062,1,0,0:0:0:0:
339,309,16145,2,0,L|398:304,1,60,0|0,0:0|0:0,0:0:0:0:
500,362,16312,2,0,P|492:302|500:243,1,120,2|0,0:0|0:0,0:0:0:0:
433,191,16562,1,0,0:0:0:0:
433,191,16645,2,0,P|431:161|425:131,1,60,2|0,0:0|0:0,0:0:0:0:
511,64,16812,2,0,P|504:93|503:123,1,60,0|0,0:0|0:0,0:0:0:0:
343,39,16978,1,2,0:0:0:0:
343,39,17145,2,0,L|341:98,1,60,0|0,0:0|0:0,0:0:0:0:
336,219,17312,5,2,0:0:0:0:
170,247,17478,1,0,0:0:0:0:
170,247,17562,1,0,0:0:0:0:
169,247,17645,2,0,P|198:244|225:231,1,60,2|0,0:0|0:0,0:0:0:0:
280,173,17812,2,0,P|253:160|223:157,1,60,0|0,0:0|0:0,0:0:0:0:
109,190,17978,1,2,0:0:0:0:
187,71,18145,1,0,0:0:0:0:
187,71,18228,2,0,P|245:83|302:69,1,120,0|0,0:0|0:0,0:0:0:0:
382,41,18478,2,0,P|379:70|377:100,1,60,0|0,0:0|0:0,0:0:0:0:
420,245,18645,5,2,0:0:0:0:
420,245,18728,1,0,0:0:0:0:
420,245,18812,1,0,0:0:0:0:
331,319,18978,1,2,0:0:0:0:
284,177,19145,2,0,L|281:236,1,60,0|0,0:0|0:0,0:0:0:0:
212,321,19312,2,0,P|214:263|170:225,1,120,2|0,0:0|0:0,0:0:0:0:
98,234,19562,1,0,0:0:0:0:
98,234,19645,2,0,P|95:204|89:174,1,60,2|0,0:0|0:0,0:0:0:0:
178,96,19812,2,0,P|180:66|186:36,1,60,0|0,0:0|0:0,0:0:0:0:
319,84,19978,5,2,0:0:0:0:
333,88,20061,1,0,0:0:0:0:
348,91,20144,1,0,0:0:0:0:
363,91,20227,1,0,0:0:0:0:
378,91,20312,2,0,L|372:149,1,60,2|0,0:0|0:0,0:0:0:0:
252,142,20478,1,0,0:0:0:0:
252,142,20562,1,0,0:0:0:0:
252,142,20645,1,2,0:0:0:0:
322,242,20812,1,0,0:0:0:0:
142,275,20978,6,0,B|176:284|176:284|200:281|231:284,1,90.0000034332277,2|0,0:0|0:0,0:0:0:0:
385,325,21145,2,0,B|351:316|351:316|327:319|295:315,1,90.0000034332277,0|0,0:0|0:0,0:0:0:0:
206,355,21312,5,2,0:0:0:0:
187,140,21478,1,0,0:0:0:0:
263,237,21645,1,2,0:0:0:0:
292,243,21728,1,0,0:0:0:0:
322,242,21811,1,0,0:0:0:0:
351,235,21894,1,0,0:0:0:0:
377,221,21978,1,2,0:0:0:0:
304,122,22145,1,0,0:0:0:0:
304,122,22228,1,0,0:0:0:0:
304,122,22312,6,0,B|289:96|289:96|295:37,1,90.0000034332277,2|0,0:0|0:0,0:0:0:0:
295,37,22478,2,0,B|311:64|311:64|305:123,1,90.0000034332277,0|0,0:0|0:0,0:0:0:0:
293,264,22645,5,6,0:0:0:0:
411,182,22812,1,0,0:0:0:0:
372,320,22978,1,8,0:0:0:0:
231,174,23145,1,0,0:0:0:0:
205,315,23312,1,2,0:0:0:0:
112,205,23478,1,0,0:0:0:0:
311,236,23645,1,8,0:0:0:0:
230,114,23812,1,0,0:0:0:0:
365,158,23978,5,2,0:0:0:0:
165,197,24145,1,0,0:0:0:0:
365,158,24312,1,8,0:0:0:0:
230,114,24478,1,0,0:0:0:0:
365,158,24645,1,2,0:0:0:0:
192,286,24812,1,0,0:0:0:0:
322,345,24978,2,0,B|331:364|331:364|380:348|430:359|430:359|437:337,1,143.999995605469,8|0,0:0|0:0,0:0:0:0:
461,213,25312,5,2,0:0:0:0:
237,158,25478,1,0,0:0:0:0:
341,247,25645,1,8,0:0:0:0:
278,33,25812,1,0,0:0:0:0:
381,124,25978,1,2,0:0:0:0:
122,180,26145,1,0,0:0:0:0:
241,251,26312,1,8,0:0:0:0:
181,48,26478,1,0,0:0:0:0:
342,211,26645,5,2,0:0:0:0:
170,205,26812,1,0,0:0:0:0:
342,211,26978,1,8,0:0:0:0:
170,205,27145,1,0,0:0:0:0:
330,289,27312,2,0,B|350:293|350:293|401:283,1,71.9999978027344,2|0,0:0|0:0,0:0:0:0:
192,134,27478,2,0,B|172:130|172:130|120:139,1,71.9999978027344,0|0,0:0|0:0,0:0:0:0:
226,303,27645,2,0,B|225:331|276:324|239:256|239:256|237:227|250:209,1,143.999995605469,8|0,0:0|0:0,0:0:0:0:
434,126,27978,5,6,0:0:0:0:
410,268,28145,1,0,0:0:0:0:
410,268,28228,1,0,0:0:0:0:
410,268,28312,1,2,0:0:0:0:
283,200,28478,1,0,0:0:0:0:
329,336,28645,1,2,0:0:0:0:
190,294,28812,1,0,0:0:0:0:
330,263,28978,1,2,0:0:0:0:
189,118,29145,1,0,0:0:0:0:
119,307,29312,5,6,0:0:0:0:
226,212,29478,1,0,0:0:0:0:
226,212,29562,1,0,0:0:0:0:
226,212,29645,1,2,0:0:0:0:
243,355,29812,1,0,0:0:0:0:
108,188,29978,1,2,0:0:0:0:
338,170,30145,1,0,0:0:0:0:
107,187,30312,2,0,P|193:168|127:110,1,215.999993408203,2|0,0:0|0:0,0:0:0:0:
117,272,30645,5,6,0:0:0:0:
134,277,30728,1,0,0:0:0:0:
152,278,30811,1,0,0:0:0:0:
170,277,30894,1,0,0:0:0:0:
187,274,30978,1,2,0:0:0:0:
205,270,31061,1,0,0:0:0:0:
223,268,31144,1,0,0:0:0:0:
241,269,31228,1,0,0:0:0:0:
258,273,31311,5,6,0:0:0:0:
289,291,31395,1,0,0:0:0:0:
325,294,31478,1,0,0:0:0:0:
359,282,31561,1,0,0:0:0:0:
385,258,31645,1,2,0:0:0:0:
399,225,31728,1,0,0:0:0:0:
398,189,31811,1,0,0:0:0:0:
383,157,31895,1,0,0:0:0:0:
356,133,31978,5,6,0:0:0:0:
244,160,32145,1,0,0:0:0:0:
356,133,32312,1,0,0:0:0:0:
244,160,32479,1,0,0:0:0:0:
304,62,32645,2,0,B|346:50|346:50|374:54,2,71.9999978027344,0|0|0,0:0|0:0|0:0,0:0:0:0:
47,155,32978,6,0,B|35:172|35:172|61:178|81:160|121:172,1,107.999996704102,4|0,0:0|0:0,0:0:0:0:
92,259,33312,5,4,0:0:0:0:normal-hitfinish.wav
256,184,33478,1,0,0:0:0:0:
348,29,33645,1,0,0:0:0:0:
342,246,33978,5,0,0:0:0:0:
484,135,34312,1,0,0:0:0:0:
318,363,34645,5,0,0:0:0:0:
279,160,34978,1,0,0:0:0:0:
260,285,35145,1,0,0:0:0:0:
206,75,35478,5,0,0:0:0:0:
159,213,35645,1,0,0:0:0:0:
92,50,35812,1,0,0:0:0:0:
24,254,35978,5,0,0:0:0:0:
201,285,36145,1,0,0:0:0:0:
372,230,36312,1,0,0:0:0:0:
111,312,36645,5,0,0:0:0:0:
281,347,36978,1,0,0:0:0:0:
336,69,37312,5,0,0:0:0:0:
240,237,37645,1,0,0:0:0:0:
394,175,37812,1,0,0:0:0:0:
322,322,38145,5,0,0:0:0:0:
495,225,38312,1,0,0:0:0:0:
302,175,38478,1,0,0:0:0:0:
106,351,38645,5,0,0:0:0:0:
132,172,38812,1,0,0:0:0:0:
20,33,38978,1,0,0:0:0:0:
8,276,39312,5,0,0:0:0:0:
164,136,39645,1,0,0:0:0:0:
250,374,39978,5,0,0:0:0:0:
297,226,40312,1,0,0:0:0:0:
379,295,40478,1,0,0:0:0:0:
342,122,40812,5,0,0:0:0:0:
442,245,40978,1,0,0:0:0:0:
464,83,41145,1,0,0:0:0:0:
334,269,41312,5,0,0:0:0:0:
170,194,41478,1,0,0:0:0:0:
0,245,41645,1,0,0:0:0:0:
235,288,41978,5,0,0:0:0:0:
200,110,42312,1,0,0:0:0:0:
133,373,42645,5,0,0:0:0:0:
37,190,42978,1,0,0:0:0:0:
55,297,43145,1,0,0:0:0:0:
116,91,43478,5,0,0:0:0:0:
136,248,43645,1,0,0:0:0:0:
309,145,43812,1,0,0:0:0:0:
143,322,43978,5,4,0:0:0:0:
321,298,44145,1,0,0:0:0:0:
491,356,44312,1,0,0:0:0:0:
292,197,44645,5,0,0:0:0:0:
449,266,44978,1,0,0:0:0:0:
168,319,45312,5,0,0:0:0:0:
274,99,45645,1,0,0:0:0:0:
300,208,45812,1,0,0:0:0:0:
365,64,46145,5,0,0:0:0:0:
402,224,46312,1,0,0:0:0:0:
211,168,46478,1,0,0:0:0:0:
375,324,46645,5,0,0:0:0:0:
195,305,46812,1,0,0:0:0:0:
40,217,46978,1,0,0:0:0:0:
187,48,47312,5,0,0:0:0:0:
147,213,47645,1,0,0:0:0:0:
418,184,47978,5,0,0:0:0:0:
297,246,48312,1,0,0:0:0:0:
308,46,48478,1,0,0:0:0:0:
218,200,48812,5,0,0:0:0:0:
412,90,48978,1,0,0:0:0:0:
218,200,49145,1,0,0:0:0:0:
373,358,49312,5,0,0:0:0:0:
406,178,49478,1,0,0:0:0:0:
297,33,49645,1,0,0:0:0:0:
154,245,49978,5,0,0:0:0:0:
194,109,50312,1,0,0:0:0:0:
288,329,50645,5,0,0:0:0:0:
351,122,50978,1,0,0:0:0:0:
240,220,51145,1,0,0:0:0:0:
284,74,51478,5,0,0:0:0:0:
388,238,51645,1,0,0:0:0:0:
390,22,51812,1,0,0:0:0:0:
127,51,51978,5,0,0:0:0:0:
132,231,52145,1,0,0:0:0:0:
253,376,52312,1,0,0:0:0:0:
309,55,52645,5,0,0:0:0:0:
237,228,52978,1,0,0:0:0:0:
23,15,53312,5,6,0:0:0:0:
23,15,53645,1,0,0:0:0:0:
74,282,53812,1,0,0:0:0:0:
74,282,54145,5,0,0:0:0:0:
286,211,54312,1,0,0:0:0:0:
70,155,54478,1,0,0:0:0:0:
264,341,54645,5,4,0:0:0:0:
486,79,65312,5,14,0:0:0:0:
486,79,65395,1,0,0:0:0:0:
486,79,65478,2,0,L|481:34,2,45.0000017166138,0|0|2,0:0|0:0|0:0,0:0:0:0:
399,51,65728,1,0,0:0:0:0:
399,51,65812,2,0,L|394:6,1,45.0000017166138,0|0,0:0|0:0,0:0:0:0:
315,81,65978,6,0,L|321:170,1,90.0000034332277,2|0,0:0|0:0,0:0:0:0:
303,241,66228,1,0,0:0:0:0:
303,241,66312,2,0,P|325:240|347:234,1,45.0000017166138,2|0,0:0|0:0,0:0:0:0:
452,276,66478,2,0,P|429:276|407:282,1,45.0000017166138,0|0,0:0|0:0,0:0:0:0:
344,357,66645,5,10,0:0:0:0:
344,357,66728,1,0,0:0:0:0:
344,357,66812,2,0,L|337:312,2,45.0000017166138,0|0|2,0:0|0:0|0:0,0:0:0:0:
254,343,67062,1,0,0:0:0:0:
254,343,67145,2,0,P|232:336|210:334,1,45.0000017166138,0|0,0:0|0:0,0:0:0:0:
125,366,67312,6,0,L|120:276,1,90.0000034332277,2|0,0:0|0:0,0:0:0:0:
158,193,67562,1,0,0:0:0:0:
158,193,67645,2,0,B|178:188|178:188|203:188,1,45.0000017166138,2|0,0:0|0:0,0:0:0:0:
92,133,67812,2,0,B|72:128|72:128|47:128,1,45.0000017166138,0|0,0:0|0:0,0:0:0:0:
150,8,67978,6,0,L|146:52,1,45.0000017166138,14|0,0:0|0:0,0:0:0:0:
212,108,68145,2,0,L|216:64,1,45.0000017166138,0|0,0:0|0:0,0:0:0:0:
289,59,68312,1,2,0:0:0:0:
289,59,68395,2,0,L|378:63,1,90.0000034332277,0|0,0:0|0:0,0:0:0:0:
444,111,68645,6,0,P|454:154|451:199,1,90.0000034332277,2|0,0:0|0:0,0:0:0:0:
371,215,68895,1,0,0:0:0:0:
371,215,68978,2,0,L|375:259,1,45.0000017166138,2|0,0:0|0:0,0:0:0:0:
450,310,69145,2,0,L|454:265,1,45.0000017166138,0|0,0:0|0:0,0:0:0:0:
345,147,69312,5,10,0:0:0:0:
345,147,69395,1,0,0:0:0:0:
345,146,69478,2,0,P|325:156|308:171,2,45.0000017166138,0|0|2,0:0|0:0|0:0,0:0:0:0:
450,149,69728,1,0,0:0:0:0:
450,149,69812,2,0,P|446:127|439:106,1,45.0000017166138,0|0,0:0|0:0,0:0:0:0:
379,224,69978,6,0,P|341:249|297:252,1,90.0000034332277,2|0,0:0|0:0,0:0:0:0:
220,225,70228,1,0,0:0:0:0:
220,225,70312,2,0,L|216:180,1,45.0000017166138,2|0,0:0|0:0,0:0:0:0:
139,275,70478,2,0,L|135:319,1,45.0000017166138,0|0,0:0|0:0,0:0:0:0:
82,196,70645,5,14,0:0:0:0:
156,112,70812,1,2,0:0:0:0:
156,112,70895,2,0,L|147:67,1,45.0000017166138,0|2,0:0|0:0,0:0:0:0:
240,88,71062,1,0,0:0:0:0:
240,88,71145,2,0,L|231:43,1,45.0000017166138,2|0,0:0|0:0,0:0:0:0:
338,117,71312,6,0,L|333:161,1,45.0000017166138,10|0,0:0|0:0,0:0:0:0:
305,247,71478,1,2,0:0:0:0:
305,247,71562,2,0,P|326:240|348:238,1,45.0000017166138,0|2,0:0|0:0,0:0:0:0:
342,315,71728,1,0,0:0:0:0:
342,316,71812,2,0,P|364:318|385:324,1,45.0000017166138,2|0,0:0|0:0,0:0:0:0:
260,322,71978,5,14,0:0:0:0:
225,208,72145,1,2,0:0:0:0:
225,208,72228,2,0,L|180:211,1,45.0000017166138,0|2,0:0|0:0,0:0:0:0:
186,126,72395,1,0,0:0:0:0:
186,126,72478,2,0,L|141:122,1,45.0000017166138,2|0,0:0|0:0,0:0:0:0:
281,55,72645,6,0,P|280:77|284:99,1,45.0000017166138,10|0,0:0|0:0,0:0:0:0:
349,142,72812,1,2,0:0:0:0:
349,142,72895,2,0,L|393:139,1,45.0000017166138,0|2,0:0|0:0,0:0:0:0:
314,213,73062,1,0,0:0:0:0:
314,213,73145,2,0,L|269:210,1,45.0000017166138,2|0,0:0|0:0,0:0:0:0:
241,307,73312,5,14,0:0:0:0:
219,313,73395,1,0,0:0:0:0:
196,314,73478,1,2,0:0:0:0:
174,310,73561,1,0,0:0:0:0:
154,302,73645,2,0,L|110:315,3,45.0000017166138,2|0|2|0,0:0|0:0|0:0|0:0,0:0:0:0:
224,209,73978,5,14,0:0:0:0:
245,203,74061,1,0,0:0:0:0:
268,202,74144,1,2,0:0:0:0:
290,206,74227,1,0,0:0:0:0:
310,214,74312,2,0,L|354:201,3,45.0000017166138,2|0|2|2,0:0|0:0|0:0|0:0,0:0:0:0:
191,114,74645,6,0,L|200:169,1,45.0000017166138,14|0,0:0|0:0,0:0:0:0:
216,247,74812,1,0,0:0:0:0:
337,174,74978,2,0,B|341:161|341:161|285:174,1,71.9999978027344,0|0,0:0|0:0,0:0:0:0:
285,175,75312,6,0,L|298:132,1,45.0000017166138,0|0,0:0|0:0,0:0:0:0:
380,103,75478,2,0,L|366:145,1,45.0000017166138,0|0,0:0|0:0,0:0:0:0:
245,262,75645,2,0,L|231:219,1,45.0000017166138,0|0,0:0|0:0,0:0:0:0:
444,44,75811,2,0,L|457:86,1,45.0000017166138,0|0,0:0|0:0,0:0:0:0:
345,225,75978,5,6,0:0:0:0:
345,225,76062,1,0,0:0:0:0:
345,225,76145,1,0,0:0:0:0:
178,177,76312,1,2,0:0:0:0:
292,38,76478,2,0,P|327:36|363:40,1,71.9999978027344,0|0,0:0|0:0,0:0:0:0:
471,111,76645,2,0,P|392:132|320:121,1,143.999995605469,2|0,0:0|0:0,0:0:0:0:
245,111,76895,1,0,0:0:0:0:
245,111,76978,2,0,L|261:181,1,71.9999978027344,2|0,0:0|0:0,0:0:0:0:
365,307,77145,2,0,L|349:237,1,71.9999978027344,0|0,0:0|0:0,0:0:0:0:
168,276,77312,5,2,0:0:0:0:
168,276,77395,1,0,0:0:0:0:
168,276,77478,2,0,B|128:281|128:281|70:275|46:224,1,143.999995605469,0|2,0:0|0:0,0:0:0:0:
263,232,77728,2,0,B|272:279|272:279|254:373,1,143.999995605469,0|0,0:0|0:0,0:0:0:0:
365,307,77978,2,0,P|435:302|493:260,1,143.999995605469,2|0,0:0|0:0,0:0:0:0:
469,175,78228,1,0,0:0:0:0:
469,175,78312,2,0,L|397:183,1,71.9999978027344,2|0,0:0|0:0,0:0:0:0:
178,107,78478,2,0,L|250:99,1,71.9999978027344,0|0,0:0|0:0,0:0:0:0:
350,109,78645,5,2,0:0:0:0:
226,268,78812,1,0,0:0:0:0:
226,268,78895,2,0,P|227:232|215:198,1,71.9999978027344,2|0,0:0|0:0,0:0:0:0:
89,126,79145,1,2,0:0:0:0:
309,78,79312,1,2,0:0:0:0:
309,78,79395,2,0,P|245:106|174:95,1,143.999995605469,0|0,0:0|0:0,0:0:0:0:
117,31,79645,1,2,0:0:0:0:
377,18,79812,1,2,0:0:0:0:
309,237,79978,5,2,0:0:0:0:
233,19,80145,1,0,0:0:0:0:
170,241,80312,1,2,0:0:0:0:
170,241,80395,2,0,P|99:236|53:184,1,143.999995605469,0|0,0:0|0:0,0:0:0:0:
58,75,80645,1,2,0:0:0:0:
239,191,80812,1,0,0:0:0:0:
46,286,80978,1,2,0:0:0:0:
30,25,81145,1,2,0:0:0:0:
136,162,81312,5,2,0:0:0:0:
136,162,81395,1,0,0:0:0:0:
136,162,81478,2,0,L|207:171,1,71.9999978027344,0|0,0:0|0:0,0:0:0:0:
314,185,81645,1,2,0:0:0:0:
67,266,81812,1,0,0:0:0:0:
214,28,81978,2,0,B|221:65|221:65|207:170,1,143.999995605469,2|0,0:0|0:0,0:0:0:0:
145,261,82228,1,0,0:0:0:0:
145,261,82312,2,0,P|180:256|216:261,1,71.9999978027344,2|0,0:0|0:0,0:0:0:0:
390,382,82478,2,0,P|354:386|318:381,1,71.9999978027344,0|0,0:0|0:0,0:0:0:0:
180,335,82645,5,2,0:0:0:0:
180,335,82728,1,0,0:0:0:0:
180,334,82812,2,0,P|191:264|179:193,1,143.999995605469,0|2,0:0|0:0,0:0:0:0:
48,214,83062,2,0,B|87:229|87:229|147:230|179:192,1,143.999995605469,0|0,0:0|0:0,0:0:0:0:
253,36,83312,2,0,P|241:106|253:177,1,143.999995605469,2|0,0:0|0:0,0:0:0:0:
337,248,83562,1,0,0:0:0:0:
337,248,83645,2,0,L|265:255,1,71.9999978027344,2|0,0:0|0:0,0:0:0:0:
125,339,83812,2,0,L|196:346,1,71.9999978027344,0|0,0:0|0:0,0:0:0:0:
357,363,83978,5,2,0:0:0:0:
417,201,84144,1,0,0:0:0:0:
417,201,84228,2,0,P|452:191|488:191,1,71.9999978027344,2|0,0:0|0:0,0:0:0:0:
470,334,84478,1,2,0:0:0:0:
343,107,84645,1,2,0:0:0:0:
343,107,84728,2,0,B|322:147|322:147|333:250,1,143.999995605469,0|0,0:0|0:0,0:0:0:0:
252,303,84978,2,0,L|244:231,1,71.9999978027344,2|0,0:0|0:0,0:0:0:0:
157,77,85145,2,0,L|149:148,1,71.9999978027344,2|0,0:0|0:0,0:0:0:0:
65,280,85312,5,2,0:0:0:0:
228,118,85478,1,0,0:0:0:0:
41,191,85645,1,2,0:0:0:0:
41,191,85728,2,0,P|112:189|179:214,1,143.999995605469,0|0,0:0|0:0,0:0:0:0:
355,267,85978,6,0,L|351:177,1,90.0000034332277,2|0,0:0|0:0,0:0:0:0:
259,101,86145,2,0,L|262:190,1,90.0000034332277,0|0,0:0|0:0,0:0:0:0:
439,216,86312,2,0,B|453:172|453:172|436:130,1,90.0000034332277,2|0,0:0|0:0,0:0:0:0:
179,215,86478,2,0,B|165:259|165:259|181:300,1,90.0000034332277,2|0,0:0|0:0,0:0:0:0:
369,312,86645,5,6,0:0:0:0:
369,312,86728,1,0,0:0:0:0:
369,312,86812,1,0,0:0:0:0:
308,60,86978,1,2,0:0:0:0:
179,215,87145,1,0,0:0:0:0:
419,191,87312,2,0,P|477:152|485:83,1,143.999995605469,2|0,0:0|0:0,0:0:0:0:
331,164,87562,1,0,0:0:0:0:
331,164,87645,2,0,L|345:234,1,71.9999978027344,2|0,0:0|0:0,0:0:0:0:
180,291,87812,2,0,L|194:221,1,71.9999978027344,0|0,0:0|0:0,0:0:0:0:
152,100,87978,5,2,0:0:0:0:
152,100,88062,1,0,0:0:0:0:
152,100,88145,1,0,0:0:0:0:
274,329,88312,1,2,0:0:0:0:
331,164,88478,2,0,L|345:234,1,71.9999978027344,0|0,0:0|0:0,0:0:0:0:
452,277,88645,2,0,B|440:220|440:220|445:134,1,143.999995605469,2|0,0:0|0:0,0:0:0:0:
360,77,88895,1,0,0:0:0:0:
360,77,88978,2,0,P|324:74|288:66,1,71.9999978027344,2|0,0:0|0:0,0:0:0:0:
85,145,89145,2,0,P|120:137|156:134,1,71.9999978027344,0|0,0:0|0:0,0:0:0:0:
345,234,89312,6,0,P|274:234|205:254,1,143.999995605469,2|0,0:0|0:0,0:0:0:0:
126,292,89562,1,2,0:0:0:0:
126,292,89645,2,0,L|129:220,1,71.9999978027344,0|0,0:0|0:0,0:0:0:0:
241,90,89812,2,0,L|237:161,1,71.9999978027344,2|0,0:0|0:0,0:0:0:0:
345,234,89978,1,2,0:0:0:0:
345,234,90062,2,0,P|412:211|483:222,1,143.999995605469,0|0,0:0|0:0,0:0:0:0:
422,341,90312,1,2,0:0:0:0:
342,124,90478,1,2,0:0:0:0:
284,289,90645,5,2,0:0:0:0:
466,147,90812,1,0,0:0:0:0:
213,110,90978,1,2,0:0:0:0:
213,110,91062,2,0,P|185:175|200:245,1,143.999995605469,0|0,0:0|0:0,0:0:0:0:
284,289,91312,1,2,0:0:0:0:
372,53,91478,1,0,0:0:0:0:
123,94,91645,1,2,0:0:0:0:
372,135,91812,1,2,0:0:0:0:
284,289,91978,5,6,0:0:0:0:
284,289,92062,1,0,0:0:0:0:
284,289,92145,1,0,0:0:0:0:
511,260,92312,1,2,0:0:0:0:
460,373,92478,1,0,0:0:0:0:
460,373,92562,1,0,0:0:0:0:
460,373,92645,2,0,P|409:323|393:254,1,143.999995605469,2|0,0:0|0:0,0:0:0:0:
291,274,92895,1,0,0:0:0:0:
291,274,92978,2,0,L|219:267,1,71.9999978027344,2|0,0:0|0:0,0:0:0:0:
408,164,93145,2,0,L|479:170,1,71.9999978027344,0|0,0:0|0:0,0:0:0:0:
337,60,93312,5,6,0:0:0:0:
337,60,93395,1,0,0:0:0:0:
337,60,93478,1,0,0:0:0:0:
354,207,93645,1,2,0:0:0:0:
154,151,93812,2,0,L|163:222,1,71.9999978027344,0|0,0:0|0:0,0:0:0:0:
267,322,93978,2,0,L|249:181,1,143.999995605469,2|0,0:0|0:0,0:0:0:0:
354,207,94228,1,0,0:0:0:0:
354,207,94312,2,0,P|364:173|364:137,1,71.9999978027344,2|0,0:0|0:0,0:0:0:0:
512,220,94478,2,0,P|476:219|441:209,1,71.9999978027344,0|0,0:0|0:0,0:0:0:0:
151,253,94645,6,0,P|222:248|291:267,1,143.999995605469,6|0,0:0|0:0,0:0:0:0:
380,363,94895,1,2,0:0:0:0:
380,363,94978,2,0,L|385:291,1,71.9999978027344,0|0,0:0|0:0,0:0:0:0:
441,209,95145,2,0,L|447:137,1,71.9999978027344,2|0,0:0|0:0,0:0:0:0:
319,106,95312,1,6,0:0:0:0:
319,106,95395,2,0,P|248:113|182:87,1,143.999995605469,0|0,0:0|0:0,0:0:0:0:
140,10,95645,1,2,0:0:0:0:
394,57,95812,1,2,0:0:0:0:
214,237,95978,5,6,0:0:0:0:
265,82,96145,1,2,0:0:0:0:
354,217,96312,1,2,0:0:0:0:
265,82,96478,1,2,0:0:0:0:
251,267,96645,6,0,L|247:307,1,40.5000001544952,2|2,0:0|0:0,0:0:0:0:
230,279,96728,2,0,L|226:319,1,40.5000001544952,2|2,0:0|0:0,0:0:0:0:
203,296,96812,2,0,P|163:297|127:280,1,81.0000003089905,2|2,0:0|0:0,0:0:0:0:
186,177,96978,1,0,0:0:0:0:
335,323,97145,1,0,0:0:0:0:
335,323,97312,6,0,P|311:304|294:280,1,60,6|0,0:0|0:0,0:0:0:0:
264,180,97478,2,0,P|257:150|240:126,1,60,0|0,0:0|0:0,0:0:0:0:
127,85,97645,1,8,0:0:0:0:
91,224,97812,1,0,0:0:0:0:
180,340,97978,2,0,P|259:347|305:326,1,120,2|0,0:0|0:0,0:0:0:0:
342,234,98312,2,0,B|320:228|320:228|282:229,1,60,8|0,0:0|0:0,0:0:0:0:
157,268,98478,1,0,0:0:0:0:
146,102,98645,5,2,0:0:0:0:
239,177,98812,1,0,0:0:0:0:
157,268,98978,2,0,L|215:255,1,60,8|0,0:0|0:0,0:0:0:0:
357,222,99145,1,0,0:0:0:0:
239,177,99312,1,2,0:0:0:0:
239,177,99478,1,0,0:0:0:0:
282,321,99645,1,8,0:0:0:0:
374,125,99812,1,0,0:0:0:0:
458,323,99978,6,0,L|398:313,1,60,2|0,0:0|0:0,0:0:0:0:
288,263,100145,2,0,L|228:253,1,60,0|0,0:0|0:0,0:0:0:0:
109,272,100312,1,8,0:0:0:0:
291,158,100478,1,0,0:0:0:0:
106,104,100645,1,2,0:0:0:0:
196,185,100812,1,0,0:0:0:0:
196,185,100978,2,0,P|196:155|200:125,1,60,8|0,0:0|0:0,0:0:0:0:
273,45,101145,1,0,0:0:0:0:
344,223,101312,5,2,0:0:0:0:
344,223,101395,1,0,0:0:0:0:
344,223,101478,1,0,0:0:0:0:
205,263,101645,1,8,0:0:0:0:
369,303,101812,1,0,0:0:0:0:
369,303,101978,2,0,P|339:303|309:297,1,60,2|0,0:0|0:0,0:0:0:0:
167,184,102145,2,0,P|196:177|226:178,1,60,0|0,0:0|0:0,0:0:0:0:
340,208,102312,1,8,0:0:0:0:
207,285,102478,1,0,0:0:0:0:
331,356,102645,6,0,P|326:327|332:298,1,60,2|0,0:0|0:0,0:0:0:0:
401,213,102812,2,0,P|405:183|399:154,1,60,0|0,0:0|0:0,0:0:0:0:
331,70,102978,1,8,0:0:0:0:
278,253,103145,1,0,0:0:0:0:
278,253,103312,2,0,P|222:231|183:186,1,120,2|0,0:0|0:0,0:0:0:0:
108,107,103562,1,0,0:0:0:0:
108,107,103645,2,0,L|98:166,1,60,8|0,0:0|0:0,0:0:0:0:
142,340,103812,2,0,L|151:280,1,60,0|0,0:0|0:0,0:0:0:0:
233,120,103978,5,2,0:0:0:0:
326,259,104145,1,0,0:0:0:0:
440,135,104312,2,0,P|440:164|442:194,1,60,8|0,0:0|0:0,0:0:0:0:
443,278,104478,1,0,0:0:0:0:
339,171,104645,1,2,0:0:0:0:
339,171,104812,1,0,0:0:0:0:
213,240,104978,1,8,0:0:0:0:
455,301,105145,1,0,0:0:0:0:
317,343,105312,6,0,P|312:313|310:283,1,60,2|0,0:0|0:0,0:0:0:0:
377,199,105478,2,0,P|375:169|370:139,1,60,0|0,0:0|0:0,0:0:0:0:
314,45,105645,1,8,0:0:0:0:
205,200,105812,1,0,0:0:0:0:
302,134,105978,1,2,0:0:0:0:
192,83,106145,1,0,0:0:0:0:
192,83,106312,2,0,P|221:77|251:77,1,60,8|0,0:0|0:0,0:0:0:0:
367,160,106478,2,0,P|337:154|307:154,1,60,0|0,0:0|0:0,0:0:0:0:
211,226,106645,5,2,0:0:0:0:
211,226,106728,1,0,0:0:0:0:
211,226,106812,1,0,0:0:0:0:
237,361,106978,1,8,0:0:0:0:
107,272,107145,1,0,0:0:0:0:
107,272,107312,2,0,P|135:281|165:285,1,60,2|0,0:0|0:0,0:0:0:0:
362,235,107478,2,0,P|333:225|303:221,1,60,0|0,0:0|0:0,0:0:0:0:
158,197,107645,1,8,0:0:0:0:
309,106,107812,1,0,0:0:0:0:
148,25,107978,6,0,P|148:54|156:83,1,60,6|0,0:0|0:0,0:0:0:0:
225,184,108145,2,0,P|254:183|283:175,1,60,0|0,0:0|0:0,0:0:0:0:
380,104,108312,1,8,0:0:0:0:
350,286,108478,1,0,0:0:0:0:
248,68,108645,2,0,P|229:124|225:184,1,120,2|0,0:0|0:0,0:0:0:0:
171,249,108895,1,0,0:0:0:0:
171,249,108978,2,0,L|111:242,1,60,8|0,0:0|0:0,0:0:0:0:
11,159,109145,2,0,L|70:152,1,60,0|0,0:0|0:0,0:0:0:0:
162,149,109312,5,2,0:0:0:0:
91,326,109478,1,0,0:0:0:0:
278,282,109645,1,8,0:0:0:0:
138,245,109812,1,0,0:0:0:0:
138,245,109978,2,0,P|133:215|131:185,1,60,2|0,0:0|0:0,0:0:0:0:
178,87,110145,1,0,0:0:0:0:
0,210,110312,1,8,0:0:0:0:
238,200,110478,1,0,0:0:0:0:
54,103,110645,6,0,P|84:99|114:99,1,60,2|0,0:0|0:0,0:0:0:0:
233,122,110812,2,0,P|262:125|292:125,1,60,0|0,0:0|0:0,0:0:0:0:
407,87,110978,1,8,0:0:0:0:
282,264,111145,1,0,0:0:0:0:
265,45,111312,1,2,0:0:0:0:
181,190,111478,1,0,0:0:0:0:
181,190,111645,2,0,L|240:186,1,60,8|0,0:0|0:0,0:0:0:0:
380,144,111812,2,0,L|320:147,1,60,0|0,0:0|0:0,0:0:0:0:
375,54,111978,5,2,0:0:0:0:
327,240,112145,1,0,0:0:0:0:
204,119,112312,1,8,0:0:0:0:
204,119,112395,1,0,0:0:0:0:
204,119,112478,1,0,0:0:0:0:
145,280,112645,2,0,L|204:274,1,60,2|0,0:0|0:0,0:0:0:0:
403,212,112812,2,0,L|343:206,1,60,0|0,0:0|0:0,0:0:0:0:
201,187,112978,1,8,0:0:0:0:
375,314,113145,1,0,0:0:0:0:
394,98,113312,5,6,0:0:0:0:
290,233,113478,1,0,0:0:0:0:
259,29,113645,1,2,0:0:0:0:
306,241,113812,1,0,0:0:0:0:
216,137,113978,1,2,0:0:0:0:
326,238,114145,1,0,0:0:0:0:
95,214,114312,1,2,0:0:0:0:
336,230,114478,1,0,0:0:0:0:
213,324,114645,5,6,0:0:0:0:
170,123,114812,1,0,0:0:0:0:
217,317,114978,1,2,0:0:0:0:
320,193,115145,1,0,0:0:0:0:
224,305,115312,1,2,0:0:0:0:
463,284,115478,1,0,0:0:0:0:
234,293,115645,1,2,0:0:0:0:
249,51,115812,1,0,0:0:0:0:
347,310,115978,5,6,0:0:0:0:
323,326,116061,1,0,0:0:0:0:
294,333,116144,1,0,0:0:0:0:
264,328,116227,1,0,0:0:0:0:
239,312,116311,1,2,0:0:0:0:
227,284,116395,1,0,0:0:0:0:
206,263,116478,1,0,0:0:0:0:
179,251,116561,1,0,0:0:0:0:
125,266,116645,5,6,0:0:0:0:
91,236,116728,1,0,0:0:0:0:
70,197,116811,1,2,0:0:0:0:
67,152,116894,1,0,0:0:0:0:
81,110,116978,2,0,L|140:102,1,60,2|0,0:0|0:0,0:0:0:0:
311,117,117145,2,0,L|252:125,1,60,2|2,0:0|0:0,0:0:0:0:
179,169,117312,5,6,0:0:0:0:
373,29,117478,1,0,0:0:0:0:
414,264,117645,1,0,0:0:0:0:
413,264,117728,2,0,P|354:260|301:233,1,120,0|0,0:0|0:0,0:0:0:0:
250,151,117978,5,0,0:0:0:0:
277,317,118145,1,0,0:0:0:0:
133,188,118312,1,0,0:0:0:0:
254,10,118478,1,0,0:0:0:0:
256,192,118645,12,0,121312,0:0:0:0:
