osu file format v14

[General]
AudioFilename: audio.mp3
AudioLeadIn: 0
PreviewTime: 84199
Countdown: 0
SampleSet: Soft
StackLeniency: 0.4
Mode: 0
LetterboxInBreaks: 0
WidescreenStoryboard: 1

[Editor]
Bookmarks: 12667,22345,22990,43635,64280,84925,105570,126215,142990,146861,167506,188151,208796,229441,250086,260409,270732,275893,292667,293957,296538,317183,327506,335248,336538,340199
DistanceSpacing: 0.8
BeatDivisor: 4
GridSize: 32
TimelineZoom: 2.599999

[Metadata]
Title:Yoake no Katasumi de
TitleUnicode:夜明けの片隅で
Artist:yuki
ArtistUnicode:yuki
Creator:Lasse
Version:Petal
Source:白昼夢の青写真
Tags:Hakuchuumu no Aojashin visual novel eroge the girl who's whos called the world case-2 case 2 ending full version japanese pop laplacian かしこ kashiko Kaze no Uta 風の唄
BeatmapID:2844267
BeatmapSetID:1376110

[Difficulty]
HPDrainRate:6
CircleSize:4.6
OverallDifficulty:7.5
ApproachRate:8.4
SliderMultiplier:3.19999990463257
SliderTickRate:1

[Events]
//Background and Video events
0,0,"1a.jpg",0,0
//Break Periods
//Storyboard Layer 0 (Background)
//Storyboard Layer 1 (Fail)
//Storyboard Layer 2 (Pass)
//Storyboard Layer 3 (Foreground)
//Storyboard Layer 4 (Overlay)
//Storyboard Sound Samples

[TimingPoints]
2345,645.161290322581,4,2,1,30,1,0
2345,-200,4,2,1,30,0,0
12667,-166.666666666667,4,2,1,32,0,0
20576,-166.666666666667,4,2,1,10,0,0
22345,-166.666666666667,4,2,1,24,0,0
22990,-181.818181818182,4,2,1,30,0,0
33312,-153.846153846154,4,2,1,32,0,0
38474,-142.857142857143,4,2,1,32,0,0
39764,-133.333333333333,4,2,1,32,0,0
43635,-133.333333333333,4,2,1,35,0,0
53957,-125,4,2,1,37,0,0
58474,-142.857142857143,4,2,1,37,0,0
58796,-142.857142857143,4,2,1,30,0,0
59119,-125,4,2,1,37,0,0
62990,-121.951219512195,4,2,1,37,0,0
63635,-119.047619047619,4,2,1,37,0,0
63957,-119.047619047619,4,2,1,30,0,0
64280,-111.111111111111,4,2,1,40,0,0
69119,-133.333333333333,4,2,1,40,0,0
69280,-133.333333333333,4,2,1,30,0,0
69441,-111.111111111111,4,2,1,40,0,0
76861,-133.333333333333,4,2,1,40,0,0
77022,-133.333333333333,4,2,1,30,0,0
77183,-111.111111111111,4,2,1,40,0,0
79764,-100,4,2,1,42,0,0
80732,-133.333333333333,4,2,1,42,0,0
80893,-133.333333333333,4,2,1,30,0,0
81054,-90.9090909090909,4,2,1,44,0,0
82022,-133.333333333333,4,2,1,44,0,0
82345,-83.3333333333333,4,2,1,46,0,0
83675,-83.3333333333333,4,2,2,5,0,0
84280,-133.333333333333,4,2,1,40,0,0
84925,-66.6666666666667,4,2,1,50,0,1
85570,-66.6666666666667,4,2,1,50,0,0
85893,-133.333333333333,4,2,1,50,0,0
86135,-133.333333333333,4,2,1,5,0,0
86215,-66.6666666666667,4,2,1,50,0,0
86699,-80,4,2,1,50,0,0
87183,-100,4,2,1,50,0,0
87425,-133.333333333333,4,2,1,5,0,0
87506,-71.4285714285714,4,2,1,50,0,0
88796,-66.6666666666667,4,2,1,50,0,0
89280,-83.3333333333333,4,2,1,50,0,0
89764,-111.111111111111,4,2,1,50,0,0
90006,-133.333333333333,4,2,1,5,0,0
90086,-83.3333333333333,4,2,1,50,0,0
91054,-133.333333333333,4,2,1,50,0,0
91296,-133.333333333333,4,2,1,5,0,0
91377,-66.6666666666667,4,2,1,50,0,0
91861,-80,4,2,1,50,0,0
92345,-100,4,2,1,50,0,0
92586,-133.333333333333,4,2,1,5,0,0
92667,-66.6666666666667,4,2,1,50,0,0
94441,-133.333333333333,4,2,1,50,0,0
95248,-66.6666666666667,4,2,1,50,0,0
96457,-133.333333333333,4,2,1,5,0,0
96538,-100,4,2,1,50,0,0
97022,-80,4,2,1,50,0,0
97506,-133.333333333333,4,2,1,50,0,0
97748,-133.333333333333,4,2,1,5,0,0
97828,-66.6666666666667,4,2,1,50,0,0
98796,-100,4,2,1,50,0,0
99038,-133.333333333333,4,2,1,5,0,0
99119,-66.6666666666667,4,2,1,50,0,0
99603,-83.3333333333333,4,2,1,50,0,0
100086,-100,4,2,1,50,0,0
100328,-133.333333333333,4,2,1,5,0,0
100409,-83.3333333333333,4,2,1,50,0,0
101296,-133.333333333333,4,2,1,5,0,0
101377,-133.333333333333,4,2,1,50,0,0
101619,-133.333333333333,4,2,1,5,0,0
101699,-66.6666666666667,4,2,1,50,0,0
102183,-80,4,2,1,50,0,0
102667,-100,4,2,1,50,0,0
102909,-133.333333333333,4,2,1,5,0,0
102990,-58.8235294117647,4,2,1,50,0,0
103474,-66.6666666666667,4,2,1,50,0,0
105248,-133.333333333333,4,2,1,50,0,0
105490,-133.333333333333,4,2,1,5,0,0
105570,-66.6666666666667,4,2,1,50,0,1
106215,-66.6666666666667,4,2,1,50,0,0
106538,-133.333333333333,4,2,1,50,0,0
106780,-133.333333333333,4,2,1,5,0,0
106861,-66.6666666666667,4,2,1,50,0,0
107345,-80,4,2,1,50,0,0
107828,-100,4,2,1,50,0,0
108070,-133.333333333333,4,2,1,5,0,0
108151,-71.4285714285714,4,2,1,50,0,0
109441,-66.6666666666667,4,2,1,50,0,0
109925,-83.3333333333333,4,2,1,50,0,0
110409,-111.111111111111,4,2,1,50,0,0
110651,-133.333333333333,4,2,1,5,0,0
110732,-83.3333333333333,4,2,1,50,0,0
111619,-133.333333333333,4,2,1,5,0,0
111699,-133.333333333333,4,2,1,50,0,0
111941,-133.333333333333,4,2,1,5,0,0
112022,-66.6666666666667,4,2,1,50,0,0
112506,-80,4,2,1,50,0,0
112990,-100,4,2,1,50,0,0
113232,-133.333333333333,4,2,1,5,0,0
113312,-66.6666666666667,4,2,1,50,0,0
115086,-133.333333333333,4,2,1,50,0,0
115893,-66.6666666666667,4,2,1,50,0,0
117103,-133.333333333333,4,2,1,5,0,0
117183,-100,4,2,1,50,0,0
117667,-80,4,2,1,50,0,0
118151,-133.333333333333,4,2,1,50,0,0
118393,-133.333333333333,4,2,1,5,0,0
118474,-66.6666666666667,4,2,1,50,0,0
119441,-100,4,2,1,50,0,0
119764,-66.6666666666667,4,2,1,50,0,0
120248,-83.3333333333333,4,2,1,50,0,0
120732,-99.9999999999999,4,2,1,50,0,0
120974,-133.333333333333,4,2,1,5,0,0
121054,-83.3333333333333,4,2,1,50,0,0
122264,-133.333333333333,4,2,1,5,0,0
122345,-71.4285714285714,4,2,1,50,0,0
123554,-133.333333333333,4,2,1,5,0,0
123635,-57.1428571428571,4,2,1,50,0,0
124925,-500,4,2,1,50,0,0
126215,-111.111111111111,4,2,1,45,0,0
135893,-133.333333333333,4,2,1,45,0,0
136538,-100,4,2,1,45,0,0
137183,-111.111111111111,4,2,1,45,0,0
141699,-100,4,2,1,45,0,0
142667,-133.333333333333,4,2,1,45,0,0
143312,-133.333333333333,4,2,1,42,0,0
144280,-133.333333333333,4,2,1,42,0,0
144603,-111.111111111111,4,2,1,10,0,0
146215,-111.111111111111,4,2,1,20,0,0
146861,-107.52688172043,4,2,1,44,0,0
156861,-107.52688172043,4,2,1,36,0,0
157183,-107.52688172043,4,2,1,44,0,0
167506,-100,4,2,1,46,0,0
182990,-86.9565217391304,4,2,1,48,0,0
183957,-111.111111111111,4,2,1,48,0,0
184119,-86.9565217391304,4,2,1,40,0,0
184280,-76.9230769230769,4,2,1,50,0,0
185086,-76.9230769230769,4,2,2,50,0,0
185570,-80,4,2,1,52,0,0
186861,-200,4,2,1,35,0,0
188151,-66.6666666666667,4,2,1,50,0,1
188796,-66.6666666666667,4,2,1,50,0,0
189119,-133.333333333333,4,2,1,50,0,0
189361,-133.333333333333,4,2,1,5,0,0
189441,-66.6666666666667,4,2,1,50,0,0
189925,-80,4,2,1,50,0,0
190409,-100,4,2,1,50,0,0
190651,-133.333333333333,4,2,1,5,0,0
190732,-71.4285714285714,4,2,1,50,0,0
192022,-66.6666666666667,4,2,1,50,0,0
192506,-83.3333333333333,4,2,1,50,0,0
192990,-111.111111111111,4,2,1,50,0,0
193232,-133.333333333333,4,2,1,5,0,0
193312,-83.3333333333333,4,2,1,50,0,0
194280,-133.333333333333,4,2,1,50,0,0
194522,-133.333333333333,4,2,1,5,0,0
194603,-66.6666666666667,4,2,1,50,0,0
195086,-80,4,2,1,50,0,0
195570,-100,4,2,1,50,0,0
195812,-133.333333333333,4,2,1,5,0,0
195893,-66.6666666666667,4,2,1,50,0,0
197667,-133.333333333333,4,2,1,50,0,0
198474,-66.6666666666667,4,2,1,50,0,0
199683,-133.333333333333,4,2,1,5,0,0
199764,-100,4,2,1,50,0,0
200248,-80,4,2,1,50,0,0
200732,-133.333333333333,4,2,1,50,0,0
200974,-133.333333333333,4,2,1,5,0,0
201054,-66.6666666666667,4,2,1,50,0,0
202022,-100,4,2,1,50,0,0
202264,-133.333333333333,4,2,1,5,0,0
202345,-66.6666666666667,4,2,1,50,0,0
202828,-83.3333333333333,4,2,1,50,0,0
203312,-100,4,2,1,50,0,0
203554,-133.333333333333,4,2,1,5,0,0
203635,-83.3333333333333,4,2,1,50,0,0
204522,-133.333333333333,4,2,1,5,0,0
204603,-133.333333333333,4,2,1,50,0,0
204845,-133.333333333333,4,2,1,5,0,0
204925,-66.6666666666667,4,2,1,50,0,0
205409,-80,4,2,1,50,0,0
205893,-100,4,2,1,50,0,0
206135,-133.333333333333,4,2,1,5,0,0
206215,-58.8235294117647,4,2,1,50,0,0
206699,-66.6666666666667,4,2,1,50,0,0
208474,-133.333333333333,4,2,1,50,0,0
208715,-133.333333333333,4,2,1,5,0,0
208796,-66.6666666666667,4,2,1,50,0,1
209441,-66.6666666666667,4,2,1,50,0,0
209764,-133.333333333333,4,2,1,50,0,0
210006,-133.333333333333,4,2,1,5,0,0
210086,-66.6666666666667,4,2,1,50,0,0
210570,-80,4,2,1,50,0,0
211054,-100,4,2,1,50,0,0
211296,-133.333333333333,4,2,1,5,0,0
211377,-71.4285714285714,4,2,1,50,0,0
212667,-66.6666666666667,4,2,1,50,0,0
213151,-83.3333333333333,4,2,1,50,0,0
213635,-111.111111111111,4,2,1,50,0,0
213877,-133.333333333333,4,2,1,5,0,0
213957,-83.3333333333333,4,2,1,50,0,0
214845,-133.333333333333,4,2,1,5,0,0
214925,-133.333333333333,4,2,1,50,0,0
215167,-133.333333333333,4,2,1,5,0,0
215248,-66.6666666666667,4,2,1,50,0,0
215732,-80,4,2,1,50,0,0
216215,-100,4,2,1,50,0,0
216457,-133.333333333333,4,2,1,5,0,0
216538,-66.6666666666667,4,2,1,50,0,0
218312,-133.333333333333,4,2,1,50,0,0
219119,-66.6666666666667,4,2,1,50,0,0
220328,-133.333333333333,4,2,1,5,0,0
220409,-100,4,2,1,50,0,0
220893,-80,4,2,1,50,0,0
221377,-133.333333333333,4,2,1,50,0,0
221619,-133.333333333333,4,2,1,5,0,0
221699,-66.6666666666667,4,2,1,50,0,0
222667,-100,4,2,1,50,0,0
222990,-66.6666666666667,4,2,1,50,0,0
223474,-83.3333333333333,4,2,1,50,0,0
223957,-100,4,2,1,50,0,0
224199,-133.333333333333,4,2,1,5,0,0
224280,-83.3333333333333,4,2,1,50,0,0
225490,-133.333333333333,4,2,1,5,0,0
225570,-71.4285714285714,4,2,1,50,0,0
226780,-133.333333333333,4,2,1,5,0,0
226861,-57.1428571428571,4,2,1,50,0,0
228151,-500,4,2,1,50,0,0
228474,-500,4,2,1,48,0,0
228796,-500,4,2,1,46,0,0
229119,-500,4,2,1,44,0,0
229441,-100,4,2,1,45,0,0
237183,-100,4,2,1,45,0,0
244925,-90.9090909090909,4,2,1,45,0,0
247183,-125,4,2,1,45,0,0
248474,-111.111111111111,4,2,1,45,0,0
250086,-100,4,2,1,45,0,0
260409,-90.9090909090909,4,2,1,47,0,0
265570,-83.3333333333333,4,2,1,48,0,0
270732,-80,4,2,1,49,0,0
271054,-76.9230769230769,4,2,1,49,0,0
271377,-74.0740740740741,4,2,1,49,0,0
271699,-71.4285714285714,4,2,1,49,0,0
272022,-68.9655172413793,4,2,1,49,0,0
272345,-66.6666666666667,4,2,1,49,0,0
272667,-64.5161290322581,4,2,1,49,0,0
272990,-62.5,4,2,1,49,0,0
273312,-76.9230769230769,4,2,1,50,0,0
273554,-76.9230769230769,4,2,1,5,0,0
273635,-76.9230769230769,4,2,1,50,0,0
275570,-115.473441108545,4,2,2,50,0,0
275812,-115.473441108545,4,2,2,5,0,0
275893,-57.1428571428571,4,2,1,50,0,1
276538,-66.6666666666667,4,2,1,50,0,0
276861,-133.333333333333,4,2,1,50,0,0
277103,-133.333333333333,4,2,1,5,0,0
277183,-66.6666666666667,4,2,1,50,0,0
277667,-80,4,2,1,50,0,0
278151,-100,4,2,1,50,0,0
278393,-133.333333333333,4,2,1,5,0,0
278474,-71.4285714285714,4,2,1,50,0,0
279764,-66.6666666666667,4,2,1,50,0,0
280248,-83.3333333333333,4,2,1,50,0,0
280732,-111.111111111111,4,2,1,50,0,0
280974,-133.333333333333,4,2,1,5,0,0
281054,-83.3333333333333,4,2,1,50,0,0
282022,-133.333333333333,4,2,1,50,0,0
282264,-133.333333333333,4,2,1,5,0,0
282345,-66.6666666666667,4,2,1,50,0,0
282828,-80,4,2,1,50,0,0
283312,-100,4,2,1,50,0,0
283554,-133.333333333333,4,2,1,5,0,0
283635,-66.6666666666667,4,2,1,50,0,0
285409,-133.333333333333,4,2,1,50,0,0
286215,-66.6666666666667,4,2,1,50,0,0
287425,-133.333333333333,4,2,1,5,0,0
287506,-100,4,2,1,50,0,0
287990,-80,4,2,1,50,0,0
288474,-133.333333333333,4,2,1,50,0,0
288715,-133.333333333333,4,2,1,5,0,0
288796,-66.6666666666667,4,2,1,50,0,0
289764,-100,4,2,1,50,0,0
290006,-133.333333333333,4,2,1,5,0,0
290086,-62.5,4,2,1,50,0,0
290570,-76.9230769230769,4,2,1,50,0,0
291054,-100,4,2,1,50,0,0
291296,-133.333333333333,4,2,1,5,0,0
291377,-83.3333333333333,4,2,1,50,0,0
292264,-133.333333333333,4,2,1,5,0,0
292345,-133.333333333333,4,2,1,50,0,0
292586,-133.333333333333,4,2,1,5,0,0
292667,-66.6666666666667,4,2,1,50,0,0
293151,-80,4,2,1,50,0,0
293635,-100,4,2,1,50,0,0
293957,-100,4,2,1,50,0,0
294388,-62.5,4,2,1,50,0,1
294710,-62.5,4,2,1,30,0,0
294818,-100,4,2,1,47,0,0
295248,-58.8235294117647,4,2,1,52,0,1
295570,-58.8235294117647,4,2,1,30,0,0
295678,-58.8235294117647,4,2,1,47,0,0
296108,-58.8235294117647,4,2,2,47,0,0
296538,-62.5,4,2,1,50,0,1
297748,-133.333333333333,4,2,1,5,0,0
297828,-66.6666666666667,4,2,1,50,0,0
298312,-80,4,2,1,50,0,0
298796,-100,4,2,1,50,0,0
299038,-133.333333333333,4,2,1,5,0,0
299119,-71.4285714285714,4,2,1,50,0,0
300409,-66.6666666666667,4,2,1,50,0,0
300893,-83.3333333333333,4,2,1,50,0,0
301377,-111.111111111111,4,2,1,50,0,0
301619,-133.333333333333,4,2,1,5,0,0
301699,-83.3333333333333,4,2,1,50,0,0
302586,-133.333333333333,4,2,1,5,0,0
302667,-133.333333333333,4,2,1,50,0,0
302909,-133.333333333333,4,2,1,5,0,0
302990,-66.6666666666667,4,2,1,50,0,0
303474,-80,4,2,1,50,0,0
303957,-100,4,2,1,50,0,0
304199,-133.333333333333,4,2,1,5,0,0
304280,-66.6666666666667,4,2,1,50,0,0
306054,-133.333333333333,4,2,1,50,0,0
306861,-66.6666666666667,4,2,1,50,0,0
308070,-133.333333333333,4,2,1,5,0,0
308151,-100,4,2,1,50,0,0
308635,-80,4,2,1,50,0,0
309119,-133.333333333333,4,2,1,50,0,0
309361,-133.333333333333,4,2,1,5,0,0
309441,-66.6666666666667,4,2,1,50,0,0
310409,-100,4,2,1,50,0,0
310732,-66.6666666666667,4,2,1,50,0,0
311215,-83.3333333333333,4,2,1,50,0,0
311699,-99.9999999999999,4,2,1,50,0,0
311941,-133.333333333333,4,2,1,5,0,0
312022,-83.3333333333333,4,2,1,50,0,0
313232,-133.333333333333,4,2,1,5,0,0
313312,-71.4285714285714,4,2,1,50,0,0
314522,-133.333333333333,4,2,1,5,0,0
314603,-57.1428571428571,4,2,1,50,0,0
315893,-500,4,2,1,50,0,0
317183,-125,4,2,1,44,0,0
319441,-125,4,2,1,38,0,0
319764,-125,4,2,1,40,0,0
322345,-133.333333333333,4,2,1,38,0,0
327506,-153.846153846153,4,2,1,34,0,0
335248,-153.846153846153,4,2,1,32,0,0
336538,731.707317073171,4,2,1,30,1,0
336538,-200,4,2,1,30,0,0
336903,810.810810810811,4,2,1,30,1,0
337308,674.157303370787,4,2,1,28,1,0
337308,-222.222222222222,4,2,1,28,0,0
337645,705.882352941176,4,2,1,28,1,0
337997,952.380952380952,4,2,1,26,1,0
337997,-200,4,2,1,24,0,0
338116,685.714285714286,4,2,1,22,1,0
338801,2448.97959183673,4,2,1,24,1,0
338801,-40.5679513184584,4,2,1,24,0,0
339413,1666.66666666667,4,2,1,5,1,0
339621,1304.34782608696,4,2,1,5,1,0
339784,1016.94915254237,4,2,1,5,1,0
339911,1200,4,2,1,5,1,0
340061,1111.11111111111,4,2,1,5,1,0
340199,1276.59574468085,4,2,1,20,1,0

[Colours]
Combo1 : 250,180,240
Combo2 : 120,200,230
Combo3 : 255,230,130
Combo4 : 160,230,150

[HitObjects]
30,348,2345,6,0,B|9:371|9:371|78:381|111:308,1,159.999995231628,8|0,0:0|0:0,0:0:0:0:
229,239,3635,2,0,B|249:262|249:262|181:272|148:199,1,159.999995231628
95,101,4925,1,0,0:0:0:0:
171,20,5570,1,0,0:0:0:0:
272,68,6215,1,0,0:0:0:0:
257,178,6861,1,0,0:0:0:0:
332,136,7183,5,0,0:0:0:0:
332,136,7506,2,0,P|391:144|445:65,1,159.999995231628,2|0,0:0|0:0,0:0:0:0:
340,5,8796,2,0,P|300:49|335:138,1,159.999995231628
434,204,10006,1,0,0:0:0:0:
434,204,10086,2,0,P|465:191|515:187,1,79.9999976158142,2|0,0:0|0:0,0:0:0:0:
386,266,10732,2,0,P|401:236|438:201,1,79.9999976158142
339,330,11377,2,0,P|363:306|387:262,1,79.9999976158142,2|0,0:0|0:0,0:0:0:0:
263,351,12022,2,0,P|296:348|342:329,1,79.9999976158142
397,243,12667,6,0,B|346:160|430:143|384:58,1,191.99998841858,8|0,0:0|0:0,0:0:0:0:
300,150,13635,2,0,P|190:164|138:103,1,191.99998841858
104,32,14603,1,0,0:0:0:0:
140,110,14925,1,0,0:0:0:0:
57,185,15248,6,0,B|-3:229|6:318|6:318|63:352,1,191.99998841858,2|0,0:0|0:0,0:0:0:0:
154,375,16215,2,0,P|266:338|353:345,1,191.99998841858
464,375,17183,1,0,0:0:0:0:
471,382,17667,5,0,0:0:0:0:
471,382,17748,1,0,0:0:0:0:
471,382,17828,2,0,B|440:328|467:275|481:302|499:242|476:194,1,191.99998841858,8|0,0:0|0:0,0:0:0:0:
430,119,18796,5,0,0:0:0:0:
350,200,19119,5,0,0:0:0:0:
247,220,19441,5,0,0:0:0:0:
155,198,19764,5,0,0:0:0:0:
90,146,20086,5,0,0:0:0:0:
119,77,20328,5,0,0:0:0:0:
119,77,20409,2,0,B|189:142|344:115|301:20|439:-6|520:71|520:71|436:33|358:89,1,575.999965255739,8|2,0:0|0:1,0:0:0:0:
384,73,22990,6,0,P|342:158|375:230,1,176.000000125885,8|0,0:0|0:0,0:0:0:0:
327,287,23957,1,0,0:0:0:0:
327,287,24280,2,0,P|400:260|521:284,1,176.000000125885
504,360,25248,5,0,0:0:0:0:
504,360,25570,2,0,P|431:387|310:363,1,176.000000125885,2|0,0:0|0:0,0:0:0:0:
268,332,26538,1,0,0:0:0:0:
288,254,26861,1,0,0:0:0:0:
368,249,27183,1,0,0:0:0:0:
397,323,27506,1,0,0:0:0:0:
503,272,27828,5,0,0:0:0:0:
503,272,28151,2,0,P|509:179|472:96,1,176.000000125885,8|0,0:0|0:0,0:0:0:0:
417,39,29119,1,0,0:0:0:0:
331,50,29441,2,0,P|291:47|239:15,1,88.0000000629425
199,73,29925,1,0,0:0:0:0:
199,73,30086,2,0,P|159:76|107:108,1,88.0000000629425
55,170,30732,5,2,0:0:0:0:
125,205,31054,1,0,0:0:0:0:
70,262,31377,1,0,0:0:0:0:
0,227,31699,1,0,0:0:0:0:
142,214,32022,5,2,0:0:0:0:
90,346,32345,1,0,0:0:0:0:
231,326,32667,1,0,0:0:0:0:
316,372,32990,5,0,0:0:0:0:
316,372,33312,2,0,B|355:321|327:263|304:277|281:224|320:178,1,207.999984279633,8|0,0:0|0:0,0:0:0:0:
399,261,34280,1,0,0:0:0:0:
399,261,34603,2,0,P|460:264|498:133,1,207.999984279633
445,68,35570,5,0,0:0:0:0:
445,68,35893,2,0,B|433:106|407:117|407:117|323:124|263:77,1,207.999984279633,2|0,0:0|0:0,0:0:0:0:
200,21,36861,1,0,0:0:0:0:
270,82,37183,1,0,0:0:0:0:
181,112,37506,1,0,0:0:0:0:
76,54,37828,6,0,B|56:58|44:76|44:76|40:102|67:153,1,103.999992139817
135,185,38474,2,8,P|180:161|241:169,1,111.999993244171,8|0,0:0|0:0,0:0:0:0:
308,149,38957,1,0,0:0:0:0:
308,149,39119,2,8,P|357:173|411:166,1,111.999993244171,0|0,0:0|0:0,0:0:0:0:
412,165,39764,6,0,P|382:222|402:285,1,120.000001001358,2|0,0:0|0:0,0:0:0:0:
468,286,40248,1,0,0:0:0:0:
468,286,40409,2,0,P|498:229|478:166,1,120.000001001358
394,89,41054,5,8,0:0:0:0:
303,135,41377,1,0,0:0:0:0:
230,63,41699,1,0,0:0:0:0:
321,16,42022,1,0,0:0:0:0:
399,93,42264,5,0,3:0:0:0:
399,93,42345,1,2,0:0:0:0:
331,154,42667,5,0,0:0:0:0:
411,246,42990,5,0,3:0:0:0:
333,374,43312,5,0,0:0:0:0:
333,374,43635,2,0,B|311:354|304:329|309:304|320:313|327:271|326:231|296:217|264:221|236:242|245:279|264:297|296:294|300:275|286:260,1,240.000002002716,8|0,0:0|0:0,0:0:0:0:
387,318,44603,1,0,0:0:0:0:
387,318,44925,2,0,B|385:288|398:265|420:252|420:266|455:242|483:212|472:181|446:162|411:156|392:188|392:215|417:236|433:224|434:204,1,240.000002002716,0|0,3:0|2:0,0:0:0:0:
457,322,45893,5,0,0:0:0:0:
457,322,46215,2,0,B|407:270|335:298|361:330|281:353|234:310,1,240.000002002716,2|0,0:0|0:0,0:0:0:0:
153,233,47183,1,0,0:0:0:0:
225,169,47425,1,0,3:0:0:0:
225,169,47506,2,0,B|276:132|272:60|236:33|236:33|231:60|239:88|274:104,1,240.000002002716
403,150,48474,5,0,3:0:0:0:
403,150,48796,2,0,B|433:127|473:132|473:132|535:204|489:291,1,240.000002002716,8|0,0:0|0:0,0:0:0:0:
412,372,49764,1,0,0:0:0:0:
317,308,50086,2,0,P|264:282|199:296,1,120.000001001358,0|0,3:0|0:0,0:0:0:0:
144,333,50570,1,0,0:0:0:0:
144,333,50732,2,0,P|84:345|30:313,1,120.000001001358,0|0,2:0|0:0,0:0:0:0:
0,214,51377,5,2,0:0:0:0:
106,197,51699,1,0,0:0:0:0:
122,90,52022,1,0,0:0:0:0:
25,41,52345,1,0,0:0:0:0:
134,105,52586,5,0,3:0:0:0:
134,105,52667,1,2,2:2:0:0:
246,36,52990,1,0,0:0:0:0:
320,144,53312,1,0,3:0:0:0:
453,99,53635,5,0,0:0:0:0:
453,99,53957,2,0,B|440:202|521:250|521:250|532:297|486:342,1,255.999992370606,8|0,0:0|0:0,0:0:0:0:
400,384,54925,1,0,0:0:0:0:
400,384,55248,2,0,B|349:301|249:316|249:316|267:352|322:355,1,255.999992370606,0|0,3:0|0:0,0:0:0:0:
407,273,56215,5,0,0:0:0:0:
407,273,56538,2,0,B|426:307|533:295|477:149|340:200,1,255.999992370606,2|0,2:0|0:0,0:0:0:0:
218,237,57506,1,0,0:0:0:0:
264,177,57748,1,0,3:0:0:0:
264,177,57828,2,0,P|290:101|212:21,1,191.999994277954,0|0,2:0|0:0,0:0:0:0:
143,17,58474,6,0,B|142:52|124:67|124:67|93:66|74:41,1,111.999993244171,0|0,0:0|3:0,0:0:0:0:
75,43,59119,6,0,P|37:113|61:171,1,127.999996185303,8|0,0:0|0:0,0:0:0:0:
106,204,59603,1,0,0:0:0:0:
106,204,59764,2,0,P|169:179|240:200,1,127.999996185303
322,294,60409,6,0,P|383:305|442:281,1,127.999996185303,2|0,3:2|0:0,0:0:0:0:
481,222,60893,1,0,0:0:0:0:
481,222,61054,2,0,B|448:172|501:159|473:99,1,127.999996185303
372,19,61699,5,8,0:0:0:0:
347,144,62022,1,0,0:0:0:0:
249,60,62345,1,0,0:0:0:0:
372,19,62667,1,0,0:0:0:0:
429,92,62909,5,0,3:0:0:0:
429,92,62990,2,0,P|443:134|415:215,1,131.199998091888,2|0,0:0|0:0,0:0:0:0:
367,263,63474,1,0,0:0:0:0:
303,232,63635,2,0,P|255:213|169:238,1,134.399991893006,0|0,0:0|3:0,0:0:0:0:
177,232,64280,6,0,B|198:296|113:343|42:268|84:177|141:135,1,287.999982627869,8|0,0:0|0:0,0:0:0:0:
288,66,65248,1,0,0:0:0:0:
288,66,65570,2,0,B|322:113|385:98|385:98|374:85|352:84,1,143.999991313935,0|0,3:0|0:0,0:0:0:0:
287,164,66054,2,0,B|286:222|346:246|346:246|345:229|328:216,1,143.999991313935,0|0,2:0|0:0,0:0:0:0:
226,227,66538,1,0,0:0:0:0:
323,339,66861,6,0,B|417:271|517:336|517:336|492:379|435:380,1,287.999982627869,2|0,0:0|0:0,0:0:0:0:
374,275,67828,1,0,0:0:0:0:
429,210,68070,1,0,3:0:0:0:
429,210,68151,2,0,B|479:167|481:82|421:31|421:31|444:59|445:87|432:114,1,287.999982627869
434,110,69119,2,0,P|406:112|360:87,1,60.0000005006791,0|0,3:0|0:0,0:0:0:0:
330,23,69441,6,0,B|279:0|220:57|271:119|285:116|299:115|343:152|301:227|243:202,1,287.999982627869,8|0,0:0|0:0,0:0:0:0:
154,156,70409,1,0,0:0:0:0:
102,266,70732,2,0,B|124:204|60:172|60:172|24:204,1,143.999991313935,0|0,3:0|0:0,0:0:0:0:
1,259,71215,1,0,0:0:0:0:
1,259,71377,2,0,B|-21:321|42:352|42:352|79:321,1,143.999991313935,0|0,2:0|0:0,0:0:0:0:
250,279,72022,6,0,B|286:357|400:328|400:328|359:293|381:269|323:244,1,287.999982627869,2|0,0:0|0:0,0:0:0:0:
203,201,72990,1,0,0:0:0:0:
288,152,73232,1,0,3:0:0:0:
288,152,73312,2,0,P|301:89|238:18,1,143.999991313935
114,131,73957,2,0,P|101:194|164:265,1,143.999991313935,0|0,0:0|3:0,0:0:0:0:
336,318,74603,6,0,B|421:217|538:273|538:361|462:379|435:346,1,287.999982627869,8|0,0:0|0:0,0:0:0:0:
358,249,75570,1,0,0:0:0:0:
427,139,75893,1,2,0:0:0:0:
343,39,76215,1,0,0:0:0:0:
221,87,76538,1,0,0:0:0:0:
229,218,76861,2,0,L|238:304,1,60.0000005006791
202,348,77183,6,0,B|165:375|110:363|110:363|47:279|89:172,1,287.999982627869,2|0,0:0|0:0,0:0:0:0:
162,66,78151,1,0,0:0:0:0:
240,109,78393,1,0,3:0:0:0:
240,109,78474,1,2,2:0:0:0:
356,53,78796,1,0,0:0:0:0:
465,122,79119,1,0,0:0:0:0:
348,203,79441,5,0,3:0:0:0:
348,203,79764,2,0,P|389:267|357:337,1,159.999995231628,8|0,0:0|0:0,0:0:0:0:
237,279,80248,2,0,P|272:210|348:203,1,159.999995231628
266,330,80732,2,0,P|246:307|237:279,1,60.0000005006791
181,179,81054,6,0,P|199:96|146:30,1,176.000000125885,2|0,0:0|0:0,0:0:0:0:
29,158,81538,2,0,P|100:205|181:179,1,176.000000125885
260,54,82022,5,2,0:0:0:0:
310,287,82345,5,10,0:0:0:0:
307,308,83635,6,0,L|300:338,1,23.9999985523224,0|0,1:0|0:0,0:0:0:0:
307,308,84280,6,0,L|434:294,1,120.000001001358,8|4,1:3|0:3,0:0:0:0:
426,295,84925,6,0,B|332:375|140:269|345:175|151:58|54:136,1,480.000004005432,6|0,3:2|0:0,0:0:0:0:
57,133,85893,2,0,B|107:130|94:109|141:107,1,90.0000007510186
159,109,86215,6,0,B|253:46|190:-90|78:-7|138:52,1,240.000002002716,0|0,1:0|0:0,0:0:0:0:
231,152,86699,2,0,B|317:195|389:98|281:45|259:103,1,199.999994039536,2|0,0:0|0:0,0:0:0:0:
222,230,87183,2,0,B|236:274|284:273|284:273|299:252|324:238,1,119.999996423721,0|0,3:0|0:0,0:0:0:0:
330,238,87506,6,0,B|323:355|473:379|473:379|434:300|467:221|514:280|660:87|461:-12|378:113|453:175,1,671.999959465028,10|0,3:2|3:0,0:0:0:0:
449,171,88796,6,0,P|343:203|287:107,1,240.000002002716,0|0,1:0|0:0,0:0:0:0:
370,35,89280,2,0,P|450:79|449:170,1,191.99998841858,2|0,0:0|0:0,0:0:0:0:
285,90,89764,2,0,P|318:48|370:35,1,107.999993485451
269,106,90086,6,0,B|242:138|167:139|102:99|201:38|98:-41|-19:-34|-11:107|74:93,1,383.999976837159,2|0,3:2|0:0,0:0:0:0:
71,93,91054,2,0,P|111:74|155:75,1,90.0000007510186
175,83,91377,6,0,B|195:107|232:116|247:87|302:93|302:93|253:87|266:65|230:62|191:82,1,240.000002002716,0|0,1:0|0:0,0:0:0:0:
171,183,91861,2,0,B|162:206|170:235|199:239|214:274|214:274|201:242|218:231|211:206|182:195,1,199.999994039536,2|0,0:0|0:0,0:0:0:0:
79,175,92345,2,0,P|27:195|29:268,1,119.999996423721,0|0,3:0|0:0,0:0:0:0:
31,268,92667,6,0,B|125:348|320:235|112:148|306:31|403:109,2,480.000004005432,10|0|0,3:2|0:0|1:0,0:0:0:0:
31,268,94441,1,0,3:0:0:0:
89,314,94603,2,0,P|159:314|205:269,1,120.000001001358,2|0,0:2|2:3,0:0:0:0:
336,7,95248,6,0,B|240:118|328:236|348:195|400:241|383:379|383:379|668:167|511:-59|384:98|466:147,1,900.000007510186,6|0,3:2|0:0,0:0:0:0:
459,142,96538,6,0,P|441:66|350:57,1,159.999995231628,0|0,1:0|0:0,0:0:0:0:
459,142,97022,2,0,P|387:196|309:126,1,199.999994039536,2|0,0:0|0:0,0:0:0:0:
221,19,97506,2,0,P|175:14|146:60,1,90.0000007510186,0|0,3:0|0:0,0:0:0:0:
154,63,97828,6,0,B|244:137|183:241|149:172|72:355|128:481|377:429|358:276|264:214,1,600.000005006791,10|0,3:2|0:0,0:0:0:0:
91,177,98796,2,0,B|63:194|63:194|11:177|18:129,1,119.999996423721,0|0,3:0|0:0,0:0:0:0:
30,103,99119,6,0,B|89:114|152:78|108:38|174:4|248:20,1,240.000002002716,0|0,1:0|0:0,0:0:0:0:
407,66,99603,2,0,B|473:133|560:71|498:2|457:25,1,191.99998841858,2|0,0:0|0:0,0:0:0:0:
392,234,100086,2,0,P|435:297|433:366,1,119.999996423721,0|0,3:0|0:0,0:0:0:0:
426,358,100409,6,0,B|350:405|166:365|321:285|187:129|-18:232|52:387|145:362,1,527.999968151094,10|0,3:2|0:0,0:0:0:0:
144,362,101377,2,0,P|186:334|194:293,1,90.0000007510186
152,231,101699,6,0,B|121:215|107:192|107:192|86:96|182:43,1,240.000002002716,0|0,1:2|0:0,0:0:0:0:
256,228,102183,2,0,P|312:259|414:157,1,199.999994039536,2|0,0:0|0:0,0:0:0:0:
430,16,102667,2,0,P|491:14|476:81,1,119.999996423721,0|0,3:0|0:0,0:0:0:0:
483,81,102990,6,0,B|427:123|341:100|387:41|289:7|229:54,1,271.999997081757,6|0,3:2|0:0,0:0:0:0:
361,190,103474,1,2,0:0:0:0:
271,308,103635,2,0,P|213:318|162:288,1,120.000001001358,0|0,1:0|0:0,0:0:0:0:
50,221,103957,5,2,3:2:0:0:
115,374,104119,1,0,1:0:0:0:
166,161,104280,1,0,1:0:0:0:
346,382,104603,5,8,0:3:0:0:
512,165,104925,5,0,1:0:0:0:
438,227,105086,1,0,1:0:0:0:
421,131,105248,2,0,B|413:98|413:98|415:90|415:90|403:44,1,90.0000007510186,4|0,0:3|0:0,0:0:0:0:
395,33,105570,6,0,B|311:43|292:209|398:197|341:295|341:295|354:217|290:227|284:166|311:125,1,480.000004005432,6|0,3:2|0:0,0:0:0:0:
309,128,106538,2,0,P|326:90|321:32,1,90.0000007510186
304,25,106861,6,0,B|253:5|192:23|218:47|194:63|126:70|118:13|165:-17|209:16,1,240.000002002716,0|0,1:0|0:0,0:0:0:0:
268,122,107345,2,0,B|236:151|224:201|251:192|259:219|230:266|183:250|175:202|223:185,1,199.999994039536,2|0,2:0|0:0,0:0:0:0:
338,194,107828,2,0,B|344:220|367:242|371:224|384:231|404:259|380:279|351:262|358:232,1,119.999996423721,0|0,3:0|0:0,0:0:0:0:
370,225,108151,6,0,B|403:184|480:191|505:252|487:372|337:361|382:315|349:264|238:289|202:369|202:369|196:265|109:235|65:321|122:352,1,671.999959465028,10|0,3:2|3:0,0:0:0:0:
122,352,109441,6,0,P|214:347|225:221,1,240.000002002716,0|0,1:0|0:0,0:0:0:0:
122,352,109925,2,0,P|78:279|134:196,1,191.99998841858,2|0,0:0|0:0,0:0:0:0:
253,315,110409,2,0,P|314:304|333:255,1,107.999993485451
334,245,110732,6,0,B|283:262|185:228|135:140|285:119|198:-52|48:-94|-18:92|110:104,1,527.999968151094,2|0,3:2|0:0,0:0:0:0:
108,104,111699,2,0,P|138:79|194:83,1,90.0000007510186
268,97,112022,6,0,B|296:107|333:96|331:64|382:41|382:41|342:24|307:37|280:88,1,240.000002002716,0|0,1:0|0:0,0:0:0:0:
345,176,112506,2,0,B|354:200|381:216|401:197|444:216|444:216|432:181|404:167|357:179,1,199.999994039536,2|0,2:0|0:0,0:0:0:0:
314,275,112990,2,0,B|332:324|294:366|294:366|255:354,1,119.999996423721,0|0,3:0|0:0,0:0:0:0:
257,364,113312,6,0,B|109:355|153:173|226:176|235:212|308:183|348:55|230:19|186:53|171:94,2,480.000004005432,10|0|0,3:2|0:0|1:0,0:0:0:0:
257,364,115086,1,0,3:0:0:0:
324,326,115248,2,0,P|347:274|336:201,1,120.000001001358,2|0,0:2|0:3,0:0:0:0:
171,24,115893,6,0,B|248:115|191:220|161:220|104:261|110:352|110:352|-155:182|2:-44|149:22|164:163|60:174,1,900.000007510186,6|0,3:2|0:0,0:0:0:0:
78,170,117183,6,0,P|39:105|75:38,1,159.999995231628,0|0,1:0|0:0,0:0:0:0:
191,71,117667,2,0,P|172:162|79:171,1,199.999994039536,2|0,0:0|0:0,0:0:0:0:
119,29,118151,2,0,P|162:37|191:71,1,90.0000007510186,0|0,3:0|0:0,0:0:0:0:
197,92,118474,6,0,B|223:261|559:352|638:150|558:5|477:-33|361:-12|364:105|440:116,1,720.000006008149,10|0,3:2|3:0,0:0:0:0:
433,114,119764,6,0,B|515:144|502:249|502:249|462:218|403:225,1,240.000002002716,0|0,1:0|0:0,0:0:0:0:
262,199,120248,2,0,B|230:259|292:312|292:312|299:274|337:247,1,191.99998841858,2|0,2:0|0:0,0:0:0:0:
462,222,120732,2,0,B|507:236|518:286|518:286|498:288|474:316,1,119.999996423721,0|0,3:0|0:0,0:0:0:0:
481,322,121054,6,0,B|383:248|241:214|75:266|16:383|16:383|54:338|115:318|101:345|150:334|186:300,1,719.999956569673,10|0,3:2|0:0,0:0:0:0:
235,232,122345,6,0,B|226:109|309:50|397:-13|561:-15|723:68|542:371|275:299|392:41|323:-3|199:5,1,839.999949331285,2|0,1:2|0:0,0:0:0:0:
133,43,123635,6,0,B|141:130|94:197|47:153|-19:192|-76:281|-83:403|151:446|163:303|121:245,1,559.999988651276,6|0,3:2|1:0,0:0:0:0:
124,249,124603,5,2,3:2:0:0:
256,384,124764,1,0,1:0:0:0:
326,97,124925,1,4,1:2:0:0:
512,301,126215,6,0,P|444:332|347:247,1,215.999986970902,4|0,3:2|0:0,0:0:0:0:
352,176,126861,2,0,B|374:169|385:149|385:149|389:89|343:56,1,143.999991313935
348,60,127506,2,0,P|307:156|135:111,1,287.999982627869,0|0,1:0|0:0,0:0:0:0:
77,50,128474,1,0,3:0:0:0:
13,170,128796,6,0,B|-53:295|53:365|53:365|57:334|86:312,1,287.999982627869,2|0,3:2|0:0,0:0:0:0:
246,263,129764,1,0,3:0:0:0:
336,340,130006,1,0,3:0:0:0:
336,340,130086,2,0,B|356:369|400:366|400:366|422:338|465:340,1,143.999991313935,0|0,1:0|0:0,0:0:0:0:
384,202,130732,5,2,0:0:0:0:
449,232,130893,1,0,0:0:0:0:
512,197,131054,1,0,3:0:0:0:
426,52,131377,6,0,B|398:116|323:101|323:101|301:57|250:49,1,215.999986970902,8|0,3:2|0:0,0:0:0:0:
179,70,132022,2,0,B|138:98|142:158|142:158|153:178|175:185,1,143.999991313935
175,185,132667,2,0,B|239:177|262:253|232:299|138:316|74:217,1,287.999982627869,0|0,1:0|0:0,0:0:0:0:
7,104,133635,1,0,3:0:0:0:
131,42,133957,6,0,B|203:94|272:44|266:35|261:28|348:-21|420:45,1,287.999982627869,2|0,3:2|0:0,0:0:0:0:
512,162,134925,1,0,3:0:0:0:
467,249,135167,1,0,3:0:0:0:
467,249,135248,2,0,B|444:273|415:272|415:272|386:235|333:236,1,143.999991313935,0|0,1:0|0:0,0:0:0:0:
261,327,135893,2,8,B|241:347|216:346|216:346|196:317|156:315,1,120.000001001358,8|0,2:3|3:3,2:3:0:0:
156,315,136538,6,0,B|157:385|71:401|25:364|17:259|129:196,1,319.999990463257,4|0,2:0|0:0,0:0:0:0:
243,141,137506,1,0,0:0:0:0:
354,206,137828,1,0,1:0:0:0:
234,256,138151,1,0,0:0:0:0:
218,326,138474,1,0,0:0:0:0:
269,375,138796,1,0,0:0:0:0:
405,301,139119,6,0,B|429:334|478:334|478:334|553:235|476:123,1,287.999982627869,2|0,2:2|0:0,0:0:0:0:
396,36,140086,1,0,3:0:0:0:
315,89,140328,1,0,3:0:0:0:
315,89,140409,2,0,P|251:105|184:40,1,143.999991313935,0|0,1:0|0:0,0:0:0:0:
191,62,141054,2,0,P|135:19|67:34,1,143.999991313935,0|0,2:0|3:0,0:0:0:0:
2,129,141699,6,0,B|76:167|61:250|46:254|36:257|37:378|150:361|150:361|212:280|307:305,1,479.999985694885,4|0,3:2|0:0,0:0:0:0:
498,342,142990,5,0,1:0:0:0:
367,384,143312,5,2,0:0:0:0:
429,245,143635,5,0,0:0:0:0:
388,117,143957,5,0,3:0:0:0:
291,82,144280,6,0,B|360:188|277:313|64:340|-66:235|81:95|152:70|213:163|257:270|159:377,1,720.000006008149,12|2,3:2|0:1,0:0:0:0:
159,378,146861,6,0,B|110:352|58:379|58:379|-25:306|25:205,1,297.600000439911,4|0,3:2|0:0,0:0:0:0:
123,94,147828,1,0,3:0:0:0:
258,156,148151,1,0,1:0:0:0:
195,220,148474,1,0,0:0:0:0:
219,305,148796,1,0,0:0:0:0:
333,227,149119,5,0,3:0:0:0:
211,319,149441,2,0,B|176:339|132:342|132:342|41:269|80:138,1,297.600000439911,2|0,3:2|0:0,0:0:0:0:
175,32,150409,1,0,3:0:0:0:
277,87,150651,1,0,3:0:0:0:
277,87,150732,2,0,P|362:83|392:31,2,148.800000219956,0|0|0,1:0|0:0|0:0,0:0:0:0:
144,21,151699,5,0,3:0:0:0:
285,104,152022,2,0,B|340:137|340:137|389:198|379:295|292:340,1,297.600000439911,8|0,3:2|0:0,0:0:0:0:
159,381,152990,1,0,3:0:0:0:
24,325,153312,2,0,P|-3:239|28:181,1,148.800000219956,0|0,1:0|0:0,0:0:0:0:
77,145,153796,1,0,0:0:0:0:
77,145,153957,2,0,P|163:154|203:88,1,148.800000219956,0|0,0:0|3:0,0:0:0:0:
199,111,154603,6,0,P|314:19|442:74,1,297.600000439911,2|0,3:2|0:0,0:0:0:0:
512,205,155570,1,0,3:0:0:0:
433,248,155812,1,0,3:0:0:0:
433,248,155893,1,0,1:2:0:0:
356,159,156215,1,0,0:0:0:0:
312,297,156538,1,0,1:0:0:0:
218,249,156861,5,0,0:0:0:0:
218,249,157183,2,0,B|245:204|253:140|217:80|168:65|168:65|174:109|221:125,1,297.600000439911,4|0,3:2|0:0,0:0:0:0:
346,159,158151,1,0,3:0:0:0:
418,42,158474,1,0,1:0:0:0:
334,74,158796,1,0,0:0:0:0:
260,24,159119,1,0,0:0:0:0:
208,170,159441,5,0,3:0:0:0:
335,73,159764,2,0,B|366:55|411:61|411:61|462:127|448:213|377:247,1,297.600000439911,2|0,3:2|0:0,0:0:0:0:
232,290,160732,1,0,3:0:0:0:
304,366,160974,1,0,3:0:0:0:
304,366,161054,2,0,B|333:389|370:378|370:378|403:337|462:354,1,148.800000219956,0|0,1:0|0:0,0:0:0:0:
349,259,161699,5,0,0:0:0:0:
493,202,162022,1,0,3:0:0:0:
368,77,162345,6,0,B|351:120|304:116|304:116|276:88|241:87,1,148.800000219956,8|0,3:2|0:0,0:0:0:0:
184,126,162828,1,0,0:0:0:0:
184,126,162990,2,0,P|158:204|204:287,1,148.800000219956,0|0,0:0|3:0,0:0:0:0:
304,349,163635,6,0,B|393:332|363:393|442:382,1,148.800000219956,0|0,1:0|0:0,0:0:0:0:
503,339,164119,1,0,0:0:0:0:
503,339,164280,2,0,P|519:267|500:195,1,148.800000219956,0|0,0:0|3:0,0:0:0:0:
413,86,164925,5,0,1:0:0:0:
413,86,165248,2,0,B|384:160|296:163|296:163|260:80|168:85,1,297.600000439911,0|0,2:0|3:0,2:0:0:0:
25,133,166215,5,0,1:2:0:0:
155,228,166861,5,8,2:3:0:0:
0,303,167183,5,4,0:3:0:0:
132,350,167506,6,0,B|207:304|311:337|266:386|357:410|436:371,1,319.999990463257,4|0,3:2|0:0,0:0:0:0:
508,230,168474,1,0,3:0:0:0:
448,140,168715,1,0,3:0:0:0:
448,140,168796,2,0,B|437:172|393:170|393:170|366:124|304:124,1,159.999995231628,0|0,1:0|0:0,0:0:0:0:
249,163,169280,2,0,B|212:237|284:241|252:316,1,159.999995231628,0|0,2:0|2:0,2:0:0:0:
206,379,169764,1,0,3:0:0:0:
44,335,170086,6,0,P|5:185|87:53,1,319.999990463257,2|0,3:2|0:0,0:0:0:0:
239,3,171054,1,0,3:0:0:0:
301,150,171377,1,0,1:0:0:0:
190,134,171699,1,0,0:0:0:0:
148,238,172022,1,0,0:0:0:0:
275,313,172345,5,0,3:0:0:0:
131,374,172667,2,0,B|97:385|59:383|59:383|-39:288|52:149,1,319.999990463257,8|0,3:2|0:0,0:0:0:0:
160,42,173635,1,0,3:0:0:0:
236,123,173877,1,0,3:0:0:0:
236,123,173957,2,0,B|272:168|332:153|332:153|345:125|385:109,1,159.999995231628,0|0,1:0|0:0,0:0:0:0:
446,109,174441,1,0,0:0:0:0:
446,109,174603,2,0,P|487:137|473:254,1,159.999995231628,0|0,0:0|3:0,0:0:0:0:
488,239,175248,6,0,B|311:181|375:334|186:267,1,319.999990463257,2|0,3:2|0:0,0:0:0:0:
39,204,176215,1,0,3:0:0:0:
176,116,176538,1,0,1:0:0:0:
94,54,176780,1,2,0:0:0:0:
94,54,176861,1,0,0:0:0:0:
145,218,177183,1,0,3:0:0:0:
259,124,177506,1,0,3:0:0:0:
393,258,177828,6,0,B|417:288|473:291|473:291|555:172|463:74,1,319.999990463257,4|0,3:2|0:0,0:0:0:0:
315,3,178796,1,0,3:0:0:0:
250,83,179038,1,0,3:0:0:0:
250,83,179119,2,0,B|222:116|172:106|172:106|147:74|106:74,1,159.999995231628,0|0,1:0|0:0,0:0:0:0:
37,98,179603,1,0,0:0:0:0:
37,98,179764,2,0,P|18:123|46:241,1,159.999995231628,0|0,0:0|3:0,0:0:0:0:
44,239,180409,6,0,B|236:203|155:339|346:305,1,319.999990463257,2|0,3:2|0:0,0:0:0:0:
512,249,181377,1,0,3:0:0:0:
326,185,181699,1,0,1:0:0:0:
470,123,182022,1,0,3:0:0:0:
421,367,182345,1,0,1:0:0:0:
291,109,182667,1,0,3:0:0:0:
176,330,182990,6,0,P|91:359|18:301,1,183.999998025894,6|0,1:2|3:0,0:0:0:0:
118,186,183474,2,0,P|186:244|171:337,1,183.999998025894,8|0,2:3|3:0,0:0:0:0:
53,207,183957,2,0,P|82:187|118:186,1,71.9999956569673,4|0,0:3|2:0,0:0:0:0:
286,309,184280,6,0,B|308:335|353:332|353:332|404:268|373:196,1,207.999984279633,2|0,1:2|3:0,0:0:0:0:
297,85,184764,5,8,2:3:0:0:
260,187,184925,5,4,2:3:0:0:
151,235,185086,5,8,2:3:0:0:
29,199,185248,5,4,2:3:0:0:
400,372,185570,5,12,1:2:0:0:
358,39,186861,5,2,0:0:0:0:
358,39,187506,6,0,P|408:40|445:21,1,79.9999976158142
435,29,188151,6,0,B|515:13|550:89|516:213|367:165|314:93|410:0|250:-27|194:40,1,480.000004005432,6|0,3:2|0:0,0:0:0:0:
200,34,189119,2,0,P|211:73|188:119,1,90.0000007510186
119,152,189441,6,0,B|42:69|-82:152|11:244|63:190,1,240.000002002716,0|0,1:0|0:0,0:0:0:0:
130,270,189925,2,0,B|44:318|88:426|176:373|159:333,1,199.999994039536,2|0,2:0|2:0,2:0:0:0:
256,294,190409,2,0,B|267:341|324:337|324:337|332:314|353:300,1,119.999996423721,0|0,3:0|0:0,0:0:0:0:
358,304,190732,6,0,B|394:348|473:337|498:281|498:281|392:229|313:69|386:-34|510:-45|552:68|476:138,1,671.999959465028,10|0,3:2|3:0,0:0:0:0:
478,136,192022,6,0,P|367:126|332:232,1,240.000002002716,0|0,1:0|0:0,0:0:0:0:
432,286,192506,2,0,P|500:225|479:137,1,191.99998841858,2|0,0:0|0:0,0:0:0:0:
340,247,192990,2,0,P|379:283|432:286,1,107.999993485451
319,237,193312,6,0,B|285:211|212:225|157:278|266:317|182:416|66:433|44:294|130:290,1,383.999976837159,2|0,3:2|0:0,0:0:0:0:
126,290,194280,2,0,P|175:293|220:252,1,90.0000007510186
246,212,194603,6,0,B|226:189|221:164|229:139|239:149|250:108|253:69|225:51|193:52|163:70|168:108|185:128|225:119,1,240.000002002716,0|0,1:0|0:0,0:0:0:0:
331,193,195086,2,0,B|344:171|352:159|377:149|374:161|408:151|438:137|440:109|425:86|399:72|374:91|370:111|380:132,1,199.999994039536,2|0,2:0|0:0,0:0:0:0:
404,248,195570,2,0,B|467:250|493:297|493:297|477:318,1,119.999996423721,0|0,3:0|0:0,0:0:0:0:
432,365,195893,6,0,B|338:424|171:362|298:229|133:146|35:219,2,480.000004005432,10|0|0,3:2|0:0|1:0,0:0:0:0:
432,365,197667,1,0,3:0:0:0:
479,308,197828,2,0,P|485:250|460:191,1,120.000001001358,2|0,0:2|2:3,0:0:0:0:
305,5,198474,6,0,B|392:257|158:404|31:371|31:371|81:296|86:221|1:228|24:97|104:43,1,900.000007510186,4|0,3:2|0:0,0:0:0:0:
95,50,199764,6,0,B|110:122|186:118|186:118|191:100|217:77,1,159.999995231628,0|0,1:0|0:0,0:0:0:0:
59,221,200248,2,0,B|15:301|92:351|92:351|106:326|138:315,1,199.999994039536,2|0,2:0|0:0,0:0:0:0:
254,380,200732,2,0,P|297:386|348:354,1,90.0000007510186,0|0,3:0|0:0,0:0:0:0:
353,348,201054,6,0,B|243:261|318:149|359:227|441:29|375:-98|98:-126|33:146|229:292|370:145|318:74,1,720.000006008149,10|0,3:2|3:0,0:0:0:0:
323,83,202345,6,0,B|295:154|236:181|179:152|174:89|216:67|241:73,1,240.000002002716,0|0,1:0|0:0,0:0:0:0:
352,171,202828,2,0,B|399:211|391:297|391:297|380:318|342:350,1,191.99998841858,2|0,0:0|0:0,0:0:0:0:
216,379,203312,2,0,P|178:355|75:362,1,119.999996423721,0|0,3:0|0:0,0:0:0:0:
90,359,203635,6,0,B|27:445|-111:332|-3:164|158:247|107:373|320:214|199:76|103:118|93:180,1,527.999968151094,10|0,3:2|0:0,0:0:0:0:
94,177,204603,2,0,P|103:218|146:233,1,90.0000007510186
223,235,204925,6,0,B|271:184|347:172|399:212|399:212|370:224|341:211,1,240.000002002716,0|0,1:2|0:0,0:0:0:0:
229,134,205409,2,0,B|180:107|157:51|183:2|183:2|210:20|198:67,1,199.999994039536,2|0,0:0|0:0,0:0:0:0:
128,178,205893,2,0,B|109:226|51:226|51:226|16:195,1,119.999996423721,0|0,3:0|0:0,0:0:0:0:
140,165,206215,6,0,B|164:252|267:243|267:243|302:192|358:189,1,271.999997081757,6|0,3:2|0:0,0:0:0:0:
230,288,206699,1,2,0:0:0:0:
356,189,206861,2,0,P|414:194|466:232,1,120.000001001358,0|0,1:0|0:0,0:0:0:0:
264,134,207183,5,2,3:2:0:0:
379,292,207345,1,0,1:0:0:0:
416,57,207506,1,0,1:0:0:0:
249,375,207828,5,8,0:3:0:0:
0,219,208151,5,0,1:0:0:0:
93,271,208312,1,0,1:0:0:0:
154,181,208474,2,0,B|162:151|162:151|160:137|160:137|172:94,1,90.0000007510186,4|0,0:3|0:0,0:0:0:0:
188,80,208796,6,0,B|266:51|346:112|281:153|391:278|584:264|519:46|405:117,1,480.000004005432,6|0,3:2|0:0,0:0:0:0:
409,114,209764,2,0,P|417:152|395:205,1,90.0000007510186
390,212,210086,6,0,B|307:237|319:326|319:326|344:292|371:298|381:260,1,240.000002002716,0|0,1:0|0:0,0:0:0:0:
337,152,210570,2,0,B|316:83|242:93|242:93|270:114|265:136|297:144,1,199.999994039536,2|0,2:0|0:0,0:0:0:0:
409,114,211054,2,0,B|439:97|441:49|441:49|435:25|405:11,1,119.999996423721,0|0,3:0|0:0,0:0:0:0:
391,14,211377,6,0,B|368:95|255:85|221:56|236:43|174:-37|38:5|-99:73|-48:298|162:356|239:204|152:129|152:129,1,671.999959465028,10|0,3:2|3:0,0:0:0:0:
155,132,212667,6,0,B|116:113|73:138|73:138|41:221|101:280,1,240.000002002716,0|0,1:0|0:0,0:0:0:0:
235,254,213151,2,0,B|269:262|281:294|281:294|262:357|186:367,1,191.99998841858,2|0,2:0|0:0,0:0:0:0:
35,258,213635,2,0,P|35:318|95:349,1,107.999993485451
84,349,213957,6,0,B|162:343|200:246|160:165|56:216|36:25|139:-91|299:41|182:124,1,527.999968151094,2|0,3:2|0:0,0:0:0:0:
194,113,214925,2,0,P|248:137|288:130,1,90.0000007510186
341,89,215248,6,0,B|384:26|536:31|479:178|406:132,1,240.000002002716,0|0,1:0|0:0,0:0:0:0:
277,134,215732,2,0,B|215:117|137:194|232:249|267:207,1,199.999994039536,2|0,2:0|0:0,0:0:0:0:
426,152,216215,2,0,B|481:168|491:226|491:226|466:251,1,119.999996423721,0|0,3:0|0:0,0:0:0:0:
426,291,216538,6,0,B|343:244|232:305|313:399|187:466|56:384|83:281|148:246,2,480.000004005432,10|0|0,3:2|0:0|1:0,0:0:0:0:
426,291,218312,1,0,3:0:0:0:
490,250,218474,2,0,P|508:192|486:124,1,120.000001001358,2|0,0:2|0:3,0:0:0:0:
291,10,219119,6,0,B|309:144|262:301|-51:377|-171:108|-11:-72|107:-30|280:58|172:283|108:321,1,900.000007510186,6|0,3:2|0:0,0:0:0:0:
122,309,220409,6,0,P|44:322|-9:266,1,159.999995231628,0|0,1:0|0:0,0:0:0:0:
96,150,220893,2,0,P|159:222|123:309,1,199.999994039536,2|0,0:0|0:0,0:0:0:0:
15,175,221377,2,0,P|51:150|96:150,1,90.0000007510186,0|0,3:0|0:0,0:0:0:0:
159,191,221699,6,0,B|230:389|548:382|584:169|507:57|437:40|316:78|322:174|383:215,1,720.000006008149,10|0,3:2|3:0,0:0:0:0:
369,203,222990,6,0,B|483:192|523:291|441:337|400:287,1,240.000002002716,0|0,1:0|0:0,0:0:0:0:
223,225,223474,2,0,B|133:246|129:332|209:344|225:305,1,191.99998841858,2|0,2:0|0:0,0:0:0:0:
296,172,223957,2,0,P|284:127|315:51,1,119.999996423721,0|0,3:0|0:0,0:0:0:0:
321,43,224280,6,0,B|374:-6|508:-20|575:121|504:254|441:288|299:253|263:165|278:160|303:153|260:81|178:35|79:97,1,719.999956569673,10|0,3:2|0:0,0:0:0:0:
38,143,225570,6,0,B|1:193|-40:285|98:419|292:334|207:188|188:194|171:203|216:14|563:-30|524:310|436:348|317:353|276:249,1,839.999949331285,2|0,1:2|0:0,0:0:0:0:
234,211,226861,6,0,B|246:63|180:-2|97:-49|0:-25|-23:112|118:159|227:33,1,559.999988651276,6|0,3:2|1:0,0:0:0:0:
221,39,227828,5,2,3:2:0:0:
303,255,227990,1,0,1:0:0:0:
369,0,228151,5,4,1:2:0:0:
85,107,228474,5,0,1:0:0:0:
394,189,228796,5,0,1:0:0:0:
169,273,229119,5,0,0:0:0:0:
312,384,229441,6,0,B|279:310|341:310|308:228,1,159.999995231628,4|0,3:2|0:0,0:0:0:0:
219,336,229925,1,0,0:0:0:0:
219,336,230086,2,0,P|142:352|91:293,1,159.999995231628,0|0,0:0|3:0,0:0:0:0:
92,297,230732,2,0,P|116:222|193:207,1,159.999995231628,0|0,1:0|2:0,0:0:0:0:
297,296,231215,1,0,0:0:0:0:
297,296,231377,2,0,B|329:338|388:318|388:318|400:287|441:273,1,159.999995231628,0|0,2:0|3:0,0:0:0:0:
429,278,232022,6,0,P|483:135|444:55,2,239.999992847443,2|0|0,3:2|0:0|3:0,0:0:0:0:
302,346,233312,2,0,B|269:363|269:363|322:408|391:359,1,159.999995231628,0|0,1:0|0:0,0:0:0:0:
429,278,233796,2,0,P|389:226|406:122,1,159.999995231628
451,86,234280,1,0,3:0:0:0:
451,86,234441,1,0,2:0:0:0:
356,198,234603,6,0,P|281:220|211:185,1,159.999995231628,8|0,3:2|0:0,0:0:0:0:
152,88,235086,1,0,0:0:0:0:
152,88,235248,2,0,P|82:52|7:75,1,159.999995231628,0|0,2:2|3:0,0:0:0:0:
8,74,235893,2,0,P|-16:148|17:219,1,159.999995231628,0|0,1:2|2:0,0:0:0:0:
118,260,236377,2,0,P|170:232|277:248,1,159.999995231628
320,322,236861,2,0,B|320:364|357:379|357:379|386:359,1,79.9999976158142,0|0,3:0|3:0,0:0:0:0:
459,328,237183,5,2,3:2:0:0:
267,242,237667,1,0,0:0:0:0:
445,104,238151,1,0,3:0:0:0:
308,19,238474,5,0,1:0:0:0:
374,253,238957,1,0,0:0:0:0:
374,253,239119,2,0,B|403:297|471:289|471:289|496:273|502:219,1,159.999995231628,0|0,0:0|3:0,0:0:0:0:
301,34,239764,6,0,B|274:88|212:76|212:76|193:49|142:32,1,159.999995231628,4|0,3:2|0:0,0:0:0:0:
118,121,240248,1,0,0:0:0:0:
118,121,240409,2,0,P|40:134|22:217,1,159.999995231628,0|0,0:0|3:0,0:0:0:0:
18,204,241054,2,0,B|45:258|107:246|107:246|126:219|177:202,1,159.999995231628,0|0,1:2|0:0,0:0:0:0:
201,291,241538,1,0,0:0:0:0:
201,291,241699,2,0,P|279:304|297:387,1,159.999995231628,0|0,0:0|3:0,0:0:0:0:
301,373,242345,6,0,P|278:266|346:140,2,239.999992847443,2|0|0,3:2|0:0|3:0,0:0:0:0:
385,247,243635,2,0,B|422:296|482:282|482:282|509:261|511:226,1,159.999995231628,0|0,1:0|0:0,0:0:0:0:
456,127,244119,2,0,B|399:81|435:15|435:15|465:37|462:66,1,159.999995231628
369,140,244603,1,0,3:0:0:0:
369,140,244764,1,0,2:0:0:0:
285,52,244925,6,0,B|176:-25|100:35|50:97|141:185|208:141,1,352.00000025177,8|0,3:2|0:0,0:0:0:0:
383,76,245893,1,0,3:0:0:0:
403,190,246215,2,0,B|429:266|558:239|546:162|516:69|383:76,1,352.00000025177,0|0,1:2|0:0,0:0:0:0:
209,146,247183,5,0,0:0:0:0:
209,146,247345,1,0,0:0:0:0:
285,203,247506,2,0,B|353:242|353:319|307:364|307:364|295:331|259:318,1,255.999992370606,2|0,3:2|0:0,0:0:0:0:
61,319,248474,5,0,3:2:0:0:
61,319,248635,1,0,0:0:0:0:
142,358,248796,2,0,B|189:381|226:360|226:360|236:331|263:318,1,143.999991313935,0|0,1:0|0:0,0:0:0:0:
367,340,249280,1,2,0:0:0:0:
367,340,249441,2,0,P|419:385|487:371,1,143.999991313935,0|0,0:0|3:0,0:0:0:0:
487,370,250086,6,0,B|449:302|504:291|471:213,1,159.999995231628,6|0,3:2|0:0,0:0:0:0:
367,340,250732,2,0,P|312:362|234:301,1,159.999995231628,0|0,2:0|0:0,0:0:0:0:
193,140,251377,2,0,P|138:118|60:179,1,159.999995231628,0|0,1:0|0:0,0:0:0:0:
81,248,251861,1,0,0:0:0:0:
81,248,252022,2,0,P|136:270|214:209,1,159.999995231628,0|0,2:0|3:0,0:0:0:0:
211,216,252506,1,0,3:0:0:0:
278,158,252667,6,0,P|314:52|426:59,2,239.999992847443,2|0|0,3:2|0:0|3:0,0:0:0:0:
369,236,253877,1,0,3:0:0:0:
369,236,253957,2,0,P|444:239|471:309,1,159.999995231628,0|0,1:0|0:0,0:0:0:0:
395,359,254441,2,0,P|340:306|368:235,1,159.999995231628
437,196,254925,5,0,3:0:0:0:
437,196,255086,1,0,3:0:0:0:
355,249,255248,6,0,B|313:293|237:261|237:261|234:140|135:106,1,319.999990463257,8|0,3:2|0:0,0:0:0:0:
0,70,256215,1,0,3:0:0:0:
140,122,256538,2,0,B|191:152|233:120|233:120|245:87|270:71,1,159.999995231628,0|0,1:0|0:0,0:0:0:0:
344,91,257022,2,0,P|419:101|452:171,1,159.999995231628
507,231,257506,5,0,3:0:0:0:
507,231,257667,1,0,3:0:0:0:
398,263,257828,6,0,B|260:222|291:300|162:255,2,239.999992847443,2|0|0,3:2|0:0|3:0,0:0:0:0:
486,331,259038,1,0,3:0:0:0:
486,331,259119,1,0,1:0:0:0:
512,197,259441,1,0,0:0:0:0:
392,130,259764,1,0,0:0:0:0:
291,223,260086,1,0,3:0:0:0:
167,142,260409,6,0,B|205:81|176:25|176:25|157:7|116:14,1,176.000000125885,4|0,3:2|0:0,0:0:0:0:
50,58,260893,2,0,P|20:142|49:230,1,176.000000125885,2|0,2:2|0:0,0:0:0:0:
118,272,261377,2,0,P|157:254|211:261,1,88.0000000629425,0|0,3:0|0:0,0:0:0:0:
282,310,261699,2,0,B|315:358|390:372|436:322|436:322|388:205|378:127|502:79|561:191|486:239,1,528.000000377655,0|0,1:0|3:0,0:0:0:0:
485,239,262828,1,0,3:0:0:0:
393,182,262990,6,0,B|291:141|320:222|223:180,1,176.000000125885,8|0,3:2|0:0,0:0:0:0:
139,203,263474,1,2,0:0:0:0:
165,119,263635,2,0,P|162:62|55:13,1,176.000000125885,0|0,0:0|3:0,0:0:0:0:
0,129,264199,1,0,3:0:0:0:
0,129,264280,2,0,B|-25:216|41:262|41:262|59:254|76:252,1,176.000000125885,0|0,1:0|0:0,0:0:0:0:
143,295,264764,1,2,0:0:0:0:
205,232,264926,2,0,B|240:157|160:152|201:63,1,176.000000125885,0|0,0:0|3:0,0:0:0:0:
200,63,265409,1,0,3:0:0:0:
282,146,265570,6,0,B|331:199|416:180|416:180|462:123,2,191.99998841858,4|0|0,3:2|0:0|0:0,0:0:0:0:
149,6,266538,1,2,2:0:0:0:
9,139,266861,1,0,1:0:0:0:
142,279,267183,1,0,0:0:0:0:
282,146,267506,5,2,0:0:0:0:
398,199,267721,1,0,0:0:0:0:
386,73,267936,1,0,0:0:0:0:
270,160,268151,6,0,B|252:191|223:199|223:199|167:160|86:160,1,191.99998841858,8|0,3:2|0:0,0:0:0:0:
328,310,268796,2,0,B|342:341|375:349|375:349|431:310|512:310,1,191.99998841858,0|0,3:2|2:0,0:0:0:0:
341,199,269361,5,0,3:0:0:0:
341,199,269441,1,0,1:0:0:0:
225,352,269764,1,0,0:0:0:0:
44,287,270086,1,0,2:0:0:0:
160,134,270409,1,0,3:2:0:0:
342,213,270732,6,0,B|373:242|410:226|410:226|391:202|360:205,1,99.9999970197678,4|0,3:2|0:0,0:0:0:0:
174,225,271054,6,0,B|131:220|109:255|109:255|140:263|164:242,1,103.999992139817,0|0,1:0|0:0,0:0:0:0:
302,116,271377,6,0,B|340:95|336:53|336:53|307:63|299:96,1,107.999997193337,0|0,1:0|0:0,0:0:0:0:
262,280,271699,6,0,B|242:320|271:353|271:353|289:326|275:295,1,111.999993244171,0|0,1:0|0:0,0:0:0:0:
194,119,272022,6,0,B|184:72|141:63|141:63|142:97|172:113,1,116.00000008297,0|0,1:2|0:0,0:0:0:0:
348,214,272345,6,0,B|382:246|424:228|424:228|403:201|367:204,1,120.000001001358,0|0,1:0|0:0,0:0:0:0:
167,228,272667,6,0,B|118:221|95:261|95:261|129:270|156:247,1,123.999997250557,0|0,1:0|0:0,0:0:0:0:
306,111,272990,6,0,B|346:87|342:42|342:42|311:54|302:88,1,127.999996185303,0|0,1:0|0:0,0:0:0:0:
263,286,273312,6,0,B|247:358|305:380|305:380|333:363|353:363,1,155.999988209725,8|0,3:2|0:0,0:0:0:0:
361,363,273635,2,0,P|380:290|356:249,1,103.999992139817,4|0,1:2|3:0,2:2:0:0:
193,152,273957,2,0,B|179:195|140:203|140:203|92:155|12:163,1,207.999984279633,4|0,1:2|3:0,0:0:0:0:
230,46,274522,5,0,3:0:0:0:
230,46,274603,2,0,P|283:47|341:26,1,103.999992139817,0|0,1:0|0:0,0:0:0:0:
282,338,274925,2,0,P|229:337|171:358,1,103.999992139817,8|0,2:3|0:0,0:0:0:0:
405,196,275248,2,0,P|404:247|418:297,1,103.999992139817,4|0,0:3|0:0,0:0:0:0:
107,188,275570,2,0,P|107:136|93:86,1,103.919996030811,8|0,0:3|0:0,0:0:0:0:
78,71,275893,6,0,B|14:63|-20:126|21:190|62:227|166:173|207:94|97:17|251:-34|340:8|370:103|287:172|223:130,1,559.999988651276,6|0,3:2|0:0,0:0:0:0:
234,136,276861,2,0,P|200:125|133:134,1,90.0000007510186
79,162,277183,6,0,B|52:177|37:213|63:232|49:285|49:285|62:238|82:254|91:219|77:177,1,240.000002002716,0|0,1:0|0:0,0:0:0:0:
141,304,277667,2,0,B|144:335|161:356|188:346|220:379|220:379|194:348|208:340|188:319|152:311,1,199.999994039536,2|0,2:0|0:0,0:0:0:0:
289,315,278151,2,0,B|331:333|362:295|362:295|352:268|367:243,1,119.999996423721,0|0,3:0|0:0,0:0:0:0:
380,249,278474,6,0,B|499:324|577:118|420:66|352:143|353:152|353:162|335:235|188:200|114:65|226:-37|322:-41|384:35,1,671.999959465028,10|0,3:2|3:0,0:0:0:0:
369,20,279764,6,0,P|376:132|260:145,1,240.000002002716,0|0,1:0|0:0,0:0:0:0:
369,20,280248,2,0,P|280:2|227:75,1,191.99998841858,2|0,0:0|0:0,0:0:0:0:
351,166,280732,2,0,P|370:180|359:274,1,107.999993485451
309,302,281054,6,0,B|269:276|229:273|192:290|211:303|148:329|83:340|52:298|48:247|71:196|131:198|163:213|173:272|141:287|116:260,1,383.999976837159,2|0,3:2|0:0,0:0:0:0:
118,262,282022,2,0,P|162:263|194:233,1,90.0000007510186
234,153,282345,6,0,B|175:116|155:-27|305:-13|278:80,1,240.000002002716,0|0,1:0|0:0,0:0:0:0:
148,175,282828,2,0,B|99:193|-5:132|80:44|130:98,1,199.999994039536,2|0,2:0|0:0,0:0:0:0:
116,260,283312,2,0,B|115:304|72:309|72:309|78:276|106:268,1,119.999996423721,0|0,3:0|0:0,0:0:0:0:
186,239,283635,6,0,B|275:349|451:203|238:118|430:-37|511:69,2,480.000004005432,10|0|0,3:2|0:0|1:0,0:0:0:0:
186,239,285409,1,0,3:0:0:0:
239,292,285570,2,0,P|293:296|341:256,1,120.000001001358,2|0,0:2|2:3,0:0:0:0:
194,17,286215,6,0,B|77:-14|39:128|85:186|213:220|296:144|302:136|307:126|499:-58|640:130|605:365|464:372|338:337|340:238,1,900.000007510186,6|0,3:2|0:0,0:0:0:0:
342,256,287506,6,0,P|376:187|345:117,1,159.999995231628,0|0,1:0|0:0,0:0:0:0:
199,185,287990,2,0,P|248:266|342:256,1,199.999994039536,2|0,0:0|0:0,0:0:0:0:
239,110,288474,2,0,P|208:141|199:184,1,90.0000007510186,0|0,3:0|0:0,0:0:0:0:
224,262,288796,6,0,B|242:336|189:383|189:383|52:364|2:110|151:1,1,600.000005006791,10|0,3:2|0:0,0:0:0:0:
386,136,289764,2,0,B|460:125|417:94|498:90,1,119.999996423721,0|0,3:0|0:0,0:0:0:0:
507,102,290086,6,0,B|446:113|378:85|434:33|358:-1|281:6,1,255.999992370606,0|0,1:0|0:0,0:0:0:0:
117,75,290570,2,0,B|54:131|-12:73|-12:73|5:36|44:30,1,207.999984279633,2|0,0:0|0:0,0:0:0:0:
223,165,291054,2,0,B|270:202|253:259|253:259|212:243,1,119.999996423721,0|0,3:0|0:0,0:0:0:0:
168,225,291377,6,0,B|97:203|26:271|49:388|140:441|284:344|261:314|238:277|304:235|366:235|410:285,1,527.999968151094,10|0,3:2|0:0,0:0:0:0:
409,284,292345,2,0,B|424:320|461:321|461:321|493:300,1,90.0000007510186
476,227,292667,6,0,B|509:199|514:172|514:172|508:79|437:22,1,240.000002002716,0|0,1:2|0:0,0:0:0:0:
347,190,293151,2,0,B|305:250|232:216|232:216|215:177|160:160,1,199.999994039536,2|0,0:0|0:0,0:0:0:0:
10,256,293635,2,0,B|-31:328|34:369|34:369|66:344,1,159.999995231628,0|0,3:0|3:0,0:0:0:0:
379,163,294388,6,0,B|386:210|418:234|424:225|452:228|477:260|477:260|498:190|454:152,1,255.999992370606,6|0,1:2|0:0,0:0:0:0:
318,31,294818,5,0,3:0:0:0:
318,31,295033,1,0,3:0:0:0:
209,274,295248,6,0,B|210:329|170:354|163:344|132:348|104:383|104:383|82:306|121:273,1,271.999997081757,6|0,1:2|0:0,0:0:0:0:
185,142,295678,5,8,0:3:0:0:
325,341,295893,1,4,0:3:0:0:
305,73,296108,5,8,0:3:0:0:
202,384,296323,1,4,0:3:0:0:
72,188,296538,6,0,B|45:187|22:203|22:203|116:113|241:197|212:233|188:266|335:352|442:288|442:288|322:163|347:-45|555:12|513:126|459:140,1,959.999971389771,4|0,3:2|0:0,0:0:0:0:
461,139,297828,6,0,B|368:178|373:280|481:295|485:217,1,240.000002002716,0|0,1:0|0:0,0:0:0:0:
390,88,298312,2,0,B|311:82|273:157|344:213|382:161,1,199.999994039536,2|0,2:0|0:0,0:0:0:0:
327,21,298796,2,0,P|253:16|230:59,1,119.999996423721,0|0,3:0|0:0,0:0:0:0:
232,68,299119,6,0,B|344:93|291:252|182:243|113:129|160:119|203:106|170:-59|-67:-39|-132:148|12:250|96:211,1,671.999959465028,10|0,3:2|3:0,0:0:0:0:
90,214,300409,6,0,P|202:214|241:320,1,240.000002002716,0|0,1:0|0:0,0:0:0:0:
96,382,300893,2,0,P|53:300|89:215,1,191.99998841858,2|0,0:0|0:0,0:0:0:0:
241,321,301377,2,0,B|260:350|306:352|306:352|340:323,1,107.999993485451
346,311,301699,6,0,B|337:221|407:137|447:254|611:138|571:-61|336:-37|388:132,1,527.999968151094,2|0,3:2|0:0,0:0:0:0:
385,120,302667,2,0,P|398:160|387:215,1,90.0000007510186
332,265,302990,6,0,B|302:270|276:298|297:323|261:370|261:370|301:366|331:344|327:298,1,240.000002002716,0|0,1:0|0:0,0:0:0:0:
267,189,303474,2,0,B|250:169|214:165|206:186|158:181|158:181|181:211|212:216|254:190,1,199.999994039536,2|0,2:0|0:0,0:0:0:0:
317,107,303957,2,0,B|332:52|284:19|284:19|240:30,1,119.999996423721,0|0,3:0|0:0,0:0:0:0:
252,40,304280,6,0,B|242:88|155:116|109:98|140:23|24:-86|-171:177|56:253|131:174,2,480.000004005432,10|0|0,3:2|0:0|1:0,0:0:0:0:
252,40,306054,1,0,3:0:0:0:
318,82,306215,2,0,P|343:130|332:194,1,120.000001001358,2|0,0:2|0:3,0:0:0:0:
73,19,306861,6,0,B|-49:83|-54:307|167:376|281:288|264:225|232:175|360:113|538:111|619:268|465:384|397:262,1,900.000007510186,6|0,3:2|0:0,0:0:0:0:
403,272,308151,6,0,P|359:210|283:217,1,159.999995231628,0|0,1:0|0:0,0:0:0:0:
403,272,308635,2,0,P|357:353|266:335,1,199.999994039536,2|0,0:0|0:0,0:0:0:0:
198,237,309119,2,0,P|153:231|112:271,1,90.0000007510186,0|0,3:0|0:0,0:0:0:0:
102,274,309441,6,0,B|40:293|-22:269|-109:209|-45:-26|230:37|200:155|177:239|340:279|461:172|378:25|280:90,1,720.000006008149,10|0,3:2|0:0,0:0:0:0:
294,82,310732,6,0,B|278:181|376:209|376:209|410:173|382:134,1,240.000002002716,0|0,1:0|0:0,0:0:0:0:
236,253,311215,2,0,B|173:302|208:369|208:369|251:373|262:340,1,191.99998841858,2|0,2:0|0:0,0:0:0:0:
134,186,311699,2,0,B|83:172|42:212|42:212|77:222,1,119.999996423721,0|0,3:0|0:0,0:0:0:0:
79,224,312022,6,0,B|209:184|357:240|219:382|485:468|639:327|504:84|353:193,1,719.999956569673,10|0,3:2|0:0,0:0:0:0:
286,241,313312,6,0,B|279:410|108:440|-47:373|-18:128|136:73|177:110|240:188|306:216|487:32|253:-84|192:38|240:100,1,839.999949331285,2|0,1:2|0:0,0:0:0:0:
295,151,314603,6,0,B|347:200|528:251|566:15|358:-41|290:131|341:258|464:337,1,559.999988651276,6|0,3:2|1:0,0:0:0:0:
447,325,315570,5,2,3:2:0:0:
367,86,315732,1,0,1:0:0:0:
293,371,315893,5,4,1:2:0:0:
217,44,316216,5,0,1:0:0:0:
413,247,316538,5,0,1:0:0:0:
81,184,316861,5,0,0:0:0:0:
468,46,317183,6,0,B|369:88|302:175|300:302|331:366|517:333|595:263|571:102|332:86|341:76|350:69|299:-98|135:-47|104:119|230:148|272:96,1,895.999973297119,10|0,3:2|0:0,0:0:0:0:
270,97,319764,6,0,P|330:83|402:120,1,127.999996185303,2|0,2:2|0:0,0:0:0:0:
378,235,320409,2,0,P|318:249|246:212,1,127.999996185303
190,163,320974,1,0,3:0:0:0:
190,163,321054,2,0,P|131:138|70:152,1,127.999996185303,2|0,2:0|0:0,0:0:0:0:
0,273,321699,5,2,0:0:0:0:
66,255,321861,1,0,0:0:0:0:
119,300,322022,1,0,3:0:0:0:
119,300,322345,6,0,P|178:317|236:269,1,120.000001001358,2|0,3:2|0:0,0:0:0:0:
269,191,322990,2,0,P|226:230|225:288,1,120.000001001358,0|0,2:2|3:0,0:0:0:0:
288,375,323635,2,0,P|275:318|224:288,1,120.000001001358,2|0,3:2|2:0,0:0:0:0:
119,300,324280,2,0,P|178:317|236:269,1,120.000001001358,0|0,2:2|3:0,2:0:0:0:
319,143,324925,6,0,B|310:89|364:59|364:59|361:76,1,120.000001001358,2|0,0:0|0:0,0:0:0:0:
416,182,325570,2,0,B|458:147|511:178|511:178|495:184,1,120.000001001358
443,259,326135,1,0,3:0:0:0:
443,259,326215,2,0,B|401:305|429:349|429:349|468:360,1,120.000001001358,2|0,0:0|0:0,0:0:0:0:
363,230,326861,2,0,B|325:187|270:198|270:198|296:233,1,120.000001001358,2|0,0:0|3:0,0:0:0:0:
279,211,327506,6,0,B|301:238|300:275|290:267|284:305|285:341|312:354|341:350|366:331|358:298|341:281|312:284|308:301|321:315,1,207.999984279633,8|0,0:0|0:0,0:0:0:0:
221,261,328474,2,0,B|210:305|181:315|182:302|147:320|119:342|124:371|144:392|175:401|197:376|200:352|181:330|165:337|161:356,1,207.999984279633
149,245,329441,2,0,P|125:210|52:202,1,103.999992139817,0|0,0:0|3:0,0:0:0:0:
67,197,330087,6,0,B|66:248|116:261|116:261|175:226|233:232,1,207.999984279633,2|0,0:0|0:0,0:0:0:0:
340,299,331054,2,0,B|386:366|473:349|473:349|498:330|506:295,1,207.999984279633
472,205,332022,2,0,B|494:189|497:173|497:173|498:153|476:105,1,103.999992139817,0|0,0:0|3:0,0:0:0:0:
426,62,332506,5,0,0:0:0:0:
426,62,332587,1,0,0:0:0:0:
426,62,332667,2,0,B|410:106|364:108|364:108|314:50|237:62,1,207.999984279633,8|0,0:0|0:0,0:0:0:0:
141,87,333635,5,0,0:0:0:0:
285,150,333958,5,2,3:2:0:0:
346,233,334280,5,0,0:0:0:0:
326,324,334603,5,0,0:0:0:0:
254,366,334925,5,0,3:0:0:0:
127,203,335248,5,2,0:0:0:0:
73,271,335570,5,0,0:0:0:0:
85,349,335893,5,0,0:0:0:0:
146,384,336215,5,0,0:0:0:0:
210,278,336538,6,0,B|196:237|217:241|200:185,1,79.9999976158142,2|0,0:0|0:0,0:0:0:0:
112,241,337308,6,0,P|63:242|34:221,1,71.9999956569673,2|0,0:0|0:0,0:0:0:0:
0,142,337997,6,0,L|7:116,1,19.9999994039536,2|0,0:1|0:2,0:0:0:0:
5,122,338801,6,0,B|86:78|189:119|111:223|294:227|370:107|254:-2|177:72,1,449.999986588955,2|8,0:2|0:0,0:0:0:0:
