osu file format v14

[General]
AudioFilename: audio.mp3
AudioLeadIn: 0
PreviewTime: 56013
Countdown: 0
SampleSet: Soft
StackLeniency: 0.7
Mode: 0
LetterboxInBreaks: 0
WidescreenStoryboard: 1

[Editor]
DistanceSpacing: 1.6
BeatDivisor: 4
GridSize: 4
TimelineZoom: 1.8

[Metadata]
Title:Tsumetai Kabe no Mukou ni (Short Ver.)
TitleUnicode:冷たい壁のむこうに (Short Ver.)
Artist:yuki
ArtistUnicode:yuki
Creator:pnky
Version:misure's hard.
Source:白昼夢の青写真
Tags:冷たい壁の向こうに Misure -karUpA- 緒乃ワサビ onoWasabi Laplacian Hakuchuumu no Aojashin The girl who's whos called the world -The girl who dreamed the world- cyanotype daydream video game visual novel vn japanese folk case2 case 2 case-2 op opening galgame eroge momo Between the Cold Walls
BeatmapID:3592267
BeatmapSetID:1741911

[Difficulty]
HPDrainRate:4.6
CircleSize:4
OverallDifficulty:6
ApproachRate:7.6
SliderMultiplier:1.45
SliderTickRate:1

[Events]
//Background and Video events
0,0,"oli2.jpg",0,0
Video,-95,"movie.mp4"
//Break Periods
//Storyboard Layer 0 (Background)
//Storyboard Layer 1 (Fail)
//Storyboard Layer 2 (Pass)
//Storyboard Layer 3 (Foreground)
//Storyboard Layer 4 (Overlay)
//Storyboard Sound Samples

[TimingPoints]
-180,350.877192982456,3,2,1,60,1,0
2627,-111.111111111111,4,2,1,60,0,0
3153,-111.111111111111,4,2,1,30,0,0
4030,-100,4,2,1,60,0,0
20872,-133.333333333333,4,2,1,50,0,0
35960,-133.333333333333,4,2,2,50,0,0
36486,-111.111111111111,4,2,1,50,0,0
37714,-111.111111111111,4,2,1,60,0,0
50872,-111.111111111111,4,2,2,60,0,0
51048,-111.111111111111,4,2,1,60,0,0
51223,-111.111111111111,4,2,2,60,0,0
51398,-111.111111111111,4,2,1,60,0,0
56662,350.877192982456,3,2,1,70,1,0
59118,-100,4,2,2,70,0,0
59293,-100,4,2,1,70,0,0
59471,-100,4,2,1,70,0,0
72977,-100,4,2,2,70,0,0
73153,-100,4,2,1,70,0,0
73328,-100,4,2,2,70,0,0
73504,-100,4,2,1,70,0,0
73679,-100,4,2,2,70,0,0
73854,-100,4,2,1,70,0,0
75609,350.877192982456,3,2,1,60,1,0
78418,-100,4,2,1,60,0,0
88240,-100,4,2,1,50,0,0
92451,-100,4,2,1,5,0,0

[Colours]
Combo1 : 150,185,220
Combo2 : 240,140,140
Combo3 : 200,180,220
Combo4 : 240,200,155

[HitObjects]
123,115,3153,6,0,P|134:127|144:139,2,32.624999004364,8|8|8,0:0|0:0|3:2,0:0:0:0:
149,29,3504,1,0,3:2:0:0:
149,29,3679,1,0,3:2:0:0:
86,213,4030,6,0,P|154:188|223:165,1,145,6|2,1:2|1:1,0:0:0:0:
325,191,4556,1,10,2:2:0:0:
325,191,4732,2,0,P|314:156|326:122,1,72.5,2|0,1:1|0:0,0:0:0:0:
417,80,5083,6,0,L|439:223,1,145,10|2,2:0|0:0,0:0:0:0:
377,301,5609,1,2,0:0:0:0:
449,373,5784,2,0,P|480:355|513:339,1,72.5,2|2,1:2|1:2,0:0:0:0:
390,306,6135,6,0,P|324:327|276:277,1,145,10|0,0:0|0:0,0:0:0:0:
204,205,6662,1,2,1:2:0:0:
148,289,6837,2,0,P|112:292|87:267,1,72.5,2|2,1:2|0:0,0:0:0:0:
56,374,7188,6,0,P|121:343|187:313,2,145,10|0|2,0:0|1:2|1:2,0:0:0:0:
4,129,8241,6,0,P|47:181|114:164,1,145,2|2,1:2|1:1,0:0:0:0:
201,111,8767,1,8,2:2:0:0:
201,111,8942,2,0,L|217:181,1,72.5,2|0,1:1|0:0,0:0:0:0:
304,230,9293,6,0,L|325:87,1,145,10|2,2:0|1:2,0:0:0:0:
421,112,9819,1,0,0:0:0:0:
421,112,9995,2,0,P|472:119|505:79,1,108.75,2|0,1:2|0:0,0:0:0:0:
512,50,10346,6,0,P|456:28|376:0,1,145,10|0,0:0|0:0,0:0:0:0:
325,86,10872,1,10,0:0:0:0:
222,67,11048,2,0,P|216:31|231:-1,1,72.5,2|2,1:2|0:0,0:0:0:0:
325,86,11398,5,2,1:2:0:0:
325,86,11574,1,8,0:0:0:0:
310,186,11749,2,0,L|318:222,2,36.25,0|0|0,1:2|1:0|0:0,0:0:0:0:
209,169,12100,2,0,L|197:240,1,72.5,10|0,0:0|1:2,0:0:0:0:
224,338,12451,6,0,P|161:370|96:344,1,145,4|2,1:2|1:1,0:0:0:0:
107,245,12977,1,10,2:2:0:0:
107,245,13153,2,0,L|90:173,1,72.5,2|0,1:1|0:0,0:0:0:0:
190,154,13504,6,0,P|245:111|313:129,1,145,10|2,2:0|1:2,0:0:0:0:
375,209,14030,1,2,0:0:0:0:
464,161,14205,2,0,P|471:116|476:89,1,72.5,2|2,1:2|1:2,0:0:0:0:
383,194,14556,6,0,P|397:265|411:336,1,145,2|0,1:2|0:0,0:0:0:0:
320,383,15083,1,10,0:0:0:0:
235,327,15258,2,0,P|243:291|252:256,1,72.5,2|2,1:2|0:0,0:0:0:0:
246,347,15609,6,0,P|179:321|110:297,2,145,10|0|2,0:0|1:2|1:2,0:0:0:0:
211,105,16662,6,0,P|182:127|147:129,1,72.5,4|0,1:2|0:0,0:0:0:0:
82,57,17012,1,2,1:2:0:0:
82,57,17188,1,10,2:2:0:0:
13,131,17363,2,0,P|28:164|42:197,1,72.5,2|0,1:1|0:0,0:0:0:0:
82,304,17714,6,0,P|48:292|14:279,1,72.5,14|0,2:0|0:0,0:0:0:0:
146,226,18065,2,0,P|134:298|123:370,1,145,2|2,1:2|1:2,0:0:0:0:
123,369,18591,1,2,1:2:0:0:
223,333,18767,6,0,B|275:320|306:390|354:381,1,145,6|2,1:2|0:0,0:0:0:0:
452,353,19293,1,10,0:0:0:0:
452,353,19469,2,0,P|465:320|454:286,1,72.5,0|2,1:2|0:0,0:0:0:0:
453,176,19819,6,0,P|400:191|349:208,1,108.75,2|0,1:2|0:0,0:0:0:0:
330,238,20170,1,8,0:0:0:0:
330,238,20346,1,8,0:0:0:0:
260,172,20521,1,0,1:2:0:0:
260,172,20697,1,0,1:2:0:0:
308,89,20872,1,2,1:2:0:0:
151,0,21223,6,0,P|144:26|138:52,1,54.3750020742417,2|0,0:0|0:0,0:0:0:0:
75,113,21574,2,0,P|82:139|90:164,1,54.3750020742417,2|0,0:0|0:0,0:0:0:0:
161,216,21925,1,2,0:0:0:0:
103,380,22276,6,0,P|79:368|54:358,1,54.3750020742417,2|0,0:0|0:0,0:0:0:0:
186,356,22627,2,0,P|210:344|235:333,1,54.3750020742417,2|0,0:0|0:0,0:0:0:0:
321,343,22977,6,0,P|361:376|412:364,1,108.750004148483,2|0,0:0|0:0,0:0:0:0:
445,281,23504,1,2,0:0:0:0:
445,281,23679,2,0,P|433:256|421:232,1,54.3750020742417,2|0,0:0|0:0,0:0:0:0:
450,149,24030,1,2,0:0:0:0:
315,255,24381,6,0,P|210:258|150:172,1,217.500008296967,2|2,0:0|0:0,0:0:0:0:
15,0,25434,6,0,P|8:26|3:53,1,54.3750020742417,2|0,0:0|0:0,0:0:0:0:
34,134,25784,2,0,P|58:122|83:111,1,54.3750020742417,2|0,0:0|0:0,0:0:0:0:
167,88,26135,1,2,0:0:0:0:
317,4,26486,6,0,P|323:30|328:57,1,54.3750020742417,2|0,0:0|0:0,0:0:0:0:
298,138,26837,2,0,P|273:126|248:115,1,54.3750020742417,2|0,0:0|0:0,0:0:0:0:
183,174,27188,6,0,B|165:209|207:243|187:279,1,108.750004148483,2|0,0:0|0:0,0:0:0:0:
189,366,27714,1,2,0:0:0:0:
102,367,27890,2,0,P|75:322|98:275,1,108.750004148483,2|2,0:0|0:0,0:0:0:0:
269,319,28591,6,0,B|349:288|383:384|476:351,1,217.500008296967,2|4,0:0|1:0,0:0:0:0:
475,136,29644,5,2,0:0:0:0:
475,136,29819,1,0,0:0:0:0:
421,204,29995,2,0,P|431:228|441:253,2,54.3750020742417,2|0|2,0:0|0:0|0:0,0:0:0:0:
255,258,30697,6,0,P|259:231|266:204,1,54.3750020742417,2|0,0:0|0:0,0:0:0:0:
205,142,31048,1,2,0:0:0:0:
205,142,31223,1,0,0:0:0:0:
233,60,31398,6,0,P|281:82|331:65,1,108.750004148483,2|0,0:0|0:0,0:0:0:0:
391,0,31925,1,2,0:0:0:0:
464,46,32100,2,0,P|470:72|475:99,1,54.3750020742417,2|0,0:0|0:0,0:0:0:0:
419,166,32451,1,2,0:0:0:0:
510,314,32802,1,2,0:0:0:0:
348,377,33153,6,0,P|324:364|299:352,1,54.3750020742417,2|0,0:0|0:0,0:0:0:0:
217,381,33504,1,2,0:0:0:0:
42,378,33855,2,0,P|49:351|57:326,1,54.3750020742417,2|0,0:0|0:0,0:0:0:0:
0,259,34205,1,2,0:0:0:0:
100,116,34556,5,2,0:0:0:0:
165,277,34907,2,0,P|240:297|295:242,1,163.125006222725,2|0,0:0|0:0,0:0:0:0:
226,178,35609,6,0,P|276:159|328:141,2,108.750004148483,2|8|8,0:0|2:1|2:1,0:0:0:0:
143,137,36486,5,0,1:2:0:0:
143,137,36574,1,0,1:2:0:0:
143,137,36662,2,0,P|131:106|137:75,1,65.2499980087281,8|0,0:0|3:2,0:0:0:0:
196,1,37012,1,0,3:3:0:0:
256,69,37188,1,0,3:3:0:0:
335,24,37363,1,0,3:3:0:0:
457,181,37714,5,10,1:2:0:0:
457,181,38065,1,0,1:2:0:0:
511,262,38241,2,0,P|504:281|493:324,2,65.2499980087281,2|2|2,0:0|1:2|1:2,0:0:0:0:
413,267,38767,6,0,P|351:280|303:239,2,130.499996017456,10|2|10,0:0|1:2|2:2,0:0:0:0:
457,181,39644,1,2,1:2:0:0:
405,97,39819,6,0,P|343:119|282:142,1,130.499996017456,2|0,1:2|1:2,0:0:0:0:
188,173,40346,1,2,0:0:0:0:
188,173,40521,2,0,P|190:140|175:112,1,65.2499980087281,2|2,0:0|1:2,0:0:0:0:
79,91,40872,6,0,P|53:149|72:210,1,130.499996017456,2|0,1:2|1:2,0:0:0:0:
141,280,41398,1,2,0:0:0:0:
89,363,41574,2,0,P|60:347|31:333,1,65.2499980087281,8|2,1:2|0:0,0:0:0:0:
141,280,41925,5,2,1:2:0:0:
141,280,42276,1,0,1:2:0:0:
201,357,42451,2,0,P|231:344|261:332,2,65.2499980087281,2|2|2,0:0|0:0|0:0,0:0:0:0:
141,280,42977,6,0,P|134:248|144:217,1,65.2499980087281,10|0,1:2|0:0,0:0:0:0:
76,146,43328,2,0,P|99:124|131:117,1,65.2499980087281,2|0,1:2|0:0,0:0:0:0:
159,23,43679,2,0,P|189:32|211:56,1,65.2499980087281,10|0,0:0|0:0,0:0:0:0:
255,144,44030,6,0,P|316:121|377:100,1,130.499996017456,2|0,1:2|1:2,0:0:0:0:
476,106,44556,1,2,1:2:0:0:
476,106,44732,2,0,P|476:73|461:45,1,65.2499980087281,2|0,1:2|0:0,0:0:0:0:
426,189,45083,5,2,1:2:0:0:
238,133,45434,1,0,1:2:0:0:
91,261,45784,1,8,0:0:0:0:
0,75,46135,6,0,P|94:87|166:26,1,195.749994026184,6|2,1:2|0:0,0:0:0:0:
254,68,46837,2,0,P|275:91|306:97,1,65.2499980087281,2|2,1:2|0:0,0:0:0:0:
386,38,47188,6,0,P|448:18|510:0,2,130.499996017456,10|2|10,1:2|1:2|2:2,0:0:0:0:
397,135,48065,1,2,0:0:0:0:
308,97,48241,6,0,P|258:56|195:62,1,130.499996017456,2|0,1:2|0:0,0:0:0:0:
96,63,48767,1,2,1:2:0:0:
96,63,48942,2,0,P|102:31|111:0,1,65.2499980087281,10|2,1:2|0:0,0:0:0:0:
0,69,49293,6,0,P|21:129|41:192,1,130.499996017456,2|0,1:2|1:2,0:0:0:0:
76,287,49819,1,0,0:0:0:0:
76,287,49995,2,0,P|66:318|58:349,1,65.2499980087281,10|2,0:0|0:0,0:0:0:0:
150,384,50346,5,2,1:2:0:0:
340,357,50697,2,0,P|331:325|322:294,1,65.2499980087281,0|8,1:2|2:1,0:0:0:0:
382,216,51048,2,0,P|412:227|442:239,1,65.2499980087281,2|10,1:2|2:1,0:0:0:0:
499,319,51398,5,10,1:2:0:0:
466,124,51749,2,0,P|474:92|483:61,1,65.2499980087281,2|0,1:2|0:0,0:0:0:0:
408,0,52100,1,10,0:0:0:0:
408,0,52276,1,2,1:2:0:0:
333,63,52451,6,0,P|352:125|369:188,1,130.499996017456,14|0,1:2|3:2,0:0:0:0:
277,226,52977,1,0,1:2:0:0:
277,226,53153,2,0,P|263:255|269:286,1,65.2499980087281,2|0,1:2|0:0,0:0:0:0:
266,384,53504,6,0,B|209:389|198:334|146:342,1,130.499996017456,14|0,0:0|3:2,0:0:0:0:
59,384,54030,1,0,3:2:0:0:
59,384,54205,2,0,P|46:354|31:324,1,65.2499980087281,8|0,1:2|1:2,0:0:0:0:
102,256,54556,6,0,P|120:211|104:166,1,97.8749970130921,6|0,1:2|1:2,0:0:0:0:
73,153,54907,2,0,P|81:116|88:89,1,65.2499980087281,8|0,1:2|1:2,0:0:0:0:
143,0,55258,1,8,3:2:0:0:
194,80,55434,1,0,3:2:0:0:
283,49,55609,1,2,1:2:0:0:
102,258,56662,6,0,P|158:299|225:278,1,145,14|2,1:1|1:2,0:0:0:0:
322,308,57188,2,0,B|336:275|321:239|321:239|304:200|321:167,1,145,2|2,0:0|1:2,0:0:0:0:
272,78,57714,1,10,1:2:0:0:
225,277,58065,1,0,1:2:0:0:
414,205,58416,1,2,1:2:0:0:
414,205,58591,1,2,0:0:0:0:
457,319,58767,6,0,P|389:293|320:269,1,145,10|10,1:2|2:1,0:0:0:0:
266,355,59293,2,0,B|230:348|198:369|198:369|163:394|128:384,1,145,10|2,0:0|1:2,0:0:0:0:
36,340,59819,2,0,P|23:304|10:272,1,72.5,10|0,0:0|0:0,0:0:0:0:
57,181,60170,1,2,3:2:0:0:
244,259,60521,1,2,1:2:0:0:
244,259,60697,1,2,0:0:0:0:
335,218,60872,6,0,P|348:146|362:75,1,145,6|2,1:2|1:0,0:0:0:0:
287,6,61398,2,0,P|236:52|172:26,1,145,10|2,1:2|1:2,0:0:0:0:
73,0,61925,1,10,0:0:0:0:
84,202,62276,1,2,3:2:0:0:
257,96,62626,1,10,1:2:0:0:
257,96,62802,1,2,0:0:0:0:
332,164,62977,6,0,B|346:197|326:235|326:235|309:270|321:304,1,145,6|2,1:2|0:0,0:0:0:0:
395,374,63504,1,0,1:2:0:0:
463,299,63679,2,0,L|449:227,1,72.5,10|0,0:0|0:0,0:0:0:0:
497,137,64030,6,0,P|461:137|434:114,1,72.5,10|0,0:0|3:2,0:0:0:0:
351,55,64381,1,0,1:2:0:0:
286,251,64732,1,2,3:2:0:0:
286,251,64907,1,10,0:0:0:0:
323,354,65083,6,0,P|252:332|183:313,1,145,14|0,0:0|1:2,0:0:0:0:
90,353,65609,1,10,0:0:0:0:
90,353,65784,2,0,P|76:320|84:286,1,72.5,2|0,0:0|3:2,0:0:0:0:
38,194,66135,6,0,P|17:114|0:54,2,145,10|8|2,0:0|0:0|0:0,0:0:0:0:
38,194,67012,1,0,1:2:0:0:
116,127,67188,6,0,P|184:142|236:96,1,145,14|2,0:0|1:2,0:0:0:0:
192,4,67714,1,0,1:2:0:0:
192,4,67890,2,0,P|157:13|122:25,1,72.5,2|0,3:2|3:2,0:0:0:0:
116,127,68240,5,10,0:0:0:0:
297,218,68591,1,0,1:2:0:0:
458,95,68942,1,2,1:2:0:0:
458,95,69118,1,2,0:0:0:0:
375,35,69293,6,0,P|355:104|385:168,1,145,14|0,0:0|1:2,0:0:0:0:
482,198,69819,1,0,1:2:0:0:
482,198,69995,2,0,P|471:232|461:267,1,72.5,2|2,3:2|3:2,0:0:0:0:
466,369,70346,6,0,B|430:377|397:350|397:350|366:327|330:332,1,145,10|0,0:0|1:2,0:0:0:0:
231,357,70872,1,2,0:0:0:0:
142,315,71047,1,10,1:2:0:0:
53,363,71223,1,2,0:0:0:0:
132,335,71398,6,0,P|113:253|99:193,1,145,2|0,1:2|0:0,0:0:0:0:
76,94,71925,1,0,1:2:0:0:
76,94,72100,1,2,1:2:0:0:
218,233,72451,6,0,P|247:211|277:191,1,72.5,8|0,0:0|0:0,0:0:0:0:
339,110,72802,2,0,P|372:124|404:140,1,72.5,0|8,1:2|2:1,0:0:0:0:
506,153,73153,2,0,P|510:188|512:224,1,72.5,0|8,1:2|2:1,0:0:0:0:
482,322,73504,6,0,P|417:348|361:307,1,145,4|8,1:2|1:2,0:0:0:0:
273,359,74030,1,8,1:2:0:0:
273,359,74205,2,0,P|259:325|245:292,1,72.5,2|2,0:0|3:2,0:0:0:0:
263,190,74556,6,0,P|294:148|347:146,1,108.75,10|0,0:0|1:2,0:0:0:0:
372,179,74907,1,2,1:2:0:0:
372,179,75083,1,8,2:2:0:0:
420,89,75258,1,2,1:2:0:0:
420,89,75433,1,8,1:2:0:0:
358,0,75609,6,0,P|300:39|233:18,1,145,6|2,1:2|1:1,0:0:0:0:
132,36,76135,1,10,2:2:0:0:
132,36,76310,2,0,P|148:87|163:139,1,108.75,2|0,1:1|1:2,0:0:0:0:
190,128,76661,6,0,B|158:179|210:219|177:268,1,145,10|10,2:0|0:0,0:0:0:0:
150,368,77187,1,2,0:0:0:0:
150,368,77363,2,0,P|117:352|83:338,1,72.5,2|2,1:2|1:2,0:0:0:0:
244,346,77714,6,0,P|298:302|366:320,1,145,2|0,1:2|0:0,0:0:0:0:
471,320,78240,1,2,1:2:0:0:
471,320,78416,2,0,P|477:279|483:248,1,72.5,2|2,1:2|0:0,0:0:0:0:
384,358,78766,6,0,P|368:271|358:215,2,145,10|0|10,0:0|1:2|0:0,0:0:0:0:
149,366,79819,6,0,P|81:379|34:328,1,145,2|2,1:2|1:1,0:0:0:0:
110,269,80345,1,8,2:2:0:0:
110,269,80521,2,0,P|118:215|128:161,1,108.75,2|0,1:2|0:0,0:0:0:0:
126,132,80872,6,0,P|67:170|0:151,1,145,10|10,2:0|0:0,0:0:0:0:
24,41,81398,1,0,0:0:0:0:
24,41,81573,2,0,P|59:37|90:54,1,72.5,2|0,1:2|1:2,0:0:0:0:
176,107,81924,6,0,P|241:75|307:45,1,145,2|0,1:2|0:0,0:0:0:0:
393,110,82451,1,2,1:2:0:0:
482,73,82626,2,0,P|490:38|480:3,1,72.5,2|2,1:2|0:0,0:0:0:0:
393,110,82977,5,2,1:2:0:0:
393,110,83152,1,8,0:0:0:0:
447,195,83328,2,0,P|462:184|477:176,2,36.25,0|0|0,1:2|1:0|1:2,0:0:0:0:
420,293,83679,2,0,P|436:301|451:310,2,36.25,10|0|0,0:0|1:0|1:0,0:0:0:0:
324,324,84030,6,0,L|298:181,1,145,4|2,1:2|1:1,0:0:0:0:
220,119,84556,1,10,2:2:0:0:
220,119,84731,2,0,P|189:161|205:211,1,108.75,2|0,1:2|0:0,0:0:0:0:
226,232,85082,6,0,P|157:254|89:279,1,145,10|10,2:0|0:0,0:0:0:0:
125,369,85609,1,2,0:0:0:0:
125,369,85784,2,0,P|157:384|190:372,1,72.5,2|2,1:2|1:2,0:0:0:0:
283,331,86135,6,0,B|335:318|366:388|414:379,1,145,2|0,1:2|0:0,0:0:0:0:
417,277,86661,1,2,1:2:0:0:
417,277,86837,2,0,P|425:241|435:206,1,72.5,2|2,1:2|0:0,0:0:0:0:
497,127,87187,5,10,0:0:0:0:
497,127,87363,1,10,0:0:0:0:
457,33,87538,2,0,P|428:55|393:55,1,72.5,0|0,1:2|1:2,0:0:0:0:
307,0,87889,1,10,0:0:0:0:
168,138,88240,6,0,P|104:101|41:67,2,145,4|8|2,1:2|0:0|1:1,0:0:0:0:
356,164,89293,2,0,P|425:144|495:126,2,145,4|10|2,1:2|0:0|1:2,0:0:0:0:
256,192,90170,1,2,1:2:0:0:
256,192,90345,5,4,1:2:0:0:
256,192,90433,12,2,91398,0:0:0:0:
