osu file format v14

[General]
AudioFilename: audio.mp3
AudioLeadIn: 0
PreviewTime: 56013
Countdown: 0
SampleSet: Soft
StackLeniency: 0.7
Mode: 0
LetterboxInBreaks: 0
WidescreenStoryboard: 1

[Editor]
DistanceSpacing: 1
BeatDivisor: 4
GridSize: 4
TimelineZoom: 1.8

[Metadata]
Title:Tsumetai Kabe no Mukou ni (Short Ver.)
TitleUnicode:冷たい壁のむこうに (Short Ver.)
Artist:yuki
ArtistUnicode:yuki
Creator:pnky
Version:insane.
Source:白昼夢の青写真
Tags:冷たい壁の向こうに Misure -karUpA- 緒乃ワサビ onoWasabi Laplacian Hakuchuumu no Aojashin The girl who's whos called the world -The girl who dreamed the world- cyanotype daydream video game visual novel vn japanese folk case2 case 2 case-2 op opening galgame eroge momo Between the Cold Walls
BeatmapID:3561068
BeatmapSetID:1741911

[Difficulty]
HPDrainRate:5.7
CircleSize:5
OverallDifficulty:7.5
ApproachRate:8.8
SliderMultiplier:1.65
SliderTickRate:1

[Events]
//Background and Video events
0,0,"oli1.jpg",0,0
Video,-95,"movie.mp4"
//Break Periods
//Storyboard Layer 0 (Background)
//Storyboard Layer 1 (Fail)
//Storyboard Layer 2 (Pass)
//Storyboard Layer 3 (Foreground)
//Storyboard Layer 4 (Overlay)
//Storyboard Sound Samples

[TimingPoints]
-180,350.877192982456,3,2,1,60,1,0
3153,-125,4,2,1,30,0,0
4030,-111.111111111111,4,2,1,60,0,0
20872,-166.666666666667,4,2,1,50,0,0
35960,-100,4,2,2,50,0,0
36486,-166.666666666667,4,2,1,50,0,0
37714,-125,4,2,1,60,0,0
38767,-100,4,2,1,60,0,0
39644,-125,4,2,1,60,0,0
40872,-100,4,2,1,60,0,0
41749,-125,4,2,1,60,0,0
42977,-100,4,2,1,60,0,0
44030,-125,4,2,1,60,0,0
45083,-100,4,2,1,60,0,0
45960,-125,4,2,1,60,0,0
46135,-117.647058823529,4,2,1,60,0,0
47188,-95.238095238095,4,2,1,60,0,0
48065,-117.647058823529,4,2,1,60,0,0
49293,-95.2380952380952,4,2,1,60,0,0
49644,-100,4,2,1,60,0,0
49995,-100,4,2,1,60,0,0
50346,-117.647058823529,4,2,1,60,0,0
50872,-100,4,2,2,60,0,0
51048,-100,4,2,1,60,0,0
51223,-100,4,2,2,60,0,0
51398,-117.647058823529,4,2,1,60,0,0
53504,-90.9090909090909,4,2,1,60,0,0
53855,-111.111111111111,4,2,1,60,0,0
55960,-142.857142857143,4,2,1,60,0,0
56662,350.877192982456,3,2,1,70,1,0
56662,-99.9999999999999,4,2,1,70,0,0
57714,-90.9090909090909,4,2,1,70,0,0
58065,-99.9999999999999,4,2,1,70,0,0
59118,-100,4,2,2,70,0,0
59293,-100,4,2,1,70,0,0
59819,-90.9090909090909,4,2,1,70,0,0
60170,-99.9999999999999,4,2,1,70,0,0
61925,-90.9090909090909,4,2,1,70,0,0
62276,-99.9999999999999,4,2,1,70,0,0
63679,-90.9090909090909,4,2,1,70,0,0
64030,-99.9999999999999,4,2,1,70,0,0
65083,-100,4,2,1,70,0,0
65609,-99.9999999999999,4,2,1,70,0,0
66135,-90.9090909090909,4,2,1,70,0,0
66837,-99.9999999999999,4,2,1,70,0,0
67188,-100,4,2,1,70,0,0
67714,-100,4,2,1,70,0,0
68240,-90.9090909090909,4,2,1,70,0,0
68767,-99.9999999999999,4,2,1,70,0,0
70346,-90.9090909090909,4,2,1,70,0,0
70872,-100,4,2,1,70,0,0
71398,-100,4,2,1,70,0,0
71925,-100,4,2,1,70,0,0
72451,-90.9090909090909,4,2,1,70,0,0
72977,-100,4,2,2,70,0,0
73153,-100,4,2,1,70,0,0
73328,-100,4,2,2,70,0,0
73504,-100,4,2,1,70,0,0
73679,-100,4,2,2,70,0,0
73854,-100,4,2,1,70,0,0
74556,-90.9090909090909,4,2,1,70,0,0
74907,-100,4,2,1,70,0,0
75609,350.877192982456,3,2,1,60,1,0
75609,-111.111111111111,4,2,1,60,0,0
88240,-111.111111111111,4,2,1,50,0,0
90345,-166.666666666666,4,2,1,50,0,0
92451,-111.111111111111,4,2,1,5,0,0

[Colours]
Combo1 : 150,185,220
Combo2 : 240,140,140
Combo3 : 200,180,220
Combo4 : 240,200,155

[HitObjects]
168,140,3153,6,0,L|166:172,1,33,8|8,0:0|0:0,0:0:0:0:
169,127,3328,1,8,3:2:0:0:
105,90,3504,1,0,3:2:0:0:
62,148,3679,2,0,L|79:247,1,99,0|0,3:2|0:0,0:0:0:0:
62,315,4030,6,0,B|147:326|117:252|210:267,1,148.49999546814,6|2,1:2|1:1,0:0:0:0:
244,326,4556,1,10,2:2:0:0:
244,326,4732,2,0,B|261:325|276:332|276:332|265:316|265:290,1,74.2499977340699,2|0,1:1|0:0,0:0:0:0:
346,209,5083,2,0,P|395:224|406:321,2,148.49999546814,10|2|2,2:0|0:0|1:2,0:0:0:0:
271,217,5960,1,2,1:2:0:0:
219,163,6135,6,0,B|227:108|227:108|251:83|251:83|262:21,1,148.49999546814,10|0,0:0|0:0,0:0:0:0:
188,5,6662,1,2,1:2:0:0:
146,67,6837,1,2,1:2:0:0:
146,67,7012,1,2,0:0:0:0:
295,146,7188,2,0,L|414:129,1,111.374996601105,10|0,0:0|0:0,0:0:0:0:
432,155,7539,2,0,P|432:195|400:222,1,74.2499977340699,0|0,1:2|1:2,0:0:0:0:
358,273,7890,2,0,P|358:313|390:340,1,74.2499977340699,2|0,1:2|0:0,0:0:0:0:
300,223,8241,6,0,P|253:213|181:292,1,148.49999546814,2|2,1:2|1:1,0:0:0:0:
114,316,8767,1,8,2:2:0:0:
262,289,8942,1,2,1:1:0:0:
196,351,9118,1,0,0:0:0:0:
55,266,9293,2,0,P|95:240|190:290,1,148.49999546814,10|2,2:0|1:2,0:0:0:0:
196,351,9819,1,0,0:0:0:0:
262,289,9995,2,0,P|261:248|229:209,1,74.2499977340699,2|0,1:2|1:2,0:0:0:0:
248,108,10346,6,0,B|170:103|197:173|118:163,1,148.49999546814,10|0,0:0|0:0,0:0:0:0:
66,109,10872,1,10,0:0:0:0:
134,20,11048,2,0,P|169:47|201:48,1,74.2499977340699,2|2,1:2|0:0,0:0:0:0:
309,0,11398,1,2,1:2:0:0:
248,108,11574,1,8,0:0:0:0:
319,177,11749,1,0,1:2:0:0:
343,157,11837,2,0,L|419:146,1,74.2499977340699,0|0,1:0|1:2,0:0:0:0:
476,178,12100,2,0,P|493:214|454:270,1,111.374996601105,10|0,0:0|0:0,0:0:0:0:
427,284,12451,6,0,P|391:265|296:321,1,148.49999546814,4|2,1:2|1:1,0:0:0:0:
277,378,12977,1,10,2:2:0:0:
159,319,13153,2,0,P|201:310|236:333,1,74.2499977340699,2|0,1:1|0:0,0:0:0:0:
125,384,13504,2,0,P|67:340|0:360,1,148.49999546814,10|2,2:0|1:2,0:0:0:0:
103,277,14030,1,2,0:0:0:0:
76,207,14205,2,0,P|44:228|30:267,1,74.2499977340699,2|2,1:2|1:2,0:0:0:0:
153,216,14556,6,0,P|150:151|55:97,1,148.49999546814,2|0,1:2|0:0,0:0:0:0:
30,145,15083,1,10,0:0:0:0:
110,26,15258,1,2,1:2:0:0:
110,26,15434,1,2,0:0:0:0:
179,52,15609,2,0,L|256:39,1,74.2499977340699,10|0,0:0|0:0,0:0:0:0:
319,7,15960,2,0,L|392:19,1,74.2499977340699,0|0,1:2|1:2,0:0:0:0:
463,41,16311,1,2,1:2:0:0:
463,41,16662,6,0,P|464:83|410:124,1,111.374996601105,4|0,1:2|0:0,0:0:0:0:
388,151,17012,2,0,P|387:193|415:219,1,74.2499977340699,2|10,1:2|2:2,0:0:0:0:
429,305,17363,1,2,1:1:0:0:
429,305,17539,1,0,0:0:0:0:
316,368,17714,2,0,B|251:374|274:315|201:329,1,111.374996601105,14|0,2:0|0:0,0:0:0:0:
191,353,18065,2,0,P|154:330|190:229,1,148.49999546814,2|2,1:2|1:2,0:0:0:0:
228,194,18591,1,2,1:2:0:0:
134,103,18767,6,0,L|57:115,2,74.2499977340699,6|0|2,1:2|0:0|0:0,0:0:0:0:
199,42,19293,2,0,L|276:54,1,74.2499977340699,10|0,0:0|1:2,0:0:0:0:
325,106,19644,1,2,0:0:0:0:
445,24,19819,2,0,P|494:53|485:115,1,111.374996601105,2|0,1:2|0:0,0:0:0:0:
462,122,20170,1,8,0:0:0:0:
386,223,20346,1,8,0:0:0:0:
454,286,20521,1,0,1:2:0:0:
454,286,20697,1,0,1:2:0:0:
413,342,20872,5,2,1:2:0:0:
413,342,21223,2,0,L|356:335,1,49.4999984893799,2|0,0:0|0:0,0:0:0:0:
306,297,21574,2,0,L|256:303,1,49.4999984893799,2|0,0:0|0:0,0:0:0:0:
208,352,21925,5,2,0:0:0:0:
113,257,22276,1,2,0:0:0:0:
113,257,22451,1,0,0:0:0:0:
143,196,22627,1,2,0:0:0:0:
143,196,22802,1,0,0:0:0:0:
91,107,22977,2,0,P|39:115|2:204,1,148.49999546814,2|2,0:0|0:0,0:0:0:0:
43,249,23679,2,0,L|36:308,1,49.4999984893799,2|0,0:0|0:0,0:0:0:0:
66,361,24030,1,2,0:0:0:0:
66,361,25434,5,2,0:0:0:0:
110,307,25609,1,0,0:0:0:0:
175,330,25784,1,2,0:0:0:0:
219,276,25960,1,0,0:0:0:0:
284,298,26135,6,0,P|331:268|329:213,1,98.9999969787599,2|2,0:0|0:0,0:0:0:0:
281,183,26662,1,0,0:0:0:0:
281,183,26837,2,0,L|287:123,1,49.4999984893799,2|0,0:0|0:0,0:0:0:0:
357,56,27188,2,0,P|407:55|460:147,1,148.49999546814,2|2,0:0|0:0,0:0:0:0:
415,180,27890,2,0,L|429:285,2,98.9999969787599,2|2|2,0:0|0:0|0:0,0:0:0:0:
415,180,29293,5,4,1:0:0:0:
415,180,29644,2,0,P|383:185|368:198,1,49.4999984893799,2|0,0:0|0:0,0:0:0:0:
302,179,29995,2,0,P|282:205|281:224,1,49.4999984893799,2|0,0:0|0:0,0:0:0:0:
248,282,30346,5,2,0:0:0:0:
248,282,30697,1,2,0:0:0:0:
248,282,30872,1,0,0:0:0:0:
188,317,31048,2,0,L|129:306,1,49.4999984893799,2|0,0:0|0:0,0:0:0:0:
33,326,31398,2,0,P|14:283|78:200,1,148.49999546814,2|2,0:0|0:0,0:0:0:0:
118,161,32100,2,0,L|111:99,1,49.4999984893799,2|0,0:0|0:0,0:0:0:0:
66,59,32451,1,2,0:0:0:0:
66,59,33153,5,2,0:0:0:0:
121,18,33328,1,0,0:0:0:0:
174,62,33504,1,2,0:0:0:0:
174,62,33855,5,2,0:0:0:0:
229,103,34205,1,2,0:0:0:0:
282,59,34556,1,2,0:0:0:0:
282,59,34907,6,0,P|337:70|345:165,1,148.49999546814,2|0,0:0|0:0,0:0:0:0:
290,177,35609,1,2,0:0:0:0:
290,177,36486,6,0,L|256:170,2,24.74999924469,0|0|8,1:2|1:2|0:0,0:0:0:0:
345,219,36837,1,0,3:2:0:0:
303,274,37012,1,0,3:3:0:0:
248,232,37188,1,0,3:3:0:0:
290,177,37363,1,0,3:3:0:0:
290,177,37714,6,0,P|247:113|138:154,1,198,10|2,1:2|0:0,0:0:0:0:
103,202,38416,2,0,P|122:229|125:277,1,66,2|2,1:2|1:2,0:0:0:0:
0,311,38767,2,0,B|86:280|72:358|167:329,1,165,10|2,0:0|1:2,0:0:0:0:
304,253,39469,1,10,2:2:0:0:
304,253,39644,1,2,1:2:0:0:
225,373,39819,6,0,P|239:317|369:322,1,198,2|2,1:2|0:0,0:0:0:0:
397,372,40521,2,0,P|394:347|410:303,1,66,2|2,0:0|1:2,0:0:0:0:
502,179,40872,2,0,P|447:166|386:247,1,165,2|0,1:2|1:2,0:0:0:0:
385,242,41398,1,2,0:0:0:0:
464,244,41574,1,8,1:2:0:0:
464,244,41749,1,2,0:0:0:0:
336,157,41925,6,0,B|276:143|239:171|260:241|154:227,1,198,2|2,1:2|0:0,0:0:0:0:
98,176,42627,2,0,P|101:136|117:111,1,66,2|2,0:0|0:0,0:0:0:0:
80,220,42977,2,0,P|86:126|123:67,2,165,10|2|10,1:2|1:2|0:0,0:0:0:0:
80,220,44030,6,0,B|90:270|45:298|45:298|113:273|154:327,1,198,2|2,1:2|1:2,0:0:0:0:
191,373,44732,2,0,P|221:357|277:353,1,66,2|0,1:2|0:0,0:0:0:0:
307,227,45083,2,0,P|357:267|458:248,1,165,2|0,1:2|1:2,0:0:0:0:
451,253,45609,1,2,0:0:0:0:
390,170,45784,1,8,0:0:0:0:
390,170,45960,1,2,0:0:0:0:
383,68,46135,6,0,P|300:125|306:226,1,210.375004012585,6|2,1:2|0:0,0:0:0:0:
390,170,46837,2,0,P|420:150|458:148,1,70.1250013375282,2|2,1:2|0:0,0:0:0:0:
306,226,47188,2,0,P|226:203|163:257,1,173.24999471283,10|2,1:2|1:2,0:0:0:0:
337,307,47890,1,10,2:2:0:0:
337,307,48065,1,2,0:0:0:0:
162,256,48241,6,0,P|184:353|282:369,1,210.375004012585,2|2,1:2|1:2,0:0:0:0:
337,307,48942,2,0,P|370:283|407:279,1,70.1250013375282,10|2,1:2|0:0,0:0:0:0:
435,384,49293,2,0,P|488:356|470:254,1,173.24999471283,2|0,1:2|1:2,0:0:0:0:
398,124,49995,1,10,0:0:0:0:
398,124,50170,1,2,0:0:0:0:
500,205,50346,6,0,B|469:204|451:180|451:180|437:226|473:256,1,140.250002675056,2|0,1:2|1:2,0:0:0:0:
377,192,50872,1,8,2:1:0:0:
505,134,51048,1,2,1:2:0:0:
505,134,51223,1,10,2:1:0:0:
407,59,51398,2,0,B|336:51|352:117|279:104,1,140.250002675056,10|2,1:2|1:2,0:0:0:0:
294,38,51925,1,0,0:0:0:0:
401,129,52100,1,10,0:0:0:0:
401,129,52276,1,2,1:2:0:0:
270,183,52451,6,0,P|227:105|175:131,1,140.250002675056,14|0,1:2|3:2,0:0:0:0:
192,252,52977,2,0,P|235:174|287:200,1,140.250002675056,0|0,1:2|0:0,0:0:0:0:
297,285,53504,2,0,L|109:267,1,181.500005538941,14|0,0:0|3:2,0:0:0:0:
51,304,54030,1,0,3:2:0:0:
112,193,54205,2,0,L|117:281,1,74.2499977340699,8|0,1:2|1:2,0:0:0:0:
51,304,54556,5,6,1:2:0:0:
153,363,54732,2,0,L|190:355,1,37.1249988670349,0|0,1:2|1:2,0:0:0:0:
116,267,54907,1,8,1:2:0:0:
51,304,55083,1,0,1:2:0:0:
81,371,55258,1,8,3:2:0:0:
112,192,55434,1,0,3:2:0:0:
43,163,55609,1,2,1:2:0:0:
43,163,55960,5,2,0:0:0:0:
46,134,56135,5,2,0:0:0:0:
50,105,56311,5,2,0:0:0:0:
54,76,56486,5,2,0:0:0:0:
117,33,56662,6,0,P|187:40|205:137,1,165,14|2,1:1|1:2,0:0:0:0:
320,224,57188,2,0,P|279:224|246:247,1,82.5,2|0,0:0|0:0,0:0:0:0:
145,169,57539,1,2,1:2:0:0:
186,316,57714,6,0,P|123:261|72:285,1,136.125004154205,10|0,1:2|1:2,0:0:0:0:
49,301,58065,2,0,L|58:385,1,82.5,0|0,1:2|0:0,0:0:0:0:
186,316,58416,1,2,1:2:0:0:
186,316,58591,1,2,0:0:0:0:
252,361,58767,6,0,B|346:369|310:299|405:310,1,165,10|10,1:2|2:1,0:0:0:0:
470,362,59205,1,8,2:1:0:0:
470,362,59293,2,0,P|425:331|477:239,1,165,10|2,0:0|1:2,0:0:0:0:
510,128,59819,6,0,B|510:58|455:33|455:33|434:71|378:68,1,181.500005538941,10|2,0:0|3:2,0:0:0:0:
252,160,60521,1,2,1:2:0:0:
324,201,60697,1,2,0:0:0:0:
249,64,60872,6,0,P|192:83|158:192,1,165,6|2,1:2|1:0,0:0:0:0:
49,177,61398,2,0,P|93:239|64:326,1,165,10|2,1:2|1:2,0:0:0:0:
166,381,61925,6,0,B|270:391|220:301|342:311,1,181.500005538941,10|2,0:0|3:2,0:0:0:0:
475,204,62626,1,10,1:2:0:0:
399,238,62802,1,2,0:0:0:0:
305,81,62977,6,0,P|370:76|408:162,1,165,6|2,1:2|0:0,0:0:0:0:
399,238,63504,1,0,1:2:0:0:
280,162,63679,2,0,P|280:113|305:81,1,90.7500027694703,10|0,0:0|0:0,0:0:0:0:
215,184,64030,5,10,0:0:0:0:
343,137,64205,1,0,3:2:0:0:
212,113,64381,1,0,1:2:0:0:
268,234,64556,1,0,3:2:0:0:
207,104,64732,1,2,3:2:0:0:
275,247,64907,1,10,0:0:0:0:
148,153,65083,6,0,B|56:159|104:234|0:240,1,165,14|0,0:0|1:2,0:0:0:0:
11,167,65609,1,10,0:0:0:0:
144,228,65784,2,0,P|152:269|131:307,1,82.5,2|0,0:0|3:2,0:0:0:0:
33,367,66135,6,0,P|97:322|176:389,2,181.500005538941,10|8|2,0:0|0:0|0:0,0:0:0:0:
134,303,67012,1,0,1:2:0:0:
254,378,67188,6,0,P|252:329|282:298,1,82.5,14|0,0:0|0:0,0:0:0:0:
358,256,67539,2,0,P|360:207|330:177,1,82.5,2|0,1:2|1:2,0:0:0:0:
275,119,67890,2,0,P|226:132|214:175,1,82.5,2|0,3:2|3:2,0:0:0:0:
358,256,68240,6,0,B|477:243|477:243|443:234|419:196,1,181.500005538941,10|0,0:0|1:2,0:0:0:0:
427,208,68942,1,2,1:2:0:0:
491,171,69118,1,2,0:0:0:0:
362,100,69293,6,0,B|275:122|338:183|218:204,1,165,14|0,0:0|1:2,0:0:0:0:
168,157,69819,1,0,1:2:0:0:
68,287,69995,1,2,3:2:0:0:
68,287,70170,1,2,3:2:0:0:
214,351,70346,6,0,P|214:274|114:252,1,181.500005538941,10|0,0:0|1:2,0:0:0:0:
73,361,70872,1,2,0:0:0:0:
68,287,71047,1,10,1:2:0:0:
63,213,71223,1,2,0:0:0:0:
164,52,71398,6,0,P|192:106|111:168,1,165,2|0,1:2|0:0,0:0:0:0:
58,139,71925,1,0,1:2:0:0:
126,245,72100,2,0,P|168:243|216:275,1,82.5,2|0,1:2|1:2,0:0:0:0:
293,384,72451,6,0,B|295:321|295:321|313:283|313:283|318:201,2,181.500005538941,8|0|0,0:0|1:2|1:2,0:0:0:0:
223,277,73328,1,8,2:1:0:0:
384,171,73504,6,0,P|326:132|242:198,1,165,4|8,1:2|1:2,0:0:0:0:
203,260,74030,1,8,1:2:0:0:
375,248,74205,2,0,P|390:210|383:170,1,82.5,2|2,0:0|3:2,0:0:0:0:
149,74,74556,6,0,B|121:78|99:56|99:56|130:87|120:153,1,136.125004154205,10|0,0:0|1:2,0:0:0:0:
46,114,74907,2,0,P|29:158|49:197,1,82.5,2|8,1:2|2:2,0:0:0:0:
188,162,75258,1,2,1:2:0:0:
122,130,75433,1,8,1:2:0:0:
68,279,75609,6,0,P|116:233|201:263,1,148.49999546814,6|2,1:2|1:1,0:0:0:0:
243,308,76135,1,10,2:2:0:0:
243,308,76310,2,0,B|259:305|275:311|275:311|263:296|260:270,1,74.2499977340699,2|0,1:1|1:2,0:0:0:0:
333,261,76573,1,0,1:2:0:0:
333,261,76661,2,0,P|335:184|354:114,1,148.49999546814,10|10,2:0|0:0,0:0:0:0:
419,80,77187,1,2,0:0:0:0:
307,29,77363,2,0,P|275:50|230:55,1,74.2499977340699,2|2,1:2|1:2,0:0:0:0:
152,139,77714,6,0,P|90:99|99:13,1,148.49999546814,2|0,1:2|0:0,0:0:0:0:
153,56,78240,1,2,1:2:0:0:
152,139,78416,1,2,1:2:0:0:
152,139,78591,1,2,0:0:0:0:
88,247,78766,2,0,P|91:175|151:138,1,148.49999546814,10|0,0:0|1:2,0:0:0:0:
206,188,79293,1,0,1:2:0:0:
206,188,79468,2,0,L|197:271,1,74.2499977340699,10|0,0:0|0:0,0:0:0:0:
282,354,79819,6,0,P|359:354|393:271,1,148.49999546814,2|2,1:2|1:1,0:0:0:0:
312,216,80345,1,8,2:2:0:0:
312,216,80521,2,0,L|320:305,1,74.2499977340699,2|0,1:2|0:0,0:0:0:0:
282,354,80784,1,0,0:0:0:0:
282,354,80872,2,0,P|359:354|393:271,1,148.49999546814,10|10,2:0|0:0,0:0:0:0:
462,269,81398,1,0,0:0:0:0:
402,225,81573,1,2,1:2:0:0:
402,225,81749,1,0,1:2:0:0:
304,141,81924,6,0,B|223:158|267:217|170:228,1,148.49999546814,2|0,1:2|0:0,0:0:0:0:
125,192,82451,1,2,1:2:0:0:
62,226,82626,1,2,1:2:0:0:
57,297,82801,1,2,0:0:0:0:
125,192,82977,1,2,1:2:0:0:
133,118,83152,1,8,0:0:0:0:
71,76,83328,2,0,L|32:81,2,37.1249988670349,0|0|0,1:2|1:0|1:2,0:0:0:0:
206,17,83679,1,10,0:0:0:0:
206,17,83766,1,0,1:0:0:0:
206,17,83854,1,0,1:0:0:0:
303,157,84030,6,0,P|326:91|273:47,1,148.49999546814,4|2,1:2|1:1,0:0:0:0:
219,98,84556,1,10,2:2:0:0:
303,157,84731,2,0,P|283:197|298:233,1,74.2499977340699,2|0,1:2|0:0,0:0:0:0:
343,276,85082,2,0,B|422:282|399:212|487:220,2,148.49999546814,10|10|2,2:0|0:0|1:2,0:0:0:0:
290,223,85959,1,2,1:2:0:0:
193,330,86135,6,0,B|216:355|250:349|250:349|219:311|230:267,1,148.49999546814,2|0,1:2|0:0,0:0:0:0:
290,223,86661,1,2,1:2:0:0:
229,268,86837,2,0,P|190:243|145:252,1,74.2499977340699,2|2,1:2|0:0,0:0:0:0:
92,260,87187,1,10,0:0:0:0:
29,225,87363,1,10,0:0:0:0:
4,157,87538,1,0,1:2:0:0:
32,90,87714,1,0,1:2:0:0:
98,58,87889,2,0,P|133:73|189:68,1,74.2499977340699,10|0,0:0|0:0,0:0:0:0:
269,143,88240,6,0,P|318:95|317:17,2,148.49999546814,4|8|2,1:2|0:0|1:1,0:0:0:0:
269,143,89293,5,4,1:2:0:0:
150,181,89644,2,0,P|234:153|314:253,1,222.74999320221,10|2,0:0|1:2,0:0:0:0:
314,243,90345,6,0,B|242:210|170:259|214:309|132:366|53:323,1,296.99999093628,4|2,1:2|0:0,0:0:0:0:
